This file was generated by Ched 2.7.0.0.
#TITLE ""
#ARTIST ""
#DESIGNER ""
#DIFFICULTY 0
#PLAYLEVEL
#SONGID ""
#WAVE ""
#WAVEOFFSET 0
#JACKET ""
#REQUEST "ticks_per_beat 480"
#00002: 4
#BPM01: 132
#00008: 01
#TIL00: ""
#VOLUME: ""
#HISPEED 00
#MEASUREHS 00
#00217:12121200
#00316:14141414
#0031c:1200001200000000
#0031a:00000000000000001200001200000000
#0071a:00000000000000000000001200000000
#0071c:1200001200000000
#00714:0012
#00712:0000000000000012
#00716:14141414
#00814:12
#0081c:00120000
#00813:0012
#0081b:00000012
#00816:14141414
#00416:14141414
#0041a:00120000
#00414:0012
#00413:00000012
#00412:005c000000000000
#00516:14141414
#00512:1200001200000012
#00514:00000000000000001200001200000000
#00616:14141414
#00614:00120000
#0061a:0012
#0061b:00000012
#00613:12
#00914:00000000000000000000001200000000
#00912:1200001200000000
#0091a:0012
#0091c:0000000000000012
#00916:14141414
#01016:14141400
#0101b:0012
#0101a:12
#01012:00120000
#01114:13131313
#01117:0013000000000013
#0111b:00531300
#01119:00000053000000000000001300000000
#0111a:24
#01110:41
#01214:13131313
#0121b:00000000000000000000000000000053
#01218:00000000000000000000005300000000
#01319:13131313
#01316:0013000000000013
#01312:24531300
#01314:00000053000000000000001300000000
#01419:13131313
#01412:00000000000023170000000013000000
#01415:00000000000000000000130000130000
#01418:0000000000000013
#01513:14141414
#01517:13000000000000130000000000000000
#0151b:00000000000000000013000000130000
#01519:00000000000000000000001300000013
#0151a:00140000
#01516:0000000000130013
#0161b:00000000000000130000130000000000
#01617:00000000140013000000130000130000
#01612:0000000000000013
#01618:15
#01613:14141414
#01616:0013000000000000
#0161a:0071000000000000
#01719:14141414
#01712:00130000001300000000001500000000
#01717:00001300000000130000130000001300
#01715:13000000130000000000000000130000
#01713:00000000000000000000000000000013
#01815:00130000000000000000000000000000
#01813:00000013000000000000000000000000
#01814:00000000000000130000000000000000
#01819:14141414
#01817:0013001300000013
#01812:0000130000242400
#01912:14141414
#01919:13000013000000130013000000001300
#01916:00001300001300000000130000000000
#01917:00000013
#01915:0000000000000013
#02014:13000013001300130000001300000000
#02018:0013001300130000
#02016:00000000000000000013000000000000
#0201a:14141414
#02019:0000000000000013
#02015:0000000000000013
#02012:00000013
#02112:1400000023000023
#0211a:00141400
#02118:1300001300000000
#02115:00000000000000130000001400000000
#02117:0000000000000014
#0211b:00000000000000000000002300000000
#02314:0013
#02318:00000013000000130000000000000000
#0231a:00000000000000000000001400000000
#0231b:00130000
#02315:00140014
#02317:0000000000000013
#02312:2c22002200220022
#02310:41
#02414:1313
#02418:00000000000013130000130000001300
#0241b:13000000130000000000001300130000
#02415:00140014
#02412:0022002200220022
#02514:1313
#0251b:00000000130000001300001300000000
#02518:2300001300130000
#02517:0000000000000013
#02515:00140014
#02512:0022002200220022
#02614:1313
#0261b:1300130000000013
#02615:00140014
#02617:00000000000013130000130000000000
#0261a:00000000000000000000001300000000
#02618:00000000000000000000000000130000
#02612:0022002200220022
#02719:1313
#02717:00140014
#02712:00000013000000000000001400000000
#02714:23000000001300000000000000140000
#0271c:0022002200220022
#02716:00000000000000230000000000000024
#02819:1313
#02817:00140014
#02812:00150000
#02816:0000001300000013
#02813:00000013
#0281c:0022002200220022
#02919:1313
#02917:00140014
#02915:00000013000000130000001300001300
#02912:23001313
#0291c:0022002200220022
#0301b:13001300130000130000000000000000
#03012:0000001300000000
#03018:0000000000000000000000000000000000000016000000000000000000000000
#03016:24002400240024240000000000000000
#03112:14241424
#03117:00001200001200001200001200001200
#03119:00000012000012000012000012000012
#0311a:24
#03110:41
#03212:14241424
#03216:00130000130000130000130000130000
#03219:00001300001300001300001300001300
#03316:14000014000014000014000014000014
#03319:00140000140000140000140000140000
#03312:14241424
#03419:14000015000015000000000000000000
#03415:00001500001500000000150000001600
#03417:0015
#03418:00000016
#03412:14241424
#0351a:24141414
#03515:00120000120000120000120000120000
#03517:00001200001200001200001200001200
#03512:24
#0361a:14141414
#03614:13000013000013000013000013000013
#03617:00130000130000130000130000130000
#0371a:14141414
#03717:13
#03713:00001400001400001400001400001400
#03716:00000014000014000014000014000014
#0381a:14140000
#03812:00150000150000150000000000000000
#03816:00001500001500000000000000000000
#03815:000000000000000000000000000000000000000000000000000000000000000000000000000000000000000000000000000000000000000000000000000000000000000000000000000000000000000000000000000000000000000000000000000000000000000000000000000000000000000000000000000000000000000000000000000000000000000000000000000000000000000000000000000000000000000000000000000000000000000000000000000000000000000000000000000000000000000000000000000000000000000000000000000000000000000000000000000000000000000000000000000000000000000000000000000000000000000000000000000000000000000000000000000000000000000000000000000000000000000000000000000000000000000000000000000000000000000000000000000000000000000000000000000000000000000000000000000000000000000000000000000000000000000000000000000000000000000000000000000000000000000000000000000000000000000000000000000000000000000000000000000000000000000000000000000000000000000000000000000000000000000000000000000000000000000000000000000000000000000000000000000000000000000000000000000000000000000000000000000000000000000000000000000000000000000000000000000000000000000000000000000000000000000000000000000000000000000000000000000000000000000000000000000000000000000000000000000000000000000000000000000000000000000000000000000000000000000000000000000000000000000000000000000000000000000000000000000000000000000000000000000000000000000000000000000000000000000000000000000000000000000000000000000000000000000000000000000000000000000000000000000000000000000000000000000000000000000000000000000000000000000000000000000000000000000000000000000000000000000000000000000000000000000000000000000000000000000000000000000000000000000000000000000000000000000000000000000000000000000000000000000000000000000000000000000000000000000000000000000000000000000000000000000000000000000000000000000000000000000000000000000000000000000000000000000000000000000000000000000000000000000000000000000000000000000000000000000000000000000000000000167600000000000000000000000000000000000000000000000000000000000000000000000000000000000000000000000000000000000000000000000000000000000000000000000000000000000000000000000000000000000000000000000000000000000000000000000000000000000000000000000000000000000000000000000000000000000000000000000000000000000000000000000000000000000000000000000000000000000000000000000000000000000000000000000000000000000000000000000000000000000000000000000000000000000000000000000000000000000000000000000000000000000000000000000000000000000000000000000000000000000000000000000000000000000000000000000000000000000000000000000000000000000000000000000000000000000000000000000000000000000000000000000000000000000000000000000000000000000000000000000000000000000000000000000000000000000000000000000000000000000000000000000000000000000000000000000000000000000000000000000000000000000000000000000000000000000000000000000000000000000000000000000000000000000000000000000000000000000000000000000000000000000000000000000000000000000000000000000000000000000000000000000000000000000000000000000000000000000000000000000000000000000000000000000000000000000000000000000000000000000000000000000000000000000000000000000000000000000000000000000000000000000000000000000000000000000000000000000000000000000000000000000000000000000000000000000000000000000000000000000000000000000000000000000000000000000000000000000000000000000000000000000000000000000000000000000000000000000000000000000000000000000000000000000000000000000000000000000000000000000000000000000000000000000000000000000000000000000000000000000000000000000000000000000000000000000000000000000000000000000000000000000000000000000000000000000000000000000000000000000000000000000000000000000000000000000000000000000000000000000000000000000000000000000000000000000000000000000000000000000000000000000000000000000000000000000000000000000000000000000000000000000000000000000000000000000000000000000000000000
#03914:13131313
#03917:13000000000000130000000000130000
#0391b:00000000000000000013000000000000
#03919:00000000000000000000001300000000
#0391a:00140000
#03912:0022002200220022
#03910:41
#04014:13131313
#0401a:0000140000130013
#04017:00000000000000130000000000130000
#04012:0022002200220022
#04119:13131313
#04116:00230000230000130000000000130000
#04114:00000000000000000000001300000013
#0411c:0022002200220022
#04113:00002300002300000000000000000000
#04219:13131313
#04216:00130000000000130000000000000000
#04214:00000013000000000000000000000000
#04212:00000000001300000000240024000000
#0421c:0022002200220022
#04312:13131313
#04316:14540014
#04318:00540054000012000000000000000000
#0431a:00005400000000120000000000000000
#04319:0000000000130013
#04315:0022002200220022
#0441b:13131313
#04414:00640064001400140000130000000000
#04412:0064000013000000
#04416:24640014
#04419:0022002200220022
#04514:00000013000000000000000000000000
#04513:0000001300000000
#0451a:00000000000000001400000000130000
#04519:00000000000000000000001300000000
#0451b:00000000000000000000000000000013
#04516:2424242424242424
#04612:000000002c2c2c2c00001c0000000000
#04617:00000012
#04616:24240000000000000000000000000000
#04614:00002828000000000000000000000000
#0501a:00000000000000001300005200000000
#05013:00000013
#05016:0000001200000012
#05018:00000000000012000000120000120000
#05017:12120000
#05014:00000000000000520000000000000000
#05012:0052
#05116:1400001200000000
#05117:00000000120000000000005212000000
#0511b:00000012000000000012000000000000
#0511a:00000000001200000000000000000000
#05113:00000000000000000000001200000000
#05114:00000000000000000000000000120000
#05118:0000000000000012
#05115:00000000000000001200000000000012
#05119:00000000000000120000000000000000
#05219:12000000001200000000000000001200
#05212:0012000000000000000000000000000000000000000000000000000000000000
#05216:0052001200000000
#05215:0000000012000012
#05214:0000000000120000
#05217:00120012
#05218:00000000000000120000000000000000
#0521a:0000520000520000
#0531a:13131414
#05313:13130000
#05316:00000012000000120000120000000000
#05318:00000000000012000000001200000000
#05312:0000000014000054
#05317:0000000000000012
#0541a:14001400140000140000000000000000
#05412:0000001400250000
#05417:000000000000000000000000000000000000000000000000000000000000000000000000000000000000000000000000000000000000000000000000000000000000000000000000000000000000000000000000000000000000000000000000000000000000000000000000000000000000000000000000000000000000000000000000000000000000000000000000000000000000000000000000000000000000000000000000000000000000000000000000000000000000000000000000000000000000000000000000000000000000000000000000000000000000000000000000000000000000000000000000000000000000000000000000000000000000000000000000000000000000000000000000000000000000000000000000000000000000000000000000000000000000000000000000000000000000000000000000000000000000000000000000000000000000000000000000000000000000000000000000000000000000000000000000000000000000000000000000000000000000000000000000000000000000000000000000000000000000000000000000000000000000000000000000000000000000000000000000000000000000000000000000000000000000000000000000000000000000000000000000000000000000000000000000000000000000000000000000000000000000000000000000000000000000000000000000000000000000000000000000000000000000000000000000000000000000000000000000000000000000000000000000000000000000000000000000000000000000000000000000000000000000000000000000000000000000000000000000000000000000000000000000000000000000000000000000000000000000000000000000000000000000000000000000000000000000000000000000000000000000000000000000000000000000000000000000000000000000000000000000000000000000000000000000000000000000000000000000000000000000000000000000000000000000000000000000000000000000000000000000000000000000000000000000000000000000000000000000000000000000000000000000000000000000000000000000000000000000000000000000000000000000000000000000000000000000000000000000000000000000000000000000000000000000000000000000000000000000000000000000000000000000000000000000000000000000000000000000000000000000000000000000000000000000000000000000000000000000000000000000000000000000000000000000000000000000000000000000000000000000000000000000000000000000000000000000000000000000000000000000000000000000000000000000000000000000000000000000000000000000000000000000000000000000000000000000000000000000000000000000000000000000000000000000000000000000000000000000000000000000000000000000000000000000000000000000000000000000000000000000000000000000000000000000000000000000000000000000000000000000000000000000000000000000000000000000000000000000000000000000000000000000000000000000000000000000000000000000000000000000000000000000000000000000000000000000000000000000000000000000000000000000000000000000000000000000000000000000000000000000000000000000000000000000000000000000000000000000000000000000000000000000000000000000000000000000000000000000000000000000000000000000000000000000000000000000000000000000000000000000000000000000000000000000000000000000000000000000000000000000000000000000000000000000000000000000000000000000000000000000121200000000000000000000000000000000000000000000000000000000000000000000000000000000000000000000000000000000000000000000000000000000000000000000000000000000000000000000000000000000000000000000000000000000000000000000000000000000000000000000000000000000000000000000000000000000000000000000000000000000000000000000000000000000000000000000000000000000000000000000000000000000000000000000000000000000000000000000000000000000000000000000000000000000000000000000000000000000000000000000000000000000000000000000000000000000000000000000000000000000000000000000000000000000000000000000000000000000000000000000000000000000000000000000000000000000000000000000000000000000000000000000000000000000000000000000000000000000000000000000000000000000000000000000000000000000000000000000000000000000000000000000000000000000000000000000000000000000000000000000000000000000000000000000000000000000000000000000000000000000000000000000000000000000000000000000000000000000000000000000
#05416:24002400240024240000000000000000
#05419:0000000000250000
#05518:0013
#05515:00000013160000130000000016000000
#05512:00000000130000000000001400000000
#05516:0000000000000014
#0551b:0023002300230023
#0551f:21
#05618:1313
#05615:00000000160013130000130016001300
#05612:13000000130000000000001300130000
#0561b:0023002300230023
#05610:41
#05718:1313
#05712:26000000130000001300001300000000
#05715:0000161300131600
#05716:0000000000000014
#0571b:0023002300230023
#05818:1313
#05812:1300130000000013
#05815:00000000160013130000130016000000
#05813:00000000000000000000001300000000
#05814:00000000000000000000000000130000
#0581b:0023002300230023
#05915:13161316
#0591b:00000013000000000000000000000000
#05919:00000000001300000000000000000000
#0591a:00000000000000000000001400000000
#05918:26000000000000000000000000140000
#05917:00000000000000230000000000000000
#05916:00000000000000000000000000000024
#05912:0023002300230023
#06015:13161316
#06017:00000000000000230000000000001300
#06019:00000000000000000000000015000000000000000000000000000000006300000000000000000000000000000000000000000000000000000000000000000000
#06018:00000000001400000000000000000000
#0601b:0000000000000000000000000000006300000000000000001300000000000000
#06012:0023002300230023
#06115:13160016
#06114:0013
#06118:00000013000000130000001300001300
#0611b:23001313
#06112:0023002300230023
#0621b:13001300130000130000000000000000
#06212:0000001300000000
#06213:0000000000120000
#06217:000012
#06215:260000000000260000000000260000000000260000260000000000000000000000001200000000000000000000000000
#0621c:0000000000000012
#06218:00000016
#04717:00121212
#0471b:00521200
#0471a:00000052000000000000001200000000
#04719:0012000000000000
#0471f:11
#04817:12121212
#04917:12121212
#04913:00521200
#04914:00000052000000000000001200000000
#04915:0012000000000000
#0631b:00130013
#06319:0013
#06312:25000000000000001200000000000000000000000000000000000000000000000000000000000000000000000000000000000000000000000000000000120000
#06318:0022002200220022
#06317:27
#06419:1313
#06412:00000000000000000000000000000000000000000000000000000000000000000000000000000000000000000012000000000000000000000000000000000000
#0641b:00130013
#06418:0022002200220022
#06416:0000000000000062
#06415:000000000000000000000062
#06414:000000000000000000000000000000000000000000000062
#06512:63130013
#06514:0013
#06519:000000140000000000000000000000000000000062000000000000130000000000000000000000000000000000000000
#06517:00000012
#06516:0022002200220022
#0651a:240000000000000000000062000000000000000000000000
#06510:41
#06518:0000006200000000
#0651b:0063
#06614:1313
#06612:00130013
#06618:00000012000000130000001400000000
#06617:00000000000000000000000000000015
#06616:0022002200220022
#0661a:00222324
#0671b:00130013
#06719:2513
#06712:250000000000000000000000000000000000000000000000000000000000000000000000000000000000000000000000000000000000000000000000000000000000000000000000000000000000000000000000000000000000000000000000000000000000000000000000000000000000000000000000150000000000000000000000000000000000000000000000000000000000000000000000000000000000000000000000000000000000000000000000000000000000000000000000000000000000000000000000000000000000000000000000000000000000000000000000000000000000000000000000000000000000000000000000000000000000000000000000000000000000000000000000000000000000000000000000000000000000000000000000000000000000000000000000000000000000000000000000000000000000000000000000000000000000000000000000000000000000000000000000000000000000000000000000000000000000000000000000000000000000000000000000000000000000000000000000000000000000000000000000000000000000000000000000000000000000000000000000000000000000000000000000000000000000000000000000000000000000000000000000000000000000000000000000000000000000000000000000000000000000000000000000000000000000000000000000000000000000000000000000000000000000000000000000000000000000000000000000000000000000000000000000000000000000000000000000000000000000000000000000000000000000000000000000000000000000000000000000000000000000000000000000000000000000000000000000000000000000000000000000000000000000000000000000000000000000000000000000000000000000000000000000000000000000000000000000000000000000000000000000651500000000000000000000000000000000000000000000000000000000000000000000000000000000000000000000000000000000000000000000000000000000000000000000000000000000000000000000000000000000000000000000000000000000000000000000000000000000000000000000000000000000000000000000000000000000000000000000000000000000000000000000000000000000000000000000000000000000000000000000000000000000000000000000000000000000000000000000000000000000000000000000000000000000000000000000000000000000000000000000000000000000000000000000000000000000000000000000000000000000000000000000000000000000000000000000000000000000000000000000000000000000000000000000000000000000000000000000000000000000000000000000000000000000000000000000000000000000000000000000000000000000000000000000000000000000000000000000000000000000000000000000000000000000000000000000000000000000000000000000000000000000000000000000000000000000000000000000000000000000120000000000000000000000000000000000000000000000000000000000651500000000000000000000000000000000000000000000000000000000000000000000000000000000000000000000000000000000000000000000000000000000000000000000000000000000000000000000000000000000000000000000000000000000000000000000000000000000000000000000000000000000000000000000000000000000000000000000000000000000000000000000000000000000000000000000000000000000000000000000000000000000000000000000000000000000000000000000000000000000000000000000000000000000000000000000000000000000000000000000000000000000000000000000000000000000000000000000000000000000000000000000000000000000000000000000000000000000000000000000000000000000000000000000000000000000000000000000000000000000000000000000000000000000000000000000000000000000000000000000000000000000000000000000000000000000000000000000000000000000000000000000000000000000000000000000000000000000000000000000000000000000000000000000000000000000000000000000000000000000000000000000000000000000000000000000000000000000000000000000000000000000000000000000000000000000000000000000000000000000000000000000000000000000000000000000000000000000000000000000000000000000000000000000000000000000000000000000000000000000000000000000000000000000000000000000000000000000000000000000000000000000000000000000000000000000000000000000000000000000000000000000000000000000000000000000000000000000000000000000000000000000000000000000000000000000000000000000000000000000000000000000000000000000000000000000000000000000000000000000
#06716:00000000000000000000000000000000000000000000001200000000000000000000000000000000000000000000000000000000000000000000000000000000
#06717:00000000000000000000000000000000000000000000000000000000000000000000000000000000000000120000000000000000000000000000000000000000
#06718:0022002200220022
#06812:00130013
#06814:0013
#06816:0022002200220022
#0681a:24
#06819:0000006500000000
#06817:00650000
#0691b:00130000
#06912:26000000001400000000000000000000120000000000000000000000000000000000000000000000000000000000000013000000000000000000000000000000
#0691a:00000000000000000000000000000000000000000000000000000000000000000000000000140000000000000000000000000000000000000000000000000000
#0691c:00000012
#06918:0022002226000000
#06916:0000000000220022
#07018:00002600260026260016000000000000
#07012:26002600260026260000000000000000
#02218:000000000000222222232425
#02216:000000000000000000000000002200220022000000000000
#02215:000000000000000000000000000000000000002300000000
#02214:0000000000000024
#02213:000000000000000000000000000000000000000000000025
#0001a:0000000000000000000000000000000000000062000000000000000062000000
#0105b:0012
#01157:0000000000000063
#0125b:0013000000000000
#01356:0000000000000053
#01452:00001300000063270000000000000000
#01557:13
#01559:00000000000000000000000000000063
#0155a:00640000
#01658:25
#01657:00640000
#01854:00000000000000130000000000000000
#01959:13
#02054:13
#02158:13
#02157:0000000000000014
#02557:0000000000000063
#02555:00140014
#02558:13
#02355:00140014
#02357:0000000000000063
#02352:1c
#02455:00140014
#0245b:23
#0265b:23
#02655:00140014
#02757:00140014
#02754:13
#02756:00000000000000630000000000000064
#02857:00140014
#02957:00140014
#02952:1363
#0305b:00000000000000430000000000000000
#03053:00000032
#03056:00000000000000540000000000000000
#03058:0000000000000000000000000000000000000026000000000000000000000000
#0315a:14
#03855:000000000000000000000000000000000000000000000000000000000000000000000000000000000000000000000000000000000000000000000000000000000000000000000000000000000000000000000000000000000000000000000000000000000000000000000000000000000000000000000000000000000000000000000000000000000000000000000000000000000000000000000000000000000000000000000000000000000000000000000000000000000000000000000000000000000000000000000000000000000000000000000000000000000000000000000000000000000000000000000000000000000000000000000000000000000000000000000000000000000000000000000000000000000000000000000000000000000000000000000000000000000000000000000000000000000000000000000000000000000000000000000000000000000000000000000000000000000000000000000000000000000000000000000000000000000000000000000000000000000000000000000000000000000000000000000000000000000000000000000000000000000000000000000000000000000000000000000000000000000000000000000000000000000000000000000000000000000000000000000000000000000000000000000000000000000000000000000000000000000000000000000000000000000000000000000000000000000000000000000000000000000000000000000000000000000000000000000000000000000000000000000000000000000000000000000000000000000000000000000000000000000000000000000000000000000000000000000000000000000000000000000000000000000000000000000000000000000000000000000000000000000000000000000000000000000000000000000000000000000000000000000000000000000000000000000000000000000000000000000000000000000000000000000000000000000000000000000000000000000000000000000000000000000000000000000000000000000000000000000000000000000000000000000000000000000000000000000000000000000000000000000000000000000000000000000000000000000000000000000000000000000000000000000000000000000000000000000000000000000000000000000000000000000000000000000000000000000000000000000000000000000000000000000000000000000000000000000000000000000000000000000000000000000000000000000000000000000000000000000000666600000000000000000000000000000000000000000000000000000000000000000000000000000000000000000000000000000000000000000000000000000000000000000000000000000000000000000000000000000000000000000000000000000000000000000000000000000000000000000000000000000000000000000000000000000000000000000000000000000000000000000000000000000000000000000000000000000000000000000000000000000000000000000000000000000000000000000000000000000000000000000000000000000000000000000000000000000000000000000000000000000000000000000000000000000000000000000000000000000000000000000000000000000000000000000000000000000000000000000000000000000000000000000000000000000000000000000000000000000000000000000000000000000000000000000000000000000000000000000000000000000000000000000000000000000000000000000000000000000000000000000000000000000000000000000000000000000000000000000000000000000000000000000000000000000000000000000000000000000000000000000000000000000000000000000000000000000000000000000000000000000000000000000000000000000000000000000000000000000000000000000000000000000000000000000000000000000000000000000000000000000000000000000000000000000000000000000000000000000000000000000000000000000000000000000000000000000000000000000000000000000000000000000000000000000000000000000000000000000000000000000000000000000000000000000000000000000000000000000000000000000000000000000000000000000000000000000000000000000000000000000000000000000000000000000000000000000000000000000000000000000000000000000000000000000000000000000000000000000000000000000000000000000000000000000000000000000000000000000000000000000000000000000000000000000000000000000000000000000000000000000000000000000000000000000000000000000000000000000000000000000000000000000000000000000000000000000000000000000000000000000000000000000000000000000000000000000000000000000000000000000000000000000000000000000000000000000000000000000000000000000000000000000000000000000000000000000000000000000000
#03852:00000013
#0385b:00000013
#0385a:00140000
#0355a:00140014
#0365a:00140014
#0375a:00140014
#03957:13
#0395a:00640000
#0405a:00640000
#04256:00000000000000130000000000000000
#04456:00000064
#04552:14
#0455a:0014
#04756:14
#04652:00000000006c0000
#04657:00000022
#05152:13
#05155:00000000000000001200000000000052
#0515b:00000000000000000022000000000000
#05159:00000000000000620000000000000000
#05056:0000000000000062
#05055:0012000000000000
#05259:12
#05252:0022000000000000000000000000000000000000000000000000000000000000
#05255:0012
#05258:00000000000000620000000000000000
#0535a:13
#05457:000000000000000000000000000000000000000000000000000000000000000000000000000000000000000000000000000000000000000000000000000000000000000000000000000000000000000000000000000000000000000000000000000000000000000000000000000000000000000000000000000000000000000000000000000000000000000000000000000000000000000000000000000000000000000000000000000000000000000000000000000000000000000000000000000000000000000000000000000000000000000000000000000000000000000000000000000000000000000000000000000000000000000000000000000000000000000000000000000000000000000000000000000000000000000000000000000000000000000000000000000000000000000000000000000000000000000000000000000000000000000000000000000000000000000000000000000000000000000000000000000000000000000000000000000000000000000000000000000000000000000000000000000000000000000000000000000000000000000000000000000000000000000000000000000000000000000000000000000000000000000000000000000000000000000000000000000000000000000000000000000000000000000000000000000000000000000000000000000000000000000000000000000000000000000000000000000000000000000000000000000000000000000000000000000000000000000000000000000000000000000000000000000000000000000000000000000000000000000000000000000000000000000000000000000000000000000000000000000000000000000000000000000000000000000000000000000000000000000000000000000000000000000000000000000000000000000000000000000000000000000000000000000000000000000000000000000000000000000000000000000000000000000000000000000000000000000000000000000000000000000000000000000000000000000000000000000000000000000000000000000000000000000000000000000000000000000000000000000000000000000000000000000000000000000000000000000000000000000000000000000000000000000000000000000000000000000000000000000000000000000000000000000000000000000000000000000000000000000000000000000000000000000000000000000000000000000000000000000000000000000000000000000000000000000000000000000000000000000000000000000000000000000000000000000000000000000000000000000000000000000000000000000000000000000000000000000000000000000000000000000000000000000000000000000000000000000000000000000000000000000000000000000000000000000000000000000000000000000000000000000000000000000000000000000000000000000000000000000000000000000000000000000000000000000000000000000000000000000000000000000000000000000000000000000000000000000000000000000000000000000000000000000000000000000000000000000000000000000000000000000000000000000000000000000000000000000000000000000000000000000000000000000000000000000000000000000000000000000000000000000000000000000000000000000000000000000000000000000000000000000000000000000000000000000000000000000000000000000000000000000000000000000000000000000000000000000000000000000000000000000000000000000000000000000000000000000000000000000000000000000000000000000000000000000000000000000000000000000000000000000000000000000000000000000000000000000000000000000000000000222200000000000000000000000000000000000000000000000000000000000000000000000000000000000000000000000000000000000000000000000000000000000000000000000000000000000000000000000000000000000000000000000000000000000000000000000000000000000000000000000000000000000000000000000000000000000000000000000000000000000000000000000000000000000000000000000000000000000000000000000000000000000000000000000000000000000000000000000000000000000000000000000000000000000000000000000000000000000000000000000000000000000000000000000000000000000000000000000000000000000000000000000000000000000000000000000000000000000000000000000000000000000000000000000000000000000000000000000000000000000000000000000000000000000000000000000000000000000000000000000000000000000000000000000000000000000000000000000000000000000000000000000000000000000000000000000000000000000000000000000000000000000000000000000000000000000000000000000000000000000000000000000000000000000000000000000000000000000000000000
#05452:0000000000650000
#05459:0000000000650000
#05756:0000000000000054
#05752:36
#05755:00160016
#05852:23
#05855:00160016
#05556:0000000000000054
#05555:00160016
#05558:46
#05552:36
#05652:23
#05655:00160016
#05955:00160016
#05957:00000000000000530000000000000000
#05956:00000000000000000000000000000054
#05958:46
#06055:00160016
#0605b:0000000000000000000000000000004300000000000000000000000000000000
#06057:00000000000000430000000000000000
#06059:00000000000000000000000000000000000000000000000000000000004300000000000000000000000000000000000000000000000000000000000000000000
#06155:00160016
#0615b:1353
#0625b:43004300430000430000000000000000
#0625c:0000000000000022
#06258:00000066
#04859:0012000000000000
#06357:17
#0635b:00130013
#06352:65000000000000002200000000000000000000000000000000000000000000000000000000000000000000000000000000000000000000000000000000220000
#06452:00000000000000000000000000000000000000000000000000000000000000000000000000000000000000000022000000000000000000000000000000000000
#0645b:00130013
#06552:00130013
#06559:00640000000000000063000000000000
#06557:00000022
#06652:00130013
#0665a:44
#0675b:00130013
#06752:000000000000000000000000000000000000000000000000000000000000000000000000000000000000000000000000000000000000000000000000000000000000000000000000000000000000000000000000000000000000000000000000000000000000000000000000000000000000000000000000250000000000000000000000000000000000000000000000000000000000000000000000000000000000000000000000000000000000000000000000000000000000000000000000000000000000000000000000000000000000000000000000000000000000000000000000000000000000000000000000000000000000000000000000000000000000000000000000000000000000000000000000000000000000000000000000000000000000000000000000000000000000000000000000000000000000000000000000000000000000000000000000000000000000000000000000000000000000000000000000000000000000000000000000000000000000000000000000000000000000000000000000000000000000000000000000000000000000000000000000000000000000000000000000000000000000000000000000000000000000000000000000000000000000000000000000000000000000000000000000000000000000000000000000000000000000000000000000000000000000000000000000000000000000000000000000000000000000000000000000000000000000000000000000000000000000000000000000000000000000000000000000000000000000000000000000000000000000000000000000000000000000000000000000000000000000000000000000000000000000000000000000000000000000000000000000000000000000000000000000000000000000000000000000000000000000000000000000000000000000000000000000000000000000000000000000000000000000000000000000006500000000000000000000000000000000000000000000000000000000000000000000000000000000000000000000000000000000000000000000000000000000000000000000000000000000000000000000000000000000000000000000000000000000000000000000000000000000000000000000000000000000000000000000000000000000000000000000000000000000000000000000000000000000000000000000000000000000000000000000000000000000000000000000000000000000000000000000000000000000000000000000000000000000000000000000000000000000000000000000000000000000000000000000000000000000000000000000000000000000000000000000000000000000000000000000000000000000000000000000000000000000000000000000000000000000000000000000000000000000000000000000000000000000000000000000000000000000000000000000000000000000000000000000000000000000000000000000000000000000000000000000000000000000000000000000000000000000000000000000000000000000000000000000000000000000000000000000000000000000220000000000000000000000000000000000000000000000000000000000006500000000000000000000000000000000000000000000000000000000000000000000000000000000000000000000000000000000000000000000000000000000000000000000000000000000000000000000000000000000000000000000000000000000000000000000000000000000000000000000000000000000000000000000000000000000000000000000000000000000000000000000000000000000000000000000000000000000000000000000000000000000000000000000000000000000000000000000000000000000000000000000000000000000000000000000000000000000000000000000000000000000000000000000000000000000000000000000000000000000000000000000000000000000000000000000000000000000000000000000000000000000000000000000000000000000000000000000000000000000000000000000000000000000000000000000000000000000000000000000000000000000000000000000000000000000000000000000000000000000000000000000000000000000000000000000000000000000000000000000000000000000000000000000000000000000000000000000000000000000000000000000000000000000000000000000000000000000000000000000000000000000000000000000000000000000000000000000000000000000000000000000000000000000000000000000000000000000000000000000000000000000000000000000000000000000000000000000000000000000000000000000000000000000000000000000000000000000000000000000000000000000000000000000000000000000000000000000000000000000000000000000000000000000000000000000000000000000000000000000000000000000000000000000000000000000000000000000000000000000000000000000000000000000000000000000000000000000000000000000
#06756:00000000000000000000000000000000000000000000002200000000000000000000000000000000000000000000000000000000000000000000000000000000
#06757:00000000000000000000000000000000000000000000000000000000000000000000000000000000000000220000000000000000000000000000000000000000
#06852:34130013
#0685a:24
#0695b:00130000
#06952:00000000006400000000000000000000220000000000000000000000000000001600000000000000000000000000000013000000000000000000000000000000
#0695a:00000000000000000000000000000000000000000000000000000000000000000000000000540000000000000000000000000000000000000000000000000000
#0695c:00000022
#06958:16
#07058:16000000160000460026000000000000
#07052:00001600000016660000000000000000
#07053:00000032
#0003a0:0000000000000000000000000000000000000012000000000000000022000000
#0033a0:000000000000000000000000000000000000000000000000000000000000000000000000000000000000000000000000000000000000000000000000000000000000000000000000000000000000000000000000000000000000000000000000000000000000000000000000000000000000000000000000000000000000000000000000000000000000000000000000000000000000000000000000000000000000000000000000000000000000000000000000000000000000000000000000000000000000000000000000000000000000000000000000000000000000000000000000000000000000000000000000000000000000000000000000000000000000000000000000000000000000000000000000000000000000000000000000000000000000000000000000000000000000000000000000000000000000000000000000000000000000000000000000000000000000000000000000000000000000000000000000000000000000000000000000000000000000000000000000000000000000000000000000000000000000000000000000000000000000000000000000000000000000000000000000000000000000000000000000000000000000000000000000000000000000000000000000000000000000000000000000000000000000000000000000000000000000000000000000000000000000000000000000000000000000000000000000000000000000000000000000000000000000000000000000000000000000000000000000000000000000000000000000000000000000000000000000000000000000000000000000000000000000000000000000000000000000000000000000000000000000000000000000000000000000000000000000000000000000000000000000000000000000000000000000000000000000000000000000000000000000000000000000000000000000000000000000000000000000000000000000000000000000000000000000000000000000000000000000000000000000000000000000000000000000000000000000000000000000000000000000000000000000000000000000000000000000000000000000000000000000000000000000000000000000000000000000000000000000000000000000000000000000000000000000000000000000000000000000000000000000000000000000000000000000000000000000000000000000000000000000000000000000000000000000000000000000000000000000000000000000000000000000000000000000000000000000000000000000000000000000000000000000000000000000000000000000000000000000000000000000000000000000000000000000000000000000000000000000000000000000000000000000000000000000000000000000000000000000000000000000000000000000000000000000000000000000000000000000000000000000000000000000000000000000000000000000000000000000000000000000000000000000000000000000000000000000000000000000000000000000000000000000000000000000000000000000000000000000000000000000000000000000000000000000000000000000000000000000000000000000000000000000000000000000000000000000000000000000000000000000000000000000000000000000000000000000000000000000000000000000000000000000000000000000000000000000000000000000000000000000000000000000000000000000000000000000000000000000000000000000000000000000000000000000000000000000000000000000000000000000000000000000000000000000000000000000000000000000000000000000000000000000000000000000000000000000000000000000000000000000000000000000000000000000000000000000000000000000000000000000000000000000000000000000000000000000000000000000000000000000000000000000000000000000000000000000000000000000000000000000000000000000000000000000000000000000000000000000000000000000000000000000000000000000000000000000000000000000000000000000000000000000000000000000000000000000000000000000000000000000000000000000000000000000000000000000000000000000000000000000000000000000000000000000000000000000000000000000000000000000000000000000000000000000000000000000000000000000000000000000120000000000000000000000000000000000000000000000000000000000000000000000000000000000000000000000000000000000000000000000000000000000000000000000000000000000000000000000000000000000000000000000000000000000000000000000000000000000000000000052000000000000000000000000000000000000000000000000000000000000000000000000000000000000000000000000000000000000000000000000000000000000000000000000000000000000000000000000000000000000000000000000000000000000000000000000000000000000000000000000
#003320:0000000000000000000000000000005c
#004320:002c000000000000
#011370:0000000000000013
#0123b0:0023000000000000
#012380:00000000000000001300002300000000
#0123b0:00000000000000000000000013000023
#013360:0000000000000013
#014320:0023000000000000
#014320:00000000000013572300000000000000
#0153a0:00140000
#015370:0000002300000000
#015390:00000000000000000000000000000013
#016380:55
#0163a0:0021000000000000
#016370:00140000
#0163b0:0000002300000000
#017320:000000000000000000000000000000000000000000000000000000000000000000000000000000000000000000000000000000000000000000000000000000000000000000000000000000000000000000000000000000000000000000000000000000000000000000000000000000000000000000000000000000000000000000000000000000000000000000000000000000000000000000000000000000000000000000000000000000000000000000000000000000000000000000000000000000000000000000000000000000000000000000000000000000000000000000000000000000000000000000000000000000000000000000000000000000000000000000000000000000000000000000000000000000000000000000000000000000000000000000000000000000000000000000000000000000000000000000000000000000000000000000000000000000000000000000000000000000000000000000000000000000000000000000000000000000000000000000000000000000000000000000000000000000000000000000000000000000000000000000000000000000000000000000000000000000000000000000000000000000000000000000000000000000000000000000000000000000000000000000000000000000000000000000000000000000000000000000000000000000000000000000000000000000000000000000000000000000000000000000000000000000000000000000000000000000000000000000000000000000000000000000000000000000000000000000000000000000000000000000000000000000000000000000000000000000000000000000000000000000000000000000000000000000000000000000000000000000000000000000000000000000000000000000000000000000000000000000000000000000000000000000000000000000000000000000000000000000000000000000000000000000000000000000000000000000000000000000000000000000000000000000000000000000000000000000000000000000000000000000000000000000000000000000000000000000000000000000000000000000000000000000000000000000000000000000000000000000000000000000000000000000000000000000000000000000000000000000000000000000000000000000000000000000000000000000000000000000000000000000000000000000000000000000000000000000000000000000000000000000000000000000000000000000000000000000000000000000000000000000000000150000000000000000000000000000000000000000000000000000000000000000000000000000000000000000000000000000000000000000000000555300000000000000000000000000000000000000000000000000000000000000000000000000000000000000000000000000000000000000000000000000000000000000000000000000000000000000000000000000000000000000000000000000000000000000000000000000000000000000000053550000000000000000000000000000000000000000000000000000000000000000000000000000000000000000000000000000000000000000000000250000000000000000000000000000000000000000000000000000000000000000000000000000000000000000000000000000000000000000000000000000000000000000000000000000000000000000000000000000000000000000000000000000000000000000000000000000000000000000000000000000000000000000000000000000000000000000000000000000000000000000000000000000000000000000000000000000000000000000000000000000000000000000000000000000000000000000000000000000000000000000000000000000000000000000000000000000000000000000000000000000000000000000000000000000000000000000000000000000000000000000000000000000000000000000000000000000000000000000000000000000000000000000000000000000000000000000000000000000000000000000000000000000000000000000000000000000000000000000000000000000000000000000000000000000000000000000000000000000000000000000000000000000000000000000000000000000000000000000000000000000000000000000000000000000000000000000000000000000000000000000000000000000000000000000000000000000000000000000000000000000000000000000000000000000000000000000000000000000000000000000000000000000000000000000000000000000000000000000000000000000000000000000000000000000000000000000000000000000000000000000000000000000000000000000000000000000000000000000000000000000000000000000000000000000000000000000000000000000000000000000000000000000000000000000000000000000000000000000000000000000000000000000000000000000000000000000000000000000000000000000000000000000000000000000000000000000000000000000000000
#018320:0000000000001424
#021350:0000132300000000
#0233a0:0000000014240000
#023370:0000000000000013
#0243b0:53
#024370:0023000000000000
#025370:0000000000000013
#0263b0:53
#026370:0023000000000000
#027360:00000000000000130000000000000000
#027320:0000000000240000
#027360:00000000000000000000000000000014
#028320:0025000000000000
#028360:00000000000000130000230000000000
#029320:0013
#029350:0000000000230000
#030360:00000000000000140000000000000000
#030380:0000000000000000000000000000000000000056000000000000000000000000
#030330:00000022
#038350:0016
#038320:00000023
#038351:000000000000000000000000000000000000000000000000000000000000000000000000000000000000000000000000000000000000000000000000000000000000000000000000000000000000000000000000000000000000000000000000000000000000000000000000000000000000000000000000000000000000000000000000000000000000000000000000000000000000000000000000000000000000000000000000000000000000000000000000000000000000000000000000000000000000000000000000000000000000000000000000000000000000000000000000000000000000000000000000000000000000000000000000000000000000000000000000000000000000000000000000000000000000000000000000000000000000000000000000000000000000000000000000000000000000000000000000000000000000000000000000000000000000000000000000000000000000000000000000000000000000000000000000000000000000000000000000000000000000000000000000000000000000000000000000000000000000000000000000000000000000000000000000000000000000000000000000000000000000000000000000000000000000000000000000000000000000000000000000000000000000000000000000000000000000000000000000000000000000000000000000000000000000000000000000000000000000000000000000000000000000000000000000000000000000000000000000000000000000000000000000000000000000000000000000000000000000000000000000000000000000000000000000000000000000000000000000000000000000000000000000000000000000000000000000000000000000000000000000000000000000000000000000000000000000000000000000000000000000000000000000000000000000000000000000000000000000000000000000000000000000000000000000000000000000000000000000000000000000000000000000000000000000000000000000000000000000000000000000000000000000000000000000000000000000000000000000000000000000000000000000000000000000000000000000000000000000000000000000000000000000000000000000000000000000000000000000000000000000000000000000000000000000000000000000000000000000000000000000000000000000000000000000000000000000000000000000000000000000000000000000000000000000000000000000000000000000000000000000001600000000000000000000000000000000000000000000000000000000000000000000000000000000000000000000000000000000000000000000000000000000000000000000000000000000000000000000000000000000000000000000000000000000000000000000000000000000000000000000000000000000000000000000000000000000000000000000000000000000000000000000000000000000000000000000000000000000000000000000000000000000000000000000000000000000000000000000000000000000000000000000000000000000000000000000000000000000000000000000000000000000000000000000000000000000000000000000000000000000000000000000000000000000000000000000000000000000000000000000000000000000000000000000000000000000000000000000000000000000000000000000000000000000000000000000000000000000000000000000000000000000000000000000000000000000000000000000000000000000000000000000000000000000000000000000000000000000000000000000000000000000000000000000000000000000000000000000000000000000000000000000000000000000000000000000000000000000000000000000000000000000000000000000000000000000000000000000000000000000000000000000000000000000000000000000000000000000000000000000000000000000000000000000000000000000000000000000000000000000000000000000000000000000000000000000000000000000000000000000000000000000000000000000000000000000000000000000000000000000000000000000000000000000000000000000000000000000000000000000000000000000000000000000000000000000000000000000000000000000000000000000000000000000000000000000000000000000000000000000000000000000000000000000000000000000000000000000000000000000000000000000000000000000000000000000000000000000000000000000000000000000000000000000000000000000000000000000000000000000000000000000000000000000000000000000000000000000000000000000000000000000000000000000000000000000000000000000000000000000000000000000000000000000000000000000000000000000000000000000000000000000000000000000000000000000000000000000000000000000000000000000000000000000000000000000000000000000000000000000
#0383b1:00000023
#0393a1:00140000
#039371:0000002300000000
#039391:00000000000000000000000000000014
#039381:0000000000000000000000000000000000000000000000000000000000000000000000000000000000000000000000000000000000000000000000000000000000000000000000000000000000000000000000000000000000000000000000000000000000000000000000000000000000000000000000000054000000540000
#0393a1:0000000000000000000000000000000000000000000000000000000000000000000000000000000000000000000000000000000000000000000000000000000000000000000000000000000000000000000000000000000000000000000000000000000000000000000000000000000000000000000000000000005400000054
#040381:0054000000540000005400000054000000000000000000000000000000000000000000000000000000000000000000000000000000000000000000000000000000000000000000000000000000000000000000000000000000000000000000000000000000000000000000000000000000000000000000000000000000000000
#0403a1:0000005400000054000000540000005400000000000000000000000000000000000000000000000000000000000000000000000000000000000000000000000000000000000000000000000000000000000000000000000000000000000000000000000000000000000000000000000000000000000000000000000000000000
#040391:0024000000000000
#0403a1:00140000
#040371:0000002300000000
#041341:00000000000000001353230000000000
#041321:000000000000000000000000000000000000000000000000000000000000000000000000000000000000000000000000000000000000000000000000000000000000000000000000000000000000000000000000000000000000000000000000000000000000000000000000000000000000000000000000000000000000000000000000000000000000000000000000000000000000000000000000000000000000000000000000000000000000000000000000000000000000000000000000000000000000000000000000000000000000000000000000000000000000000000000000000000000000000000000000000000000000000000000000000000000000000000000000000000000000000000000000000000000000000000000000000000000000000000000000000000000000000000000000000000000000000000000000000000000000000000000000000000000000000000000000000000000000000000000000000000000000000000000000000000000000000000000000000000000000000000000000000000000000000000000000000000000000000000000000000000000000000000000000000000000000000000000000000000000000000000000000000000000000000000000000000000000000000000000000000000000000000000000000000000000000000000000000000000000000000000000000000000000000000000000000000000000000000000000000000000000000000000000000000000000000000000000000000000000000000000000000000000000000000000000000000000000000000000000000000000000000000000000000000000000000000000000000000000000000000000000000000000000000000000000000000000000000000000000000000000000000000000000000000000000000000000000000000000000000000000000000000000000000000000000000000000000000000000000000000000000000000000000000000000000000000000000000000000000000000000000000000000000000000000000000000000000000000000000000000000000000000000000000000000000000000000000000000000000000000000000000000000000000000000000000000000000000000000000000000000000000000000000000000000000000000000000000000000000000000000000000000000000000000000000000000000000000000000000000000000000000000000000000000000000000000000000000000000000000000000000000000000000000000000000000000000000000000000000000000000000000000000000000000000000000000000000000000000000000000000000000000000000000000000000000000000000000000000000000000000000000000000000000000000000000000000000000000000000000000000000000000000000000000000000000000000000000000000000000005700000000000000000000000000000000000000000000000000000000000000000000000000000000000000000000000000000000000000000000000000000000000000000000000000000000000000000000000000000000000000000000000000000000000000000000000000000000000000000000000000000000000000000000000000000000000000000000000000000000000000000000000000000000000000000000000000000000000000000000000000000000000000000000000000000000000000000000000000000000000000000000000000000000000000000000000000000000000000000000000000000000000000000000000000000000000000000000000000000000000000000000000000000000000000000000000000000000000000000000000000000000000000000000000000000000000000000000000000000000000000000000000000000000000000000000000000000000000000000000000000000000000000000000000000000000000000000000000000000000000000000000000000000000000000000000000000000000000000000000000000000000000000000000000000000000000000000000000000000000000000000000000000000000000000000000000000000000000000000000000000000000000000000000000000000000000000000000000000000000000000000000000000000000000000000000000000000000000000000000000000000000000000000000000000000000000000000000000000000000000000000000000000000000000000000000000000000000000000000000000000000000000000000000000000000000000000000000000000000000000000000000000000000000000000000000000000000000000000000000000000000000000000000000000000000000000000000000000000000000000000000000000000000000000000000000000000000000000000000000000000000000000000000000000000000000000000000000000000000000000000000000000000000000000000000000000000000000000000000000000000000000000000000000000000000000000000000000000000000000000000000000000000000000000000000000000000000000000000000000
#042321:0000000000001424
#044361:00000014
#045321:24
#046321:000000001c3c0000
#046371:00000052
#047361:24
#047391:0000000000000012
#048391:0022000000000000
#049351:0000000000000012
#050351:0022000000000000
#050361:0000000000000012
#051321:23
#051391:00000000000000120000000000000000
#0513b1:00000000000000000052000000000000
#051371:00000000000000000000002200000000
#051351:00000000000000000000000000000012
#052321:0052000000000000000000000000000000000000000000000000000000000000
#052361:0022000000000000
#0523a0:0012220000000000
#052380:00000000000000120000000000000000
#0523a0:0000000000220000
#053320:0000000000001424
#054390:0000000000150000
#054370:000000000000000000000000000000000000000000000000000000000000000000000000000000000000000000000000000000000000000000000000000000000000000000000000000000000000000000000000000000000000000000000000000000000000000000000000000000000000000000000000000000000000000000000000000000000000000000000000000000000000000000000000000000000000000000000000000000000000000000000000000000000000000000000000000000000000000000000000000000000000000000000000000000000000000000000000000000000000000000000000000000000000000000000000000000000000000000000000000000000000000000000000000000000000000000000000000000000000000000000000000000000000000000000000000000000000000000000000000000000000000000000000000000000000000000000000000000000000000000000000000000000000000000000000000000000000000000000000000000000000000000000000000000000000000000000000000000000000000000000000000000000000000000000000000000000000000000000000000000000000000000000000000000000000000000000000000000000000000000000000000000000000000000000000000000000000000000000000000000000000000000000000000000000000000000000000000000000000000000000000000000000000000000000000000000000000000000000000000000000000000000000000000000000000000000000000000000000000000000000000000000000000000000000000000000000000000000000000000000000000000000000000000000000000000000000000000000000000000000000000000000000000000000000000000000000000000000000000000000000000000000000000000000000000000000000000000000000000000000000000000000000000000000000000000000000000000000000000000000000000000000000000000000000000000000000000000000000000000000000000000000000000000000000000000000000000000000000000000000000000000000000000000000000000000000000000000000000000000000000000000000000000000000000000000000000000000000000000000000000000000000000000000000000000000000000000000000000000000000000000000000000000000000000000000000000000000000000000000000000000000000000000000000000000000000000000000000000000000000000000000000000000000000000000000000000000000000000000000000000000000000000000000000000000000000000000000000000000000000000000000000000000000000000000000000000000000000000000000000000000000000000000000000000000000000000000000000000000000000000000000000000000000000000000000000000000000000000000000000000000000000000000000000000000000000000000000000000000000000000000000000000000000000000000000000000000000000000000000000000000000000000000000000000000000000000000000000000000000000000000000000000000000000000000000000000000000000000000000000000000000000000000000000000000000000000000000000000000000000000000000000000000000000000000000000000000000000000000000000000000000000000000000000000000000000000000000000000000000000000000000000000000000000000000000000000000000000000000000000000000000000000000000000000000000000000000000000000000000000000000000000000000000000000000000000000000000000000000000000000000000000000000000000000000000000000000000000000000000000000000005200000000000000000000000000000000000000000000000000000000000000000000000000000000000000000000000000000000000000000000000000000000000000000000000000000000000000000000000000000000000000000000000000000000000000000000000000000000000000000000000000000000000000000000000000000000000000000000000000000000000000000000000000000000000000000000000000000000000000000000000000000000000000000000000000000000000000000000000000000000000000000000000000000000000000000000000000000000000000000000000000000000000000000000000000000000000000000000000000000000000000000000000000000000000000000000000000000000000000000000000000000000000000000000000000000000000000000000000000000000000000000000000000000000000000000000000000000000000000000000000000000000000000000000000000000000000000000000000000000000000000000000000000000000000000000000000000000000000000000000000000000000000000000000000000000000000000000000000000000000000000000000000000000000000000000000000000000000000000000000
#055380:26
#054321:0000000000150000
#054371:00000052
#055321:26
#055321:0000000014240000
#055361:0000000000000014
#056321:53
#056361:0024000000000000
#057361:0000000000000014
#058321:53
#058361:0024000000000000
#059371:00000000000000130000000000000000
#0593a1:0000000000240000
#059361:00000000000000000000000000000014
#060391:0025000000000000
#0613b1:0013
#061381:0000000000230000
#062381:00000016
#0623c1:0000000000000052
#063371:27
#063320:15000000000000005200000000000000000000000000000000000000000000000000000000000000000000000000000000000000000000000000005300520000
#063350:0000000000000000000000000000000000000000000000000000000033520000
#063330:00000000000000000000000000000000000000000000000000000000000000000000000000000000000000000000000000000000000000000053000000000000
#063340:00000000000000000000000000000052
#064360:0000000000320022
#064340:00000000000000000000000000000000000000000000000000000000000000000000000000000000005300000000000000000000000000000000000000000000
#064350:0000000000000000000000000000000000000000005300000000000000000000
#064320:00000000000000000000000000000000000000000000000000000000000000000000000000000000000000530052000000000000000000000000000000000000
#064330:00000000000000000000005300000000
#0653a0:1454000000000000000000000000000000000000000000000000000000000000
#065390:00540000540000000000000000000000000000000000000000000000000000000000000000000000000000000000000000000000000000000000000000000000
#065380:00000054000000000000000000000000000000000000000022000000000000000000000000000000000000000000000000000000000000000000000000000000
#0653b0:0013
#065390:00000000000000000000000000000000000000000000000000000000000000000053000053000000000000000000000000000000000000000000000000000000
#0653a0:0000000000000000000000000000000000530000000000000000000000000000
#065380:00000000000000000000000000000000000000000000000000000000000000000000005300000000000000000000000000000000000000000000000000000000
#065370:00000052
#0663a0:24
#067320:150000000000000000000000000000000000000000000000000000000000000000000000000000000000000000000000000000000000000000000000550000000000000000000000000000000000000000000000000000000000000000000000000000000000000000000000000000000000000000000000550000000000000000000000000000000000000000000000000000000000000000000000000000000000000000000000000000000000000000000000000000000000000000000000000000000000000000000000000000000000000000000000000000000000000000000000000000000000000000000000000000000000000000000000000000000000000000000000000000000000000000000000000000000000000000000000000000000000000000000000000000000000000000000000000000000000000000000000000000000000000000000000000000000000000000000000000000000000000000000000000000000000000000000000000000000000000000000000000000000000000000000000000000000000000000000000000000000000000000000000000000000000000000000000000000000000000000000000000000000000000000000000000000000000000000000000000000000000000000000000000000000000000000000000000000000000000000000000000000000000000000000000000000000000000000000000000000000000000000000000000000000000000000000000000000000000000000000000000000000000000000000000000000000000000000000000000000000000000000000000000000000000000000000000000000000000000000000000000000000000000000000000000000000000000000000000000000000000000000000000000000000000000000000000000000000000000000000000000000000000000000000000000000000000000000000000000000000000000000000000005500000000000000000000000000000000000000000000000000000000520000000000000000000000000000000000000000000000000000000000000000000000000000000000000000000000000000000000000000000000530000000000000000000000000000000000000000000000000000000000000000000000000000000000000000000000000000000000000000000000520000000000000000000000000000000000000000000000000000000000000000000000000000000000000000000000000000000000000000000000000000000000000000000000000000000000000000000000000000000000000000000000000000000000000000000000000000000000000000000000000000000000000000000000000000000000000000000000000000000000000000000000000000000000000000000000000000000000000000000000000000000000000000000000000000000000000000000000000000000000000000000000000000000000000000000000000000000000000000000000000000000000000000000000000000000000000000000000000000000000000000000000000000000000000000000000000000000000000000000000520000000000000000000000000000000000000000000000000000000000005500000000000000000000000000000000000000000000000000000000000000000000000000000000000000000000000000000000000000000000000000000000000000000000000000000000000000000000000000000000000000000000000000000000000000000000000000000000000000000000000000000000000000000000000000000000000000000000000000000000000000000000000000000000000000000000000000000000000000000000000000000000000000000000000000000000000000000000000000000000000000000000000000000000000000000000000000000000000000000000000000000000000000000000000000000000000000000000000000000000000000000000000000000000000000000000000000000000000000000000000000000000000000000000000000000000000000000000000000000000000000000000000000000000000000000000000000000000000000000000000000000000000000000000000000000000000000000000000000000000000000000000000000000000000000000000000000000000000000000000000000000000000000000000000000000000000000000000000000000000000000000000000000000000000000000000000000000000000000000000000000000000000000000000000000000000000000000000000000000000000000000000000000000000000000000000000000000000000000000000000000000000000000000000000000000000000000000000000000000000000000000000000000000000000000000000000000000000000000000000000000000000000000000000000000000000000000000000000000000000000000000000000000000000000000000000000000000000000000000000000000000000000000000000000000000000000000000000000000000000000000000000000000000000000000000000000000000000000000000000
#067340:00550055000000000000000000000000000000000000000000005300530000000000000000000000000000000000000000000000000000000000000000000000
#067360:00000000000000000000000000000000000000000000005200000000000000000000000000000000005200000000000000000000000000000000000000000000
#067330:0000000000000000000000000000000000000000005400000000000000000000
#067370:00000000000000000000000000000000000000000000000000000000000000000000000000000000000000520000000000000000000000000000000000000000
#068320:24
#0683a1:140000000000000000000000000000000000000000000000000000000000000000000000000000000000000000000000000000000000000000000000000000000000000000000000005400000000540000000000000000000000000000000000000000000000000000000000000000000000000000000000000000000000000000000000000000000000000000000000000000000000000000000000000000000000000000000000000000000000000000000000000000000000000000000000
#068371:000000000000000000000000000000000000000000000000000000000000000000000000000000000000000000000000000000000000000000000000000000000000000000000000000000000000000000000000000000000000000000000000000000000000000000000000000000000000000000000000000000000000000000000000000000000000000000000000000000000000000000000000000000000000000000000000000000000000000000000000000000000000000000000000000000000000000000000000000000000000000000000000000000000000000000000000000000000000000000000000000000000000000000000000000000000000000000000000000000000000000000000000000000000000000000000000000000000000000000000000000000000000000000000000000000000000000000000000000000000000000000000000000000000000000000000000000000000000000000000000000000000000000000000000000000000000000000000000000000000000000000000000000000000000000000000000000000000000000000000000000000000000000000000000000000000000000000000000000000000000000000000000000000000000000000000000000053550000000000000000000000000000000000550000000000000000000000000000000000000000000000000000000000000000000000000000000000000000000000000000000000000000000000000000000000000000000000000000000000000000000000000000000000000000000000000000000000000000000000000000000000000000000000000000000000000000000000000000000000000000000000000000000000000000000000000000000000000000000000000000000000000000000000000000000000000000000000000000000000000000000000000000000000000000000000000000000000000000000000000000000000000000000000000000000000000000000000000000000000000000000000000000000000000000000000000000000000000000000000000000000000000000000000000000000000000000000000000000000000000000000000000000000000000000000000000000000000000000000000000000000000000000000000000000000000000000000000000000000000000000000000000000000000000000000000000000000000000000000000000000000000000000000000000000000000000000000000000000000000000000000000000000000000000000000000000000000000000000000000000000000000000000000000000000000000000000000000000000000000000000000000000000000000000000000000000000000000000000000000000000000000000000000000000000000000000000000000000000000000000000000000000000000000000000000000000000000000000000000000000000000000000000000000000000000000000000000000000000000000000000000000000000000000000000000000000000000000000000000000000000000000000000000000000000000000000000000000000000000000000000000000000000000000000000000000000000000000000000000000000000000000000000000000000000000000000000000000000000000000000000000000000000000000000000000000000000000000000000000000000000000000000000000000000000000000000000000000000000000000000000000000000000000000000000000000000000000000000000000000000000000000000000000000000000000000000000000000000000000000000000000000000000000000000000000000000000000000000000000000000000000000000000000000000000000000000000000000000000000000000000000000000000000000000000000000000000000000000000000000000000000000000000000000000000000000000000000000000000000000000000000000000000000000000000000000000000000000000000000000000000000000000000000000000000000000000000000000000000000000000000000000000000000000000000000000000000000000000000000000000000000000000000000000000000000000000000000000000000000000000000000000000000000000000000000000000000000000000000000000000000000000000000000000000000000000000000000000000000000000000000000000000000000000000000000000000000000000000000000000000000000000000000000000000000000000000000000000000000000000000000000000000000000000000000000000000000000000000000000000000000000000000000000000000000000000000000000000000000000000000000000000000000000000000000000000000000000000000000000000000000000000000000000000000000000000000000000000000000000000000000000000000000000000000000000000000000000000000000000000000000000000000000000000000000000000000000000000000000000000000000000000000000000000000000000000000000000000000000000000000000
#068391:000000000000000000000000000000000000000000000000000000000000000000000000000000000000000000000000000000000000000000000000000000000000000000000000000000000000000000000000000000000000000000000000000000000000000000000000000000000000000000000000000000000000000000000000000000000000000000000000000000000000000000000000000000000000000000000000000000000000000000000000000000000000000000000000000000000000000000000000000000000000000000000000000000000000000000000000000000000000000000000000000000000000000000000000000000000000000000000000000000000000000000000000000000000000000000000000000000000000000000000000000000000000000000000000000000000000000000000000000000000000000000000000000000000000000000000000000000000000000000000000000000000000000000000000000000000000000000000000000000000000000000000000000000000000000000000000000000000000000000000000000000000000000000000000000000000000000000000000000000000000000000000000000000000000000000000000000000000000000000000000000000000000000000005300000000000000000000000000000000000000000000000000000000000000000000000000000000000000000000000000000000000000000000000000000000000000000000000000000000000000000000000000000000000000000000000000000000000000000000000000000000000000000000000000000000000000000000000000000000000000000000000000000000000000000000000000000000000000000000000000000000000000000000000000000000000000000000000000000000000000000000000000000000000000000000000000000053550000000000000000000000000000000000550000000000000000000000000000000000000000000000000000000000000000000000000000000000000000000000000000000000000000000000000000000000000000000000000000000000000000000000000000000000000000000000000000000000000000000000000000550000000000000000000000000000000000000000000000000000000000000000000000000000000000000000000000000000000000000000000000000000000000000000000000000000000000000000000000000000000000000000000000000000000000000000000000000000000000000000000000000000000000000000000000000000000000000000000000000000000000000000000000000000000000000000000000000000000000000000000000000000000000000000000000000000000000000000000000000000000000000000000000000000000000000000000000000000000000000000000000000000000000000000000000000000000000000000000000000000000000000000000000000000000000000000000000000000000000000000000000000000000000000000000000000000000000000000000000000000000000000000000000000000000000000000000000000000000000000000000000000000000000000000000000000000000000000000000000000000000000000000000000000000000000000000000000000000000000000000000000000000000000000000000000000000000000000000000000000000000000000000000000000000000000000000000000000000000000000000000000000000000000000000000000000000000000000000000000000000000000000000000000000000000000000000000000000000000000000000000000000000000000000000000000000000000000000000000000000000000000000000000000000000000000000000000000000000000000000000000000000000000000000000000000000000000000000000000000000000000000000000000000000000000000000000000000000000000000000000000000000000000000000000000000000000000000000000000000000000000000000000000000000000000000000000000000000000000000000000000000000000000000000000000000000000000000000000000000000000000000000000000000000000000000000000000000000000000000000000000000000000000000000000000000000000000000000000000000000000000000000000000000000000000000000000000000000000000000000000000000000000000000000000000000000000000000000000000000000000000000000000000000000000000000000000000000000000000000000000000000000000000000000000000000000000000000000000000000000000000000000000000000000000000000000000000000000000000000000000000000000000000000000000000000000000000000000000000000000000000000000000000000000000000000000000000000000000000000000000000000000000000000000000000000000000000000000000000000000000000000000000000000000000000000000000000000000000000000000000000000
#0683c1:00000000000000000000000000000000000000000000000000520052000000000000000000000000000000000000000000000000000000000000000000000000
#0683b1:00000000000000000000000000000000000000000000000000000000005300000000000000000000000000000000000000000000000000000000000000000000
#069381:26
#069320:16540054005400000000000000000000520000000000000000000000000000002600000000000000000000000000000000000000000000000000000000000000
#069340:0054000000000000000000000000000000000000000000000000000000000000
#069330:00540000000000000000000000000000
#069381:0000000000000000000000000000000016540000000000000000000000000000
#0693a1:00000000000000000000000000000000000000000000000000000000000000000054005400540000000000000000000000000000000000000000000000000000
#069391:00000000000000000054000000000000
#0693c1:00000052
#070381:26
#070321:00000000000000160000000000000000
#070381:00000000000000000056000000000000
#070331:00000022
#011970:0013000000000000
#0119b0:00230000
#013960:0013000000000000
#013920:00230000
#043960:14240000
#0439a0:0054000000000000
#044960:14240000
#044920:0054000000000000
#047990:0012000000000000
#0479b0:00220000
#049950:0012000000000000
#049930:00220000
#050960:0000001200000000
#050920:0022
#050980:0000000000120000
#0509a0:00000000000000000000002200000000
#064960:0000000000000012
#064940:000000000000000000000000000000000000000000000052
#065920:23
#065980:0000001200000000
#0659a0:000000000000000000000052000000000000000000000000
#0659b0:0023
