This file was generated by Ched 2.7.0.0.
#TITLE ""
#ARTIST ""
#DESIGNER ""
#DIFFICULTY 0
#PLAYLEVEL
#SONGID ""
#WAVE ""
#WAVEOFFSET 0
#JACKET ""
#REQUEST "ticks_per_beat 480"
#00002: 4
#BPM01: 132
#00008: 01
#TIL00: ""
#VOLUME: ""
#HISPEED 00
#MEASUREHS 00
#00712:1414
#00818:1414
#00914:1414
#0101a:1414
#01114:14
#01118:0014
#01110:41
#01212:14141400
#01318:14
#01314:0014
#0141a:14141400
#01712:14
#01718:00140000
#01714:0014
#0181a:14
#01814:00140000
#01818:0014
#02318:0014
#02314:00000014
#02310:41
#0241a:14
#02412:00140000
#02418:0014
#02414:00000014
#0251a:14140000
#02512:00001414
#02618:14
#02718:00140014
#02714:24
#02713:0025
#02812:26160000
#02818:00001616
#02914:14
#03018:24000000000000140000000000000000
#03312:14141414
#03218:14141414
#03114:14141414
#03110:41
#0341a:14141414
#03514:14140000
#03518:00001414
#03613:14140000
#03619:00001414
#03712:14140000
#0371a:00001414
#03912:0014
#0391a:24
#03910:41
#04018:1414
#04014:00140000
#04112:14
#0411a:0014
#04214:1414
#04218:00140000
#04518:14140000
#04514:00001414
#03814:1414
#03818:00140000
#04618:14343434343434000000000000000000
#05112:1414
#05113:00140000
#05114:00000014
#05212:14
#0531a:14
#05312:0014
#05419:2400000000140000
#05413:2400000000140000
#0551a:0014
#05514:00000014
#0551f:21
#05618:1414
#05612:00140000
#05614:00000014
#05610:41
#05814:14
#05914:00140014
#05918:2425
#06014:00140014
#06018:2626
#06118:14
#06318:0016
#06414:14141400
#06518:16
#06512:0016
#06510:41
#06618:14141400
#06213:24000014
#06712:16
#06718:0016
#06812:14
#06816:00140000
#0681a:0014
#06814:00000014
#06918:16
#06912:0016
#07018:26000000000000160000000000000000
#07019:0000000000000000000000000000000000000014000000000000000000000000
#0471f:11
#00016:0000000000000000000000000000000000000024000000000000000000000000
#02216:0000000000240000
#0571a:24
#05712:00240000
#02158:14
#02152:0000000000000014
#02355:16
#02256:0000000000240000
#0265a:0014
#02658:64
#02952:0014
#02954:64
#0305a:00000014
#03058:00000000000000640000000000000000
#03854:0014
#0465a:00000000000000140000000000000000
#04658:64
#05152:6464
#05153:00240000
#05154:00000024
#05252:64
#05255:0014
#0535a:64
#05352:0054
#05558:16
#05552:16
#05459:0000000000240000
#05453:0000000000240000
#05852:0014
#05854:64
#06058:0016
#06158:54
#0615a:0014
#06352:16
#06358:0016
#06558:16
#06552:0016
#06253:00000024
#06752:16
#06758:0016
#06958:16
#06952:0016
#07058:00000000000000660000000016000000
#07059:0000000000000000000000000000000000000024000000000000000000000000
#003320:1424
#004380:1424
#005340:1424
#0063a0:1424
#015340:14
#015320:0024
#016380:14
#0163a0:0024
#019320:14
#019340:0024
#0203a0:14
#020380:0034
#021380:24
#021320:00000000000000001400003400002400
#022360:0000000000140000
#023350:26
#026380:14
#0263a0:0024
#029340:14
#029320:0024
#030380:14003400340034340000000000000000
#0303a0:00000024
#0433a0:14343424
#044320:14343424
#046380:14343434343434000000000000000000
#0463a0:00000000000000240000000000000000
#047340:14
#047320:0034
#048340:34
#048320:0024
#049380:14
#0493a0:0034
#050380:34
#0503a0:0024
#051320:1434
#051330:00540000
#051340:00000054
#052320:34
#052350:0024
#0533a0:14
#053380:00240000
#053320:0014
#053340:00000024
#054390:14003400340034340000340000000000
#055380:26
#054331:14003400340034340000340000000000
#055321:26
#057381:00001424
#058341:14
#058321:0024
#061381:14
#0613a1:0024
#062331:14003400340034340000000034000000
#063321:26
#070381:16003600360036360000000026000000
#070391:0000000000000000000000000000000000000054000000000000000000000000
