This file was generated by Ched 2.7.0.0.
#TITLE ""
#ARTIST ""
#DESIGNER ""
#DIFFICULTY 0
#PLAYLEVEL
#SONGID ""
#WAVE ""
#WAVEOFFSET 0
#JACKET ""
#REQUEST "ticks_per_beat 480"
#00002: 4
#BPM01: 110
#00008: 01
#TIL00: ""
#VOLUME: ""
#HISPEED 00
#MEASUREHS 00
#05019:00000000000000000000000000140000
#03312:0016
#03318:26
#03310:00410000
#03418:1616
#04918:00160000
#01912:14
#01918:0014
#01910:41
#0181a:14
#0101a:14
#01114:14
#01110:41
#01214:14
#01318:14
#01418:14
#01512:14
#01612:14
#02012:14
#02118:14
#02112:0014
#02218:14
#02314:14
#0231a:0014
#02414:14
#02514:0014
#0251a:24
#01714:0014
#0171a:24
#02712:14
#02718:0014
#0271f:11
#0291a:14
#02914:0014
#0301a:14
#03014:0014
#03214:0014
#0321f:00000000000000000000000000000021
#03718:0016
#03712:26
#03812:1616
#04318:16
#04312:0016
#04418:1616
#04212:0016
#04210:41
#04712:16
#04718:0016
#04812:16
#04618:0016
#0091a:24
#04118:26
#04512:26
#05119:34000034000034000034000034000034
#05219:00003400003400003400003400000000
#02610:41
#00510:41
#04958:00560000
#05059:00000000000000000000000000240000
#0013a0:14
#0023a0:24
#003320:14
#004320:24
#0053a0:14
#0063a0:24
#007320:14
#008320:24
#0263a0:1424
#028320:1424
#031380:14
#032380:24
#035320:1626
#036380:1626
#039380:1626
#040320:1626
#041380:16
#042380:26
#045320:16
#046320:26
#048380:00000000000000001600000000000036
#049380:00360000
#050390:00000000000000000000000000340000
#051390:34000034000034000034000034000034
#052390:00003400003400003400003400000000
#052380:0000000000000026
