This file was generated by Ched 2.7.0.0.
#TITLE ""
#ARTIST ""
#DESIGNER ""
#DIFFICULTY 0
#PLAYLEVEL
#SONGID ""
#WAVE ""
#WAVEOFFSET 0
#JACKET ""
#REQUEST "ticks_per_beat 480"
#00002: 4
#BPM01: 110
#00008: 01
#TIL00: ""
#VOLUME: ""
#HISPEED 00
#MEASUREHS 00
#01118:1400000000000014
#0111a:0000001400000000
#01110:41
#00112:1600000000000014
#04014:00000014
#04018:26262600
#04012:0026002600000000
#05013:00000000000000000000000000140000
#00512:1600000000003414
#00510:41
#00718:16
#00719:00350000
#03312:00140014
#03318:0014
#03310:00410000
#03418:1414
#0341a:00140000
#0351a:00140000
#03512:14
#03514:0014
#03518:00000014
#04216:0014
#04212:00140000
#0421a:00000014
#04210:41
#04912:00160000
#00318:16
#0031a:0000000000000014
#00812:16353400
#01514:1400000000000014
#01512:0000001400000000
#00914:0000143400000000
#0091a:24
#01012:14
#01318:0000143400000000
#01312:24
#0141a:14
#01714:00140000
#01718:0014
#01712:00000014
#0171a:24
#01818:14
#01814:00140000
#01912:14
#0191a:00140000
#01914:0014
#01918:00000014
#01910:41
#02012:14
#0201a:0014
#02118:00140000
#02114:0014
#0211a:00000014
#02112:24
#02214:14
#02218:00140000
#0231a:14
#02312:00140000
#02318:0014
#02314:00000014
#0241a:14
#02412:0014
#02514:00140000
#02518:00001414
#0251a:24
#0271a:14
#02714:00140000
#02718:0014
#02712:00000014
#0271f:11
#0281a:14
#02814:00140000
#02818:0014
#02812:00000014
#02912:00140000
#02916:0014
#0291a:24000014
#03012:14000024
#0301a:00240000
#03016:0024
#02612:14
#02618:00140000
#02614:00001414
#02610:41
#03614:14
#03618:00140000
#03612:0025
#0371a:00140014
#03714:0014
#03814:1414
#03812:00140000
#03912:00140000
#0391a:14
#03918:0014
#03914:00000014
#04312:14000014
#0431a:00140000
#04316:0014
#0441a:14000014
#04416:0014
#04412:00140000
#04616:0014
#0461a:00140000
#04612:00000014
#0471a:14000000000000000000000000000014
#04712:00140000
#04716:0014
#04818:00000000140000000000000000000054
#0481a:0014
#03219:25252500
#03212:0025002500000000
#0321f:00000000000000000000000000000021
#04118:24
#04514:24
#00612:00340000
#05113:34000034000034000034000034000034
#05213:00003400003400003400003400000000
#01158:6400000000000064
#0115a:0000006400000000
#0095a:14
#00954:00540000
#00152:5600000000000024
#04158:64
#05053:00000000000000000000000000240000
#00552:5600000000000024
#00758:56
#0295a:14
#03152:14
#03259:00000000000000000000000000000015
#03458:5454
#0345a:00540000
#0425a:14
#04554:64
#04652:14
#04952:00560000
#00358:66
#0035a:0000000000000024
#00852:66
#01554:5400000000000054
#01552:0000005400000000
#01352:14
#01358:00640000
#01052:24
#0145a:24
#0175a:14
#01952:14
#02052:54
#0205a:0064
#0235a:14
#0245a:64
#02452:0054
#02152:14
#0255a:14
#03552:14
#03854:6464
#03852:00640000
#03652:00000000000000000000000000000015
#0395a:14
#0475a:00000000000000000000000000000064
#0485a:0064
#04858:00640000
#001320:1600000000000054
#002320:00000026
#003380:16
#0033a0:0000000000000054
#004380:00000026
#005320:1600000000003454
#006320:00340026
#007380:16
#007390:00350000
#0073a0:00000024
#008320:16353424
#009340:0000143400000000
#010320:54
#010340:00000024
#011380:1400000000000034
#0113a0:0000003400000000
#0123a0:0024
#013380:0000143400000000
#0143a0:54
#014380:00000024
#015340:1400000000000034
#015320:0000003400000000
#016320:0024
#0183a0:00001424
#020320:14
#020340:00240000
#0203a0:0014
#020380:00000024
#022320:00001424
#0243a0:14
#024380:00240000
#024320:0014
#024340:00000024
#030320:00000014
#031320:24
#032390:00000000000000001500003500350025
#034380:1434
#0343a0:00340024
#036320:00000000000000001500003500350025
#038340:1434
#038320:00340024
#041380:14
#0423a0:24
#045340:14
#046320:24
#0473a0:00000000000000000000000014000034
#048380:00000000340000000000000034000024
#0483a0:0034
#049320:00160000
#050330:00000000000000000000000000340000
#051330:34000034000034000034000034000034
#052330:00003400003400003400003400000000
#052320:0000000000000026
