This file was generated by Ched 2.7.0.0.
#TITLE ""
#ARTIST ""
#DESIGNER ""
#DIFFICULTY 0
#PLAYLEVEL
#SONGID ""
#WAVE ""
#WAVEOFFSET 0
#JACKET ""
#REQUEST "ticks_per_beat 480"
#00002: 4
#BPM01: 140
#00008: 01
#TIL00: ""
#VOLUME: ""
#HISPEED 00
#MEASUREHS 00
#0011a:14
#00214:14
#00318:14
#00412:14
#0051a:14
#00510:41
#00614:14
#00718:14
#00812:14
#0171a:14
#0181a:14
#01914:14
#02014:14
#02118:14
#02110:41
#02218:14
#02312:14
#02412:14
#02418:0014
#02512:14
#0261a:14
#02614:0014
#0271a:14
#02812:14
#02818:0014
#02912:14
#02910:41
#03218:0016
#03212:26
#03418:16
#03412:0016
#03612:16
#03618:0016
#03818:16
#03812:0016
#03810:41
#03918:16
#03912:0016
#04313:14
#0441a:14
#04414:0014
#0451a:14
#04612:14
#04618:0014
#04712:14
#04718:0014
#04918:0016
#04912:26
#0491f:21
#05118:16
#05112:0016
#05312:16
#05318:0016
#05518:16
#05512:0016
#05618:16
#05612:0016
#05718:2616
#05912:1616
#06118:1616
#06312:1616
#06418:1616
#0401f:11
#01310:41
#05010:41
#0093a0:14
#010380:34
#0113a0:34
#012380:24
#013340:14
#014320:34
#015340:34
#016320:24
#030390:14
#031390:24
#033320:1626
#035380:1626
#037320:1626
#040380:16
#042390:24
#050320:1626
#052380:1626
#054320:1626
#058380:1626
#060320:1626
#062380:1626
#065320:16
#066330:00000024
