This file was generated by Ched 2.7.0.0.
#TITLE ""
#ARTIST ""
#DESIGNER ""
#DIFFICULTY 0
#PLAYLEVEL
#SONGID ""
#WAVE ""
#WAVEOFFSET 0
#JACKET ""
#REQUEST "ticks_per_beat 480"
#00002: 4
#BPM01: 140
#00008: 01
#TIL00: ""
#VOLUME: ""
#HISPEED 00
#MEASUREHS 00
#0001b:1300530000530000
#00012:0000005300001300
#00015:0000130053000013
#00018:0053000013005300
#0001a:005300000053000000000000000053005300000000000000
#00019:000053005300000000000000005300000053000000000000
#00014:000000000000005300000053000000000000000000000000
#00013:000000005353000000000000
#00118:13005313
#00112:00131300
#0011b:0000001300000013
#00115:0000000000130013
#0011a:000000000053000000000000
#00119:000000000000000000000053000000000000000000000000
#00215:0000001300130000
#00218:0013000013001300
#00212:00000013
#00219:005300000000
#0021a:000000000053000000000000000000000000000000000000
#0021b:00530000
#00916:0000000000120000
#00918:13
#0091b:0013
#00912:54
#00915:00000000000000000000000000000000000000000000000000000000000000000000000000000000005200000000000000000000000000000000000000000000
#01717:00130000
#01715:0000001300130000
#0171a:2414
#01712:0000000014000014
#01718:00000013
#01719:0013000000000000
#0171b:0000000000000013
#01815:0013001300000000
#01818:00130000
#0181a:00001414
#01816:0000000000140000
#01812:00001414
#01919:0013000000000000
#01916:00130000
#01913:0000001300000000
#01915:0000000000130000
#01912:2400000000000014
#0191a:0014
#01918:00000013
#0191b:0000000000000013
#02015:00140000
#02018:0013001300000000
#02012:0014
#02016:00000013
#0201a:000000000000000000003434
#02314:0013000000001400
#02316:00130000
#02318:0000001300000000
#0231a:2413
#02312:1314
#02317:0000000000000014
#02415:0000131300000000
#02418:0000000000001313
#0241a:24
#0241b:0023
#02412:2423
#02515:0013001300002300
#02518:00130023
#02512:2323
#0251b:2323
#02815:0000130000000013
#02818:0000001300001300
#0281b:2300000023130000
#02812:2300000023130000
#03412:13000013
#03417:13000053
#03416:00130000
#0341b:00531300
#03419:0053000000530000
#0351b:1313
#03518:0013001300000000
#03515:00130000
#03512:0013
#03312:00131300
#03317:0013
#03319:0000001300000000
#0331b:00130000
#03314:0013000000000000
#03316:13
#03212:24000013
#03217:00000013
#03219:0000000000130000
#0321b:00131300
#03216:00130000
#03214:0013000000000000
#0321a:24
#0371b:00131300
#03716:0013
#03714:0000001300000000
#03712:00130000
#03719:0013000000000000
#03717:13
#0361b:00000013
#03616:00000013
#03614:0000000000130000
#03612:24131300
#03617:00130000
#03619:0013000000000000
#0361a:24
#03815:0000000000130000
#03818:00000013
#0381b:1300000000000013
#03816:13
#03817:00130000
#03812:00531300
#03810:41
#03814:0053000000000000
#03912:1313
#03915:0013000000000000
#03918:13131313
#0391b:0000001300000000
#04012:13000053
#0401b:00130000
#04015:00531300
#04018:00005313
#0401f:11
#04013:005300000000000053000000
#04014:000053000000005300000000
#0401a:000000005300000000000053
#04019:000000000053000000005300
#04112:13
#04119:001300001300
#04114:00130000
#04118:000000000013000000000000
#04115:0013
#0411b:53
#0421b:13000053
#04212:00130000
#04218:00531300
#04215:00005313
#0421a:005300000000000053000000
#04219:000053000000005300000000
#04213:000000005300000000000053
#04214:000000000053000000005300
#0431b:13001313
#04318:001300000000
#04315:000000531300
#04312:53130000
#04313:005300
#04314:000000000053000000000000
#0431a:000000000053
#04319:000000000000000000000053
#0441b:001300000000
#04416:00130000
#04419:000000000013000000000000
#04414:0013
#04417:000013
#04412:24000013
#04418:53
#0451a:14
#04512:001300000000
#04517:00130000
#04514:000000000013000000000000
#04519:0013
#04516:000013
#0451b:00000013
#04612:1414
#04618:000013000000000000130000
#04615:000000130000000013000000
#0461a:1414
#04712:14
#0471a:141300001300
#04716:00130013
#04713:000000000013000000000000
#04717:0013
#04818:00000013
#04815:00006213
#04819:62
#04817:00620000
#04914:0014000000000000
#04916:00241414
#04918:0000000000140000
#0491a:24140024
#04912:24
#0491f:21
#05012:1414
#05016:0014001400000000
#0501a:00140000
#05010:41
#0511a:1400140000141400
#05112:1400000014340000
#05116:0014140014000000
#05212:1314
#05215:0013000000000000
#05218:00130000
#0521b:0000001300000000
#0521a:00000014
#05416:0014001400000000
#05412:00140000
#0541a:1414
#05512:1400140000141400
#0551a:1400000014340000
#05516:0014140014000014
#0561b:13
#05618:0013000000000000
#05615:00130000
#05612:0000001300001400
#0561a:0014
#05718:0014000000000000
#05717:0013
#05712:2300000013130000
#05716:24140024
#0571a:00240000
#05816:14131400
#05819:0013001300000000
#0581b:00130000
#05812:0013
#05918:0013000000000000
#05915:00130000
#05916:00001413
#05919:0000000000130000
#0591b:00000013
#0591a:24130000
#05912:24
#06014:1414
#06012:0013000000000000
#06016:00140000
#0601b:0000001300000000
#06018:00001413
#06114:0014000000000000
#06116:24141324
#0611b:0000000013130000
#0611a:24
#06112:00240000
#06216:1414
#06214:0013001300000000
#06212:00130000
#0621b:0013
#06217:00130013
#06316:13
#06317:00130000
#0631b:0013
#06318:0000000000130000
#06315:00000013
#06312:0000240000000013
#0631a:24
#0641b:0013
#06418:0014000000130000
#06412:00001413
#06415:0000000000000013
#0641a:14000014
#06416:00140000
#06414:0000001400000000
#06512:14
#0651a:14000000000000630000000000000000
#06517:0063000000630063
#06518:00000063000000000000006300630000
#06519:00636363
#0651b:0000006300000000
#0661c:0000000000121200
#0661b:63
#06619:0063006300000000
#0661a:00630000000000000000000000000000
#06617:00630000
#06618:00000000006300000000000000000000
#00315:13005313
#0031b:00131300
#00312:0000001300000013
#00318:0000000000130013
#00313:000000000053000000000000
#00314:000000000000000000000053000000000000000000000000
#00418:0000001300130000
#00415:0013000013001300
#0041b:00000013
#00414:005300000000
#00413:000000000053000000000000000000000000000000000000
#00412:00530000
#00518:130000000053000000130000
#00512:00131300
#00515:0000000000130013
#00517:0000001300000000
#0051b:0013000000000013
#00510:41
#00519:000000000000000000000053000000000000000000000000
#0051a:0053
#00615:0000001300130000
#00618:00531313
#00612:13000013
#0061b:0013000000000000
#0061a:005300000000
#00619:000000000053000000000000000000000000000000000000
#00715:130000000053000000130000
#0071b:00131300
#00718:0000000000130013
#00716:0000001300000000
#00712:0013000000000013
#00714:000000000000000000000053000000000000000000000000
#00713:0053
#0081b:1300001300001300
#00817:0014
#00815:00530014
#00812:0013000013000000
#00813:000053000000000000000054
#00814:000000000053000000000000000000000000000054000000
#01018:0000000000120000
#01015:13
#01012:0013
#01019:00000000000000000000000000000000000000000000000000000000000000000000000000000000005200000000000000000000000000000000000000000000
#0111b:13
#01117:0013
#01114:0000000000120000
#0111a:0053000000000000000000000000000000000000000000000000000000000000000000000000000000000000000000000000000000000000000000000000000000000000000000000000000000000000000000000000000000000000000000000000000000000000000000000000000000000000000000000000000000000000
#01119:00530000000000000000000000000000000000000000000000000000000000000000000000000000000000000000000000000000000000000000000000000000
#01113:00000000000000000000000000000000000000000000000000000000000000000000000000000000005200000000000000000000000000000000000000000000
#0121a:0000000000120000
#01212:13
#0121b:00000000000000000000000000000000000000000000000000000000000000000000000000000000005200000000000000000000000000000000000000000000
#01318:13
#0131b:0013
#01317:0000000000120000
#01310:41
#01319:0053000000000000000000000000000000000000000000000000000000000000000000000000000000000000000000000000000000000000000000000000000000000000000000000000000000000000000000000000000000000000000000000000000000000000000000000000000000000000000000000000000000000000
#0131a:00530000000000000000000000000000000000000000000000000000000000000000000000000000000000000000000000000000000000000000000000000000
#01316:00000000000000000000000000000000000000000000000000000000000000000000000000000000005200000000000000000000000000000000000000000000
#01415:13
#01412:0013
#01417:0000000000120000
#01418:00000000000000000000000000000000000000000000000000000000000000000000000000000000005200000000000000000000000000000000000000000000
#0151b:13
#01517:0013
#01514:0000000000120000
#0151a:0053000000000000000000000000000000000000000000000000000000000000000000000000000000000000000000000000000000000000000000000000000000000000000000000000000000000000000000000000000000000000000000000000000000000000000000000000000000000000000000000000000000000000
#01519:00530000000000000000000000000000000000000000000000000000000000000000000000000000000000000000000000000000000000000000000000000000
#01513:00000000000000000000000000000000000000000000000000000000000000000000000000000000005200000000000000000000000000000000000000000000
#0161a:0000000000120000
#01616:13
#0161b:00000000000000000000000000000000000000000000000000000000000000000000000000000000005200000000000000000000000000000000000000000000
#0211b:00130000
#02118:0013001300130000
#02112:2400000014000013
#0211a:0000000014000014
#02115:00140013
#02110:41
#02218:0013001300000000
#02215:00130000
#02212:00001414
#02216:0000000000130000
#02217:0000000000000013
#0221a:00001414
#02918:1313
#0291a:0013000000000000
#02915:00130013
#02913:0000001300000000
#0291b:0000000000130000
#02912:1300000000000013
#02910:41
#03018:13
#03015:13
#0311b:13
#03112:13
#02618:0000131300000000
#02615:0000000000001313
#02612:0023
#0261b:0023
#02718:0013001300000000
#02715:0000130000000013
#0271b:23002323
#02712:23002323
#05318:0014000000000000
#05316:00241414
#05314:0000000000140000
#05312:24140024
#0531a:24
#0245a:14
#0265b:13
#02652:13
#03352:0013
#03357:0013
#03257:00000053
#03256:00530000
#0375b:0013
#03756:0013
#03656:00000063
#03657:00630000
#04452:00000013
#0495a:14000024
#04956:00540000
#04858:00000053
#05052:0014
#05156:00540000
#05152:0024
#0515a:00000024
#05252:0054
#05256:00000014
#0525a:00000014
#0545a:0014
#05556:00640000
#0555a:0024
#0565a:0064
#05656:00000014
#05652:00000054
#05752:13
#05757:0023
#0575a:00540000
#05756:00000054
#05852:0013
#05955:00530000
#0595b:00000053
#06054:0054
#06058:00000053
#06052:00000013
#06156:00002354
#0615a:14
#06152:00540000
#0625b:0013
#06252:00000013
#06256:0054
#06257:00000053
#0635a:14
#06352:00140000
#06652:00000012
#0665c:00000012
#00158:53
#00155:0000000000000053
#00258:00000053
#00355:63
#00358:0000000000000063
#00455:00000063
#00558:53
#00555:0000000000000053
#0055b:0023000000000000
#00658:00000053
#00652:23
#00755:63
#00752:0023000000000000
#00758:0000000000000063
#0095b:0023
#00958:53
#01055:63
#01052:0023
#01159:00530000000000000000000000000000000000000000000000000000000000000000000000000000000000000000000000000000000000000000000000000000
#01157:0023
#0135b:0023
#0135a:00630000000000000000000000000000000000000000000000000000000000000000000000000000000000000000000000000000000000000000000000000000
#01252:23
#01455:63
#01452:0023
#01559:00530000000000000000000000000000000000000000000000000000000000000000000000000000000000000000000000000000000000000000000000000000
#01557:0023
#01656:53
#0185a:00000014
#0175b:0000000000000053
#02152:0000000000000063
#02958:5353
#02955:00530063
#0295a:0023000000000000
#02953:0000002300000000
#0295b:0000000000230000
#02952:0000000000000023
#03058:53
#03055:63
#03152:23
#0315b:23
#02558:00000053
#02555:00000063
#0285b:13
#03456:00530000
#03452:00000063
#03552:0053
#03555:00000013
#0355b:0063
#03558:00000013
#03857:00630000
#03952:0023
#03958:00000053
#0455b:00000013
#01952:0000000000000054
#02052:0014
#0225a:0014
#02252:00000014
#05352:14000024
#05356:00640000
#0085b:23
#001380:13
#0013b0:00230000
#001350:0000000000000013
#002320:0023000000000000
#002380:00000013
#0033b0:23
#003351:13
#003321:00230000
#003381:0000000000000013
#0043b1:0023000000000000
#004351:00000013
#005321:23
#005380:13
#0053b0:0053000000000000
#005370:00230000
#005350:0000000000000013
#006320:53
#006360:0023000000000000
#006380:00000013
#0073b0:23
#007351:13
#007321:0053000000000000
#007361:00230000
#007381:0000000000000013
#0083b1:53
#008371:0023000000000000
#009381:13
#0093b1:0053
#010381:23
#010350:13
#010320:0053
#011350:23
#011390:00130000000000000000000000000000000000000000000000000000000000000000000000000000000000000000000000000000000000000000000000000000
#011370:0053
#0123b0:23
#012321:13
#013351:23
#0133a1:00130000000000000000000000000000000000000000000000000000000000000000000000000000000000000000000000000000000000000000000000000000
#0133b1:0053
#014381:23
#014350:13
#014320:0053
#015360:23
#015390:00130000000000000000000000000000000000000000000000000000000000000000000000000000000000000000000000000000000000000000000000000000
#015370:0053
#0163b0:23
#016361:13
#017321:23
#0173b1:0000000000000013
#018381:0023000000000000
#019321:0000000000000014
#020351:0023000000000000
#0203a1:000000000000000000000000000000000000000000000000140000540000540000540000340000003400000034000000
#020391:0000000000000000000000000000000000540054005400540000000000000000
#021361:24
#021321:0000000000000013
#022351:0023000000000000
#025381:00000013
#0263b1:23
#025350:00000013
#026320:23
#029380:13230000
#0293a0:0053000000000000
#029351:00132300
#029331:0000005300000000
#029380:00001323
#0293b0:0000000000530000
#029351:00000013
#029321:0000000000000053
#030351:33
#030321:00000033
#031321:33000026
#030380:13
#0303b0:00000033
#0313b0:33
#031380:00000026
#032360:00130000
#032320:0023
#032370:00000013
#0333b0:23
#034360:00130000
#034320:0023
#034320:00000013
#035360:23
#035320:0013
#035350:00000023
#0353b1:0013
#035381:00000023
#036371:00130000
#0363b1:0023
#036361:00000013
#037321:23
#038371:00130000
#0383b1:0023
#039321:0013
#039351:00000023
#039380:00000013
#0403b0:23
#041340:00000013
#042340:23
#048380:00000013
#0493a0:24
#049360:00140000
#049320:0024
#0493a0:00000014
#050360:24
#051360:00140024
#051320:0000000034340000
#0513a1:00000014
#052361:24
#052321:0014
#052361:00000024
#053361:00140000
#0533a1:0024
#053321:00000014
#054361:24
#055361:00140024
#0553a1:0000000034340000
#0563a1:0014
#056361:00000024
#056320:00000014
#057320:23
#0573a0:00140024
#057370:0053
#057361:00000014
#058321:23
#059351:00130000
#059321:0024
#0593b1:00000013
#060381:24
#060341:0014
#060321:00000023
#060380:00000013
#0613a0:24
#061320:00140024
#061360:0053
#061361:00000014
#0623b1:23
#062361:0014
#062321:00000023
#062370:00000013
#0633a0:24
#065320:14
#066320:0000000000322200
#0009b0:13230000
#000980:0053000000000000
#000951:00132300
#000921:0000005300000000
#000980:00001323
#0009b0:0000000000530000
#0019b0:0000001300000000
#001980:0023
#002980:0013000000000000
#0029b0:00230000
#003920:0000001300000000
#003950:0023
#004950:0013000000000000
#004920:00230000
#005970:0000001300000000
#0059a0:0023
#0069b0:0013000000000000
#006980:00230000
#007960:0000001300000000
#007930:0023
#008920:0013000000000000
#008950:00230000
#008950:00000014
#009920:24
#009960:0000000000120000
#009950:00000000000000000000000000000000000000000000000000000000000000000000000000000000002200000000000000000000000000000000000000000000
#010980:0000000000120000
#010990:00000000000000000000000000000000000000000000000000000000000000000000000000000000002200000000000000000000000000000000000000000000
#0119b0:13
#011990:00230000000000000000000000000000000000000000000000000000000000000000000000000000000000000000000000000000000000000000000000000000
#011940:0000000000120000
#011930:00000000000000000000000000000000000000000000000000000000000000000000000000000000002200000000000000000000000000000000000000000000
#0129a0:0000000000120000
#0129b0:00000000000000000000000000000000000000000000000000000000000000000000000000000000002200000000000000000000000000000000000000000000
#013980:13
#0139a0:00230000000000000000000000000000000000000000000000000000000000000000000000000000000000000000000000000000000000000000000000000000
#013970:0000000000120000
#013960:00000000000000000000000000000000000000000000000000000000000000000000000000000000002200000000000000000000000000000000000000000000
#014970:0000000000120000
#014980:00000000000000000000000000000000000000000000000000000000000000000000000000000000002200000000000000000000000000000000000000000000
#0159b0:13
#015990:00230000000000000000000000000000000000000000000000000000000000000000000000000000000000000000000000000000000000000000000000000000
#015940:0000000000120000
#015930:00000000000000000000000000000000000000000000000000000000000000000000000000000000002200000000000000000000000000000000000000000000
#0169a0:0000000000120000
#0169b0:00000000000000000000000000000000000000000000000000000000000000000000000000000000002200000000000000000000000000000000000000000000
#034970:13
#0349b0:00230000
#0349b0:0013
#034970:00000023
#038960:13
#038920:00230000
#040920:13
#040950:00230000
#0409b1:00130000
#040981:0023
#040950:0013
#040920:00000023
#040981:00000013
#0419b1:23
#0429b1:13
#042981:00230000
#042920:00130000
#042950:0023
#042981:0013
#0429b1:00000023
#042950:00000013
#043920:23
#043920:00130000
#043950:0023
#0439b0:00000013
#044980:23
#065970:0013000000000000
#065990:00230000
#0659b0:0000001300000000
#065990:0023
#065970:0000000000130023
#065990:00000053
#0669b0:13
#066990:0023000000000000
#066970:00130000
#066990:0000002300000000
