This file was generated by Ched 2.7.0.0.
#TITLE ""
#ARTIST ""
#DESIGNER ""
#DIFFICULTY 0
#PLAYLEVEL
#SONGID ""
#WAVE ""
#WAVEOFFSET 0
#JACKET ""
#REQUEST "ticks_per_beat 480"
#00002: 4
#BPM01: 140
#00008: 01
#TIL00: ""
#VOLUME: ""
#HISPEED 00
#MEASUREHS 00
#00118:00001313
#00115:0000001300130013
#0011b:23130000
#00112:23
#00218:00001313
#00215:0000000000130000
#01818:00130014
#01812:0013000000130000
#01815:0000001300000000
#0181b:0013
#01918:0013000000130000
#01915:00130013
#0191b:0000001300000013
#01912:1313
#02018:00130000
#02015:0013000000000000
#0201b:0013
#02418:0000130000000013
#02415:0000001300001300
#02412:24
#0241b:0023
#02518:0013001300000000
#02515:0000130000000013
#02512:2323
#0251b:0023
#02812:00130000
#02815:0000001300130000
#02818:00002313
#0281b:2300000000000013
#03412:13
#03418:0013000000001300
#03415:0000130000130000
#0341b:0013
#03518:0013001300000000
#03515:00130000
#03512:13
#03318:0013
#0331b:00130000
#03315:0013000000000000
#03312:0000001300000000
#0321b:00000013
#03215:0013000000130000
#03218:00130000
#0321a:24
#03818:0000130000130000
#03815:0013000000001300
#0381b:1300000000000013
#03812:0013
#03810:41
#03912:1313
#03918:0013000000000000
#03915:00130013
#0391b:0000001300000000
#0441b:001300001300
#04415:00130013
#04418:000000000013000000000000
#04412:0013
#04912:0014000014000000
#0491a:0000140000140000
#04916:24000014
#0491f:21
#0501a:14
#05014:0014000000000000
#05018:00140000
#05012:0000001400000000
#05016:0014
#05010:41
#05112:14000014
#05118:0014000000140000
#05114:00140000
#0521a:0014000014000000
#05216:00140000
#05212:0000001400000000
#02715:0013001300000013
#02718:00130023
#0271b:2323
#02712:0023
#0001b:003333333333000000000000130000000000000000000000
#00015:000000000000003333333333000000000000130000000000
#00018:0000000000000013
#0031b:13
#00315:00001313
#00318:0000001300130013
#00312:13130000
#00818:00000013
#00815:0013
#01113:1400000000340000
#01215:16
#01213:0000000000340000
#01519:1400000000340000
#01615:16
#01619:0000000000340000
#01715:0000130000130000
#01718:0013
#01712:23000013
#0171b:0000000000000013
#02215:00130013
#0221b:0013000000130000
#02218:0000001300000013
#02212:0013
#02315:0013000000001300
#02318:00130000
#02312:0000001300000000
#0231b:0000000013000013
#02115:00131300
#0211b:0013000000001300
#02118:0000001300130000
#02112:2300000000000013
#02110:41
#02615:0000130000000013
#02618:0000001300001300
#0261b:23
#02612:0023
#02915:1313
#02912:00130013
#02910:41
#03015:13
#03018:13
#03115:0000000000000013
#03118:00000013
#03715:0013
#03712:00130000
#03718:0013000000000000
#0371b:0000001300000000
#03612:24000013
#03618:0013000000130000
#03615:00130000
#0401b:00130000
#04012:00000013
#0401f:11
#04018:000000000033000000000000
#04015:000000000000000000000033
#0411a:001300000000
#04115:00130000
#04119:000000000013000000000000
#04114:0013
#04118:000013
#04218:00130000
#04215:00000013
#0421b:000000000033000000000000
#04212:000000000000000000000033
#04318:001300000000
#04313:00130000
#04319:000000000013000000000000
#04314:0013
#0431a:000013
#04512:001300001300
#04518:00130013
#04515:000000000013000000000000
#0451b:1313
#04612:13
#0461b:0013
#04618:000033
#04615:003300000000
#04712:13
#04713:00130000
#04714:0013
#04715:00000013
#04718:001300000000
#04719:000000000013000000000000
#0471a:000013
#0481a:00000014
#04819:22
#04817:00220000
#04815:0022
#0531a:0014000014000000
#05312:2400000000140000
#05316:00140014
#05412:14
#05418:0014000000000000
#05414:00140000
#0541a:0000001400000000
#05416:0014
#0551a:14
#05514:0014000000000014
#05518:00140014
#05512:0000000000140000
#0561a:14000014
#05614:0014000000000000
#05618:00140000
#05612:0000001400001400
#05616:0014
#0571a:0014000014000000
#05712:0000140000140000
#05716:24000014
#05812:14
#05818:0014000000000000
#05814:00140000
#0581a:0000001400000000
#05816:0014
#0591a:14000014
#05914:0014000000140000
#05918:00140000
#06012:0014000014000000
#06016:00140000
#0601a:0000001400000000
#06112:0014000014000000
#0611a:2400000000140000
#06116:00140014
#0621a:14
#06214:0014000000000000
#06218:00140000
#06212:0000001400001400
#06216:0014
#06312:0000160000140000
#06316:0014
#06318:26000014
#06314:0000000000000014
#0641a:1434000014000000
#06414:0000143400000000
#06416:0000000000140014
#06412:00000014
#0651a:14
#00415:00001313
#00418:0000000000130000
#00518:00001313
#00515:0000001300130013
#0051b:23130000
#00512:23
#00510:41
#00618:00001313
#00615:0000000000130000
#0071b:13
#00715:00001313
#00718:0000001300130013
#00712:13130000
#01412:0000000000360000
#01318:0000000000360000
#01310:41
#01018:0000000000360000
#00912:0000000000360000
#02452:14
#03358:0013
#0325b:00000053
#03258:00530000
#04455:13000013
#05056:0014
#0525a:0064
#05256:00000014
#01858:00000014
#0285b:13
#03552:00000013
#0355b:00000013
#00858:00000063
#01153:64
#01255:66
#01559:54
#01655:56
#02058:00530000
#0205b:0023
#02955:5353
#02952:00530053
#03055:53
#03058:53
#03455:00130000
#03458:00000013
#03755:0013
#03652:00000063
#03655:00630000
#03858:00130000
#03952:0053
#03955:00000053
#04052:13000063
#0405b:00530000
#04253:13
#04258:00630000
#04255:00000053
#04558:00000013
#04655:00130000
#04658:00000013
#04652:53
#0465b:0053
#0485a:00000054
#04956:14000014
#0495a:00140000
#05154:00540000
#05152:00000024
#05356:00140014
#05456:0014
#05558:00640000
#05656:0014
#05752:00140000
#05756:00000014
#05856:0014
#06052:0054
#06056:00000014
#05958:00640000
#0595a:00000024
#06156:00140014
#06256:0014
#0645a:54
#06454:00540000
#0655a:54
#06657:00000012
#00155:0000000000000053
#00358:0000000000000063
#00555:0000000000000053
#00758:0000000000000063
#06358:46
#06352:00360000
#0003b0:133333333333000000000000000000000000000000000000
#000380:00230000
#000351:000000000000133333333333000000000000000000000000
#000321:0023
#001351:0000000000000013
#002321:0033230000000000
#003381:0000000000000013
#0043b1:0033230000000000
#005351:0000000000000013
#006321:0033230000000000
#007381:0000000000000013
#0083b1:0033230000000000
#008381:00000013
#0093b1:23
#009320:1600000000360000
#010330:24
#010381:1600000000360000
#011391:24
#011330:1400000000340000
#012350:36
#012330:0000000000340000
#013330:24
#013381:1600000000360000
#014391:24
#014320:1600000000360000
#015330:24
#015391:1400000000340000
#016351:36
#016391:0000000000340000
#017391:24
#020381:00130023
#0203b1:0053
#029351:1333
#029321:00330033
#030351:33
#030321:00000033
#031321:3324
#030380:13
#0303b0:00000033
#0313b0:33
#0313a0:0024
#032380:00130000
#0323b0:0023
#0323b0:00000013
#033380:23
#035320:00001323
#0353b1:00001323
#036351:00130000
#036321:0023
#036321:00000013
#037351:23
#039321:0013
#039351:00000033
#040321:23
#0403b1:00130000
#040381:000000000033230000000000
#040321:00000013
#040351:000000000000000000000033
#041351:23
#041331:00000013
#042331:23
#042381:00130000
#0423b1:000000000033230000000000
#042351:00000013
#042321:000000000000000000000033
#043321:23
#043351:00000013
#044351:23
#046321:13
#046351:000033230000000000000000
#0463b1:0013
#046381:000000000000000033230000
#0483a1:00000014
#049361:24
#051341:00140000
#051321:0024
#051321:00000014
#052341:24
#0523a1:0014
#052361:00000024
#055381:00140000
#0553a1:0024
#059381:00140000
#0593a1:0024
#0593a1:00000014
#060381:24
#060321:0014
#060361:00000024
#0643a1:1434000000000000
#064381:00240000
#064340:0000143400000000
#064320:0024
#0653a0:14
#066370:0000000000322200
