This file was generated by Ched 2.7.0.0.
#TITLE ""
#ARTIST ""
#DESIGNER ""
#DIFFICULTY 0
#PLAYLEVEL
#SONGID ""
#WAVE ""
#WAVEOFFSET 0
#JACKET ""
#REQUEST "ticks_per_beat 480"
#00002: 4
#BPM01: 140
#00008: 01
#TIL00: ""
#VOLUME: ""
#HISPEED 00
#MEASUREHS 00
#0011a:14
#00114:00140000
#00118:0014
#00212:14
#00218:00140000
#00214:0014
#00318:14
#00314:00140000
#0031a:0014
#00414:14
#00418:00140000
#00412:0014
#0051a:14
#00514:00140000
#00510:41
#00612:14
#00618:00140000
#00718:14
#00714:00140000
#00814:14
#00818:00140000
#0091a:14
#01317:14
#01310:41
#01512:14
#01115:14
#0171a:1414
#01714:00140014
#0181a:14343400
#01912:1414
#01918:00140014
#02012:14343400
#0211a:14
#02114:00140000
#02118:0014
#02112:00000014
#02110:41
#0221a:14
#02214:00140000
#02218:0014
#02212:00000014
#0231a:14343434
#02414:0014
#02418:24
#0251a:14
#02514:00140000
#02518:0014
#02612:14
#02618:0014
#02712:14
#02718:00140000
#02714:0014
#0281a:14
#02814:0014
#0291a:14
#02914:00140000
#02918:0014
#02912:00000014
#02910:41
#0301a:14
#03117:14
#03218:00140000
#03214:0014
#0321a:00000014
#03212:24
#03314:14
#03318:00140000
#03312:0014
#03418:14
#03414:00140000
#03514:14
#03518:00140000
#03614:00140000
#03618:0014
#03612:00000014
#0361a:24
#03718:14
#03714:00140000
#0371a:0014
#03814:14
#0381a:00140000
#03813:0014
#03819:00000014
#03810:41
#03912:14
#03918:00140000
#04018:14
#0401f:11
#04214:0014
#04318:14
#04312:0014
#0441a:14
#04512:14
#04618:14
#04714:14
#04914:00140000
#04918:0014
#04912:00000014
#0491a:24
#0491f:21
#05018:14
#05014:00140000
#0501a:0014
#05010:41
#05112:14
#05118:00140000
#05114:0014
#0511a:00000014
#05212:14
#05218:00000014
#05214:00340000
#05318:00140000
#05314:0014
#0531a:00000014
#05312:24
#05414:14
#05418:00140000
#05412:0014
#0551a:14
#05514:00140000
#05518:0014
#05512:00000014
#0561a:14
#05614:00000014
#05618:00340000
#05712:00140000
#0571a:0014
#05714:00000014
#05718:24
#05818:14
#05812:00140000
#0581a:0014
#05914:14
#05918:00140000
#05912:0014
#0591a:00000014
#06014:14
#06018:00000014
#06012:00340000
#0611a:00140000
#06112:0014
#06118:00000014
#06114:24
#06214:14
#0621a:00140000
#06212:0014
#06318:14
#06314:00140000
#0631a:0014
#06312:00000014
#06418:14
#06414:00140000
#0641a:0014
#06412:00000014
#06617:00000056
#0095a:54
#01357:54
#01552:54
#01155:64
#0185a:54
#02052:64
#02458:14
#0235a:54
#0305a:54
#03157:24
#03252:14
#03352:0014
#0375a:0014
#0365a:14
#04058:54
#0445a:54
#04552:54
#04658:64
#04754:64
#0505a:0014
#0495a:14
#05252:54
#05452:0014
#0565a:64
#05352:14
#0585a:0014
#05758:14
#06054:64
#06252:0014
#06154:14
#005380:00001424
#006340:00001424
#0073a0:00001424
#008320:00001424
#0093a0:14
#010370:00000024
#011350:14
#012320:00000024
#013370:14
#0143a0:00000024
#015320:14
#016350:00000024
#0183a0:14343400
#018380:00000024
#020320:14343400
#020340:00000024
#0233a0:14343434
#024380:24
#0303a0:14
#030370:00000034
#031370:34
#0313a0:00000024
#0343a0:00001424
#035320:00001424
#039320:00001424
#040380:14
#0423a0:24
#0443a0:14
#044380:0024
#045320:14
#045340:0024
#046380:14
#0463a0:0024
#047340:14
#047320:0024
#052320:14
#052340:00342400
#0563a0:14
#056380:00342400
#060340:14
#060320:00342400
#065380:14
#066370:00000026
