This file was generated by Ched 2.7.0.0.
#TITLE ""
#ARTIST ""
#DESIGNER ""
#DIFFICULTY 0
#PLAYLEVEL
#SONGID ""
#WAVE ""
#WAVEOFFSET 0
#JACKET ""
#REQUEST "ticks_per_beat 480"
#00002: 4
#BPM01: 137
#00008: 01
#TIL00: ""
#VOLUME: ""
#HISPEED 00
#MEASUREHS 00
#02015:00000013000000000000000013000013
#02018:0013000000000013
#02012:53130000000000002400000000000000
#0201b:13000000000000000000001300000000
#02016:0000002400000000
#0201a:00240000
#0311b:1300001300000000
#03117:00000013000000000000000000000000
#03115:00000013
#03118:0000000000000013
#03112:13000013000000000000130000000000
#03116:0000001300000000
#0491b:13000013
#04917:00000013000013000000130000000000
#04915:0000000000000013
#04912:24242424
#06918:12000012000000000000000000000000
#06912:00240024
#00018:0000000000000013
#00012:00000000000000000000000000000013
#0011b:13000013000000000000000000000013
#00115:0013000000000013
#00112:00000000001300000000000000000000
#00118:0000001300000000
#00212:13000013000000000000000000000000
#00218:0013000000000000
#0021b:00000000001300000000000000000013
#00215:0000001300000013
#00418:0000001300000013
#00415:00001300000000000000000000000013
#0041b:13000013000000000000000000000000
#00412:00000000001300000000000000000000
#0051b:13
#00512:0013000000000000
#00518:00000013000013000000000000000013
#00515:00000000001300000000000000001300
#00612:1300001300000000
#0061b:0013000000000000
#00615:00000013000000000000000000001300
#00618:00000000001300000000000000000013
#0071b:0013000000001300
#00715:00000013000000000013000000130000
#00712:13000000000013000000000000000013
#00718:00000000001300001300000000001300
#00812:00000000000013000000001300000000
#0081b:13000013000000000000000013000000
#00815:0013000000000013
#00818:00000000001300000000000000000013
#00912:14000000003313000000000000331300
#00918:00000013000000001300003300000000
#00915:00000000130000330000000013000033
#0091b:00000000000000000033130000000000
#00910:41
#01018:1300000000001313
#01015:00001300000000000000001300000013
#01016:0000001400000000
#01012:00000033000000001400000000130000
#0101a:00140000
#0101b:00330000000000000000000000000000
#0111a:14
#0111b:00000000130000330000000013000033
#01112:00000000000000001300003300000000
#01115:00000013000000000033130000000000
#01118:00000000003313000000000000331300
#0131b:0013130000000000
#01312:24001313
#01317:00000000000000005313001300000000
#01314:0000000000130053
#01316:00000013000000000000000000000000
#0131a:00000000005300000000000000000000
#01319:0000005300000000
#01318:00000000000000530000000000000000
#01313:00000000000000000000000000530000
#01315:00000000000000000000000000000053
#01419:13
#01414:0013000000000000
#01415:00000000000000000000001300130000
#01418:00000013
#0141b:0053000000000013
#01412:00000000530000002400000000000013
#01416:5300002400000000
#0141a:00530000240000000000000000000000
#01413:00000053000000000000000000000000
#01618:00000000000000000000001300130000
#01615:00000013
#01612:0053240000000013
#0161b:00000000530000000000000000000013
#01614:13
#01619:0013000000000000
#0161a:00000053000000002400000000000000
#01616:0000002400000000
#01617:53
#01613:00530000000000000000000000000000
#01714:00000013000000000053005300000000
#01717:0013130053000000
#01712:24000000000000001300000053000013
#0171b:0000005300001300
#01715:00000000000000000000000000130000
#01718:0000000000000013
#01710:41
#01719:00000000005300530000000000000000
#01716:0000000000530000
#01815:00001300000000000000000000000013
#01818:00000013000000000000001300001300
#01812:00240013
#0181b:13
#0181a:0024
#01816:0000002400000000
#02115:00000013000000001300000000000000
#02118:00130013
#0211b:00000000003313330000000000331333
#02112:00000000000000000033133300000000
#0211a:24
#02215:1300000000000013
#0221a:00130000000000000000000000000000
#0221b:00000000000000000000001300000000
#02212:00000013
#02218:00000000130000000000000000130013
#02213:00000013000000000000000000000000
#02216:0000001300000000
#02214:0013
#02312:14130013
#02318:00000013000000000000000000000033
#02316:0000001300000000
#0231b:0000000013000013
#02317:0000000000130000
#02314:00000000003300330000000000000000
#02319:00000000000000000033003300000000
#02315:00000000000000000000000000330000
#02412:13000000000000000000001300000013
#02418:00130000000000000000000013000000
#02415:00001300000000000000000000130000
#0241b:00000013000000000000000000001300
#02413:00130000
#02416:0000001300000000
#02419:0013
#02512:0013130000001300
#02518:00000013000000000000000000000000
#02516:0000001300000013
#0251b:0013
#02517:0000000000130000
#0251a:14
#02514:00000000003300330000000000330033
#02519:00000000000000000033003300000000
#02510:41
#02615:00130000000000000000000013000000
#02619:0013000000000000
#0261b:00000000000000000000001300000013
#02618:13000000000000000000000000130000
#02616:00000013000000000000000000000000
#02612:0000000000000013
#0261a:00130000
#02617:0000001300000000
#02614:0013
#02815:13000000000000000000130000000013
#02818:00130000000000000000001300001300
#02812:00000013
#02814:0013000000000000
#02817:00000013000000000000000000000000
#02813:00130000
#02816:0000001300000000
#02819:0013
#0291b:1300001300000000
#02912:0013000000001313
#02918:00000033000000000000000013000000
#02919:00330000
#0291a:00000000003300000000000000000000
#03016:0013000000000000
#0301b:0000000000130000
#03018:00000013
#03015:0000000000000013
#03212:1300001300005300
#03218:0000000000000012
#03216:00000000000000000000000000000012
#0321b:13
#03213:00000000000000530000005300000000
#03214:0000000053530000
#03215:00000000000000000053000000000000
#0331a:1200001200000000
#03314:0012000000000000
#03316:00000000001200000000000000001200
#03318:00000012000000000000000000000012
#03310:41
#03618:00000012000000000000000000001200
#03616:00000000001200000000000000000012
#0361a:1200001200000000
#03614:0012000000000000
#03718:00000000000012000000000000000012
#03716:0000000000000012
#0371a:12
#03715:0012000000000000
#03719:00000012000000000000000000000000
#03714:00000000001200000000000000000000
#04016:00000012000000000000000012000000
#04018:00000000001200000000001200001300
#04015:12000000000000000000000000000013
#0401a:0012000000000000
#04014:0000001200000000
#04115:00001300135353000000000013001300
#04118:00000013000013535300000000130000
#04112:00000000000000001353530000000000
#0411b:00000000000000000000135353000000
#0411a:24000000000000000000000000000014
#04110:41
#0421a:00000014000014000000000000000000
#0421b:00000000000000000000001300000000
#04212:00140000000000002400000013000000
#04218:0000000000000013
#04215:00000000000000000000000000000013
#04216:14140000
#0431b:13000000000000001353530000001300
#04317:0013000000000000
#04316:00130000
#04312:00000000000013000000135353000014
#04318:00000013
#04315:00000000000000000000000000130000
#04319:00330033000000000000000000000000
#04314:00000000003300330000000000000000
#0451b:13000013000013000000000000000000
#04512:00140014
#0451f:11
#04617:13000013000013000000000000000000
#04612:00140014
#04712:13000013000013000000000000000000
#0471a:00140014
#04816:13000013000013000000000000000000
#0481a:00140014
#05012:13000013
#05016:00000013000013000000130000000000
#05019:0000000000000013
#0501a:24242424
#05117:1313000013130000
#05116:0000131300002424
#0511b:00230013
#05112:2323
#0521a:14001400000000000034343400000000
#05213:0000141400000000
#05218:0014
#05212:24002400000000000034343400000000
#05219:0000242400000000
#05214:0024
#05612:13242413
#05615:0013000000000013
#05618:00130000000000000000001300000013
#0561b:53000013000000000000000000130000
#0561a:0024
#05616:0000002400000000
#05318:00001300000000000013000000000000
#05315:00000013000000000000130000000000
#05312:24001313
#0531b:00000000130000005300001300000000
#0531a:24
#0531f:21
#05319:00000000005300530000000000000000
#05317:0000005300000000
#05314:00000000000000000000000000530053
#05316:0000000000000053
#05412:53000013000000002400001300000000
#0541b:13000013
#05418:0013000000000013
#05415:00130000000000000000000000130013
#0541a:00242400
#05416:0000002400000000
#05410:41
#05517:00000013000000000000000000005300
#05512:00001300130000005300001300000000
#0551b:13001313
#05515:00000000000000000013000000000000
#05518:0000000000130000
#05514:00000000005300530000000000000000
#05516:0000005300000000
#05519:00000000000000000000000000530053
#05815:13000000000000000000000000000013
#05818:00130000001400000000001300001300
#0581b:00000013000000000000000000000000
#05816:0014
#05812:0013140000001400
#05814:0000001400000000
#0581a:00000000000000140000000000000000
#05718:00000013000013000013000000000033
#05712:24000000130000000000130000330000
#05715:00000000003300001300000013000000
#0571b:00000000000000330000001300001300
#0591a:14
#0591b:00001300130000000000130000330000
#05915:00000013000013000013001300000033
#05918:00000000003300001300000013000000
#05912:00000000000000330000000000001300
#06018:13001300000000000000000000130000
#06012:00130000000014000000000013000000
#06015:00000013000000000000130000001300
#0601a:00141400
#0601b:00000000000000000000001300000013
#06218:0000000000000014
#0621a:14001400140000000000001400000000
#06212:00000014000014000000000014000000
#06214:00000000000000000000000000000014
#06216:00140000000014000000000000000000
#06112:14000000140000000000001400000014
#06116:00000000000014000014000000140000
#0611a:00000014000000001400140014001400
#06114:00000000003400340000000000000000
#06515:0000131313130000
#06518:00000000001300130013001300000000
#06512:24000013
#0651b:0000000000000013
#0651a:24
#06612:13005414
#06619:000000000054000000000000000000000054000000130000
#06614:000000000000000000005400000000000000000000130000
#06617:0014000014140000
#06615:0000141400000000
#06618:005400005400
#0661a:00540054
#06613:000000000000000000000054000000000000000000000000
#0671a:14000000000000140000000000000000
#06714:00140000
#06718:00000000001400000000000000000000
#06716:00000014000014000000000000000000
#06712:1414000000000000
#06812:1414001400000000
#06816:00140000140000140000000000001400
#0681a:00000014001400000000000000000000
#0701b:12000012000000000000000000000000
#07012:00240024
#0441a:00140000000000000000000024000000
#04412:00000013000000000000002400000024
#04418:0000130024000024
#04415:00000000001300000000000000000000
#0441b:0000001300000000
#04414:00000000000000140000000000240000
#04416:14
#01212:13000000140000000000002400000000
#0121b:0013000000000000
#01216:0000001400000000
#0121a:00001424
#01214:0000000000000024
#01218:00000033000000000000000000000024
#01215:00330000000000000000000000000000
#01512:0013130000000000
#0151b:00001313
#01516:00000000000000005313001300000000
#01519:0000000000130053
#01517:00000013000000000000000000000000
#0151a:24000000000000000000000000530000
#01513:00000000005300000000000000000000
#01514:0000005300000000
#01515:00000000000000530000000000000000
#01518:00000000000000000000000000000053
#03414:1200001200000000
#0341a:0012000000000000
#03416:00000012000000000000000000001200
#03418:00000000001200000000000000000012
#03514:1200001200000000
#0351a:0012000000000000
#03518:00000000001200000000000000001200
#03516:00000012000000000000000000000012
#03814:12
#03819:0012000000000000
#03815:00000012000000000000000000001200
#0381a:00000000001200000000000000000000
#03816:0000001200000000
#03818:00000000000000000000000000000012
#03913:12
#03919:00001200000000000000000000120000
#03914:00000012000000000000000000000000
#0391a:00000000001200000000001200000000
#03917:00000012
#03916:00000000000000000012000000001200
#03918:00000000000000000000000000000012
#03915:0000001200000000
#0391b:0012
#0631a:14001400140000000000001400000014
#06316:00000014000014000014000000140000
#06312:00140000000000001400140014001400
#06318:00000000003400340000000000000000
#0641a:00000014000024000000000000000000
#06412:14001400140000000000002400000000
#06416:00140000000014000000000024000024
#06418:0000000000000024
#06414:00000000000000000000000000240000
#07116:12000012000000000000000000000000
#0711a:00240024
#07213:12000012000000000000000000000000
#07216:0000000000000012
#0721a:00240024
#00312:13000013000000000000000000000013
#00318:0013000000000013
#0031b:00000000001300000000000000000000
#00315:0000001300000000
#01919:00000013000000000053005300000000
#01916:0013130053000053
#0191b:00001353
#01912:0000005300001300
#0191a:24
#01914:00000000005300530000000000530053
#01917:0000000000530000
#0271b:0013130000001300
#02715:00000013000000000000000000000000
#02717:0000001300000013
#02712:1413
#02716:0000000000130000
#02719:00000000003300330000000000330033
#02714:00000000000000000033003300000000
#0315b:5300005300000000
#03157:00000053000000000000000000000000
#00158:0000005300000000
#0015b:0000000000130000
#00558:0000005300000000
#0055b:0000000000130000
#00952:1400002300000023
#00955:00530053
#00958:0063
#0095b:0000000000230000
#01058:53
#01055:0063000000000000
#0115a:14
#0115b:00530053
#01152:0063
#01155:0000000000230000
#01158:0000002300000023
#01352:14
#01752:14
#0215a:14
#02158:00530063
#0215b:0000002300000023
#02155:0063
#02152:0000000000230000
#02352:14530063
#02356:0000002300000000
#0235b:0000000063000053
#02357:0000000000230000
#02552:00530053
#02556:0000002300000023
#0255b:0063
#02557:0000000000230000
#0255a:14
#02852:00000013
#02859:0013
#0295b:1300005300000000
#02958:00000023
#03056:0063000000000000
#03758:0000005200000000
#0375b:0000000000120000
#0415a:14
#04252:0014
#0425a:0000001400000000
#04256:00140000
#0435b:63
#04357:0023000000000000
#04356:00630000
#04352:0000002300000000
#04458:0014
#0455b:0000006300000000
#04552:00140014
#04657:0000005300000000
#04652:00140014
#04752:0000005300000000
#0475a:00140014
#04856:0000006300000000
#0485a:00140014
#05254:0054
#05258:0054
#05352:14
#0535a:14
#05452:0014
#0545a:00141400
#05456:0000001400000000
#05752:14630000
#05758:0000006300000000
#05755:00000053
#0575b:0000000000000063
#0555b:53
#05856:0014
#05852:00000014
#0595a:14
#0595b:00530000
#05955:0000005300000000
#05958:00000063
#05952:0000000000000053
#0605a:00541400
#06052:0000005400000000
#06056:0014
#06152:14540000
#06156:0000002400000000
#0625a:00541400
#06256:0000005414000000
#06252:0000005400000000
#06552:00000063
#0655b:0000000000000053
#0655a:14
#0675a:64
#06856:00000000000000640000000000005400
#00255:0000001300000000
#00652:0000001300000000
#01252:53
#0125b:0063000000000000
#0155a:14
#0325b:53
#0335a:0000005200000000
#03358:0000000000120000
#03554:0000006200000000
#03556:0000000000120000
#0565a:0014
#05652:00141400
#05656:0000001400000000
#0635a:00640000
#06356:0000002400000000
#06452:00541400
#06456:0000005414000000
#0645a:0000005400000000
#06652:13
#06952:14
#00355:0000006300000000
#00352:0000000000130000
#00458:0000001300000000
#00852:0000001300000000
#0195a:14
#0275b:00630063
#02757:0000002300000023
#02752:1453
#02756:0000000000230000
#01452:0014
#0165a:0014
#0185a:0014
#02052:0014
#00755:00000000000000000013000000000000
#02254:0013
#02654:0013
#02459:0013
#001380:0000001300000000
#0013b0:00000000000000000033230000000000
#003350:0000001300000000
#003320:00000000000000000033230000000000
#005380:0000001300000000
#0053b0:00000000000000000033230000000000
#009350:00000000130000332300000000000000
#009320:00000000003333000000000000000000
#009381:00000000000000001300003323000000
#0093b1:00000000000000000033330000000000
#009350:00000000000000000000000013000033
#009320:00000000000000000000000000333300
#010350:23
#010381:13
#0103b1:00332300000000000000000000000000
#010350:0013000000000000
#010320:00000033230000000000000000000000
#0113b0:00000000130000332300000000000000
#011380:00000000003333000000000000000000
#011321:00000000000000001300003323000000
#011351:00000000000000000033330000000000
#0113b0:00000000000000000000000013000033
#011380:00000000000000000000000000333300
#0123b0:23
#012321:13
#012351:00332300000000000000000000000000
#0123b0:0013000000000000
#012380:00000033230000000000000000000000
#021380:00132300
#0213b0:00000000003333330000000000000000
#021351:00001323
#021321:00000000000000000033333300000000
#021380:00000013
#0213b0:00000000000000000000000000333333
#022380:23
#023320:00132300
#023340:00000000003300330000000000000000
#023360:0000003300000000
#0233b1:00001323
#023391:00000000000000000033003300000000
#023371:0000000000330000
#023320:00000013
#023350:00000000000000000000000000332300
#0233b1:0000000000000013
#023381:00000000000000000000000000000033
#024381:23
#025321:00132300
#025341:00000000003300330000000000000000
#025361:0000003300000000
#0253b0:00001323
#025390:00000000000000000033003300000000
#025370:0000000000330000
#025321:00000013
#025341:00000000000000000000000000330033
#025361:0000000000000033
#026321:23
#0273b1:00132300
#027391:00000000003300330000000000000000
#027371:0000003300000000
#027320:00001323
#027340:00000000000000000033003300000000
#027360:0000000000330000
#0273b1:00000013
#027391:00000000000000000000000000330033
#027371:0000000000000033
#0283b1:23
#029381:00001333000000000000000053000000
#029391:00330000
#0293a1:00000000003300000000000000000000
#0293b1:0000003300000000
#0303b1:0023000000000000
#030360:0013000000000000
#030320:0000000000230000
#0313b0:1300003300000000
#031370:00000033000000000000230000000000
#0323b0:13
#032370:0000002300000000
#0333a0:0000001200000000
#033380:00000000000000000032220000000000
#035340:0000001200000000
#035360:00000000000000000032220000000000
#037380:0000001200000000
#0373b0:00000000000000000032220000000000
#0433b0:13230000
#043390:00330033000000000000000000000000
#043370:0033000000000000
#043361:00132300
#043341:00000000003300330000000000000000
#043321:0000003300000000
#0453b1:0000001300000000
#045371:00000023
#046371:0000001300000000
#0463b1:00000023
#047321:0000001300000000
#047361:00000023
#048361:0000001300000000
#048321:00000023
#052381:0014
#0523a1:00000000000000000034343424000000
#052340:0014
#052320:00000000000000000034343424000000
#0553b0:13
#055370:0023000000000000
#057320:00130000
#057350:00000000003323000000000000000000
#057381:0000001300000000
#0573b1:00000000000000332300000000000000
#057351:00000013
#057321:00000000000000000000000000332300
#0573b0:0000000000000013
#057380:00000000000000000000000000000033
#058380:23
#0593b0:00130000
#059380:00000000003323000000000000000000
#059351:0000001300000000
#059321:00000000000000332300000000000000
#059381:00000013
#0593b1:00000000000000000000000000332300
#059320:0000000000000013
#059350:00000000000000000000000000000033
#060350:23
#0603a0:00140000
#060360:0000002400000000
#060321:0000001400000000
#060361:0024
#061321:00142400
#061341:00000000003400340000000000000000
#061361:0000003400000000
#0623a1:00142400
#062361:0000005400000000
#062320:0000001400000000
#062360:0024
#0633a0:00142400
#063380:00000000003400340000000000000000
#063360:0000003400000000
#064320:00142400
#064360:0000005400000000
#0643a1:0000001400000000
#064361:0024
#065321:00000013
#065361:0000000000000023
#0653b0:0000000000000013
#066370:23
#0673a0:14
#067360:0024000000000000
#067360:0014
#067320:0000000000240000
#067361:0000000000140000
#0673a1:00000024
#067320:00000014
#067360:0000000000000024
#0673a1:0000000000000014
#068361:24
#068361:00000000000000140000000000000000
#0683a1:0000000000240000
#068320:0000000000142400
#0683a1:0000000000001424
#068360:0000000000000014
#069320:24
#069380:0000001200002200
#0693b0:00000000000000000032000000000000
#0703b0:0000001200002200
#070380:00000000000000000032000000000000
#071360:0000001200002200
#071330:00000000000000000032000000000000
#072330:0000001200002200
#072360:00000000000000000032000000000000
#0139b0:00130000
#013970:0023
#013920:00000013
#014960:23
#014991:13
#0149b1:0023000000000000
#014940:0013000000000000
#014920:00230000
#015920:00130000
#015960:0023
#0159b0:00000013
#016970:23
#016941:13
#016921:0023000000000000
#016990:0013000000000000
#0169b0:00230000
#017970:00132300
#0179b0:0000005300000000
#017921:00001323
#017961:0000000000530000
#019961:00132300
#019921:0000005300000000
#0199b0:00001323
#019970:0000000000530000
#019921:00000013
#019961:0000000000000053
#020921:23
#032921:0000001300002300
#032951:00000000000000000053000000000000
#041951:0000132300000000
#041980:0000001323000000
#041921:0000000013230000
#0419b0:0000000000132300
#0439b0:0000000013230000
#043921:0000000000132300
#0539b1:00132300
#053971:0000005300000000
#053921:00000013
#053961:0000000000000053
#054921:23
#055921:00132300
#055961:0000005300000000
#0559b1:00000013
#055971:0000000000000053
#0569b1:23
#066971:0014000000000000
#0669a1:00240000
#066951:0000001400000000
#066921:0024
#066971:0000000000140000
#0669a1:00000024
