This file was generated by Ched 2.7.0.0.
#TITLE ""
#ARTIST ""
#DESIGNER ""
#DIFFICULTY 0
#PLAYLEVEL
#SONGID ""
#WAVE ""
#WAVEOFFSET 0
#JACKET ""
#REQUEST "ticks_per_beat 480"
#00002: 4
#BPM01: 137
#00008: 01
#TIL00: ""
#VOLUME: ""
#HISPEED 00
#MEASUREHS 00
#01512:13000013
#0151b:00130000
#01515:0013
#01518:0000000000130013
#04514:14
#0451a:00140014
#0451f:11
#00215:13
#00212:0013
#0031b:13
#00318:0013
#00412:13
#00415:0013
#00518:13
#0051b:0013
#00615:13
#00612:0013
#00918:13130000
#00915:00001313
#00910:41
#01018:1300130000000013
#01015:0013001300000000
#0101a:0014
#01012:00000013
#01112:13130000
#0111b:00001313
#01215:1300130000000013
#01218:0013001300000000
#01212:0014
#0121b:00000013
#01312:00130000
#01318:0013
#01315:0000000000130013
#0131b:00000013
#0131a:24
#01418:1300130000000013
#01412:0013000000001300
#01415:0000001300000000
#0141a:0024
#01615:13130000
#0161b:0013000000001300
#01618:0000001300000000
#01616:0000000000000013
#01612:0024
#0171b:13
#01715:0013000000000000
#0171a:00130000
#01714:0000001300000000
#01719:0013
#01713:0000000000130000
#01718:00000013
#01712:0000000000000013
#01710:41
#0201b:00000013
#02015:0000000000000013
#02016:1323
#02012:00130000
#02014:0033003300000000
#02218:0013000000001300
#02215:0000130000000013
#0221b:0000001300000000
#02212:1314
#0241b:13
#02415:0013000000001300
#02418:0000130000000013
#02412:0000001300000000
#0241a:0014
#0371b:13130000
#03715:00001313
#0381b:13
#03818:00130000
#03815:0013
#03812:00000013
#03918:13130000
#03912:00001313
#0401b:13
#04018:0000130000000013
#04015:0013
#04012:00000013
#04414:00000014
#04418:0000005300000014
#0441b:13
#0441a:0053000000000000
#04419:00530000
#04417:0053
#04915:13130000
#04914:00001313
#0491b:23230000
#0491a:00002323
#05013:13130000
#05012:00001313
#05019:23230000
#05018:00002323
#05115:0013000000000023
#05114:0000001300000000
#05113:0000000000130000
#0511b:23
#0511a:00230000
#05119:0023
#05118:00000023
#05212:13
#0521b:23
#05218:0033333300000000
#05215:0033333300000000
#05318:0013001300000000
#05315:00130013
#05312:2413
#0531b:0000000000130013
#0531f:21
#05412:13
#05415:0000130000000013
#05418:00000013
#05414:0033003300000000
#05410:41
#05515:0013001300000000
#05518:00130013
#0551b:0013
#05512:0000000000130013
#0551a:24
#05615:00000013
#05618:0000130000000013
#0561b:13
#05619:0033003300000000
#0571b:00131300
#05715:0000001300000013
#05712:2400000000130000
#05718:00000013
#0581b:13
#05818:0013000000000013
#05815:00130013
#05812:0000001300000000
#0581a:0014
#05915:00130013
#05918:0000001300000013
#05912:1413
#0591b:0013000000130000
#06018:00130013
#06015:0013000000000013
#06012:1314
#0601b:0000001300000000
#0611a:14
#06112:00131300
#06118:0000001300000013
#0611b:0000000000130000
#06115:00000013
#06212:1314
#06215:0013000000000013
#06218:00130013
#0621b:0000001300000000
#06318:00130013
#06315:0000001300000013
#0631b:0013
#06312:0013000000130000
#0631a:14
#0641b:13
#06418:0013000014000024
#06415:00130000
#06412:0000001300000000
#06414:00000024
#06518:00001313
#06515:0000000000130000
#06512:0000000000000013
#06514:24
#0661b:1313
#06615:0013000000001300
#06618:0000130000130000
#06612:0000001300000013
#0671b:1313
#06715:0013001300000000
#06718:00130013
#06712:0000000000130013
#0681b:13
#06818:0013000014000000
#06815:00130000
#06812:0000001300000014
#0681a:0000000000140000
#06814:00000014
#07116:1414
#0711a:00240024
#00118:13
#0011b:0013
#00115:13
#0071b:13
#00718:0013
#00812:13
#00815:0013
#01817:1300000023000013
#0181b:00130000
#01812:00000013
#01819:0033003300000000
#02115:0000130000130000
#02118:0000001300001300
#0211b:0000000000000013
#02112:0013
#0211a:24
#02318:1400001300001300
#02315:0000130000130013
#02312:0013
#02512:1400000000000013
#02518:0000130000130000
#02515:0000001300001300
#0251b:0013
#02510:41
#02615:0013000000001300
#02618:0000130000000013
#02612:0000001300000000
#0261b:13
#0261a:0014
#02812:1314
#02818:0013000000000000
#02815:0000130000000013
#0281b:0000001300001300
#02714:14
#02718:0000130000130013
#02715:0000001300001300
#0271b:0013
#04115:1300001300000000
#0411b:00131300
#04112:00000013
#04118:0000000000000013
#04110:41
#04212:13
#0421b:00000013
#04215:0000005300000013
#04213:0053000000000000
#04214:00530000
#04216:0053
#04318:1300001300000000
#04312:00131300
#0431b:00000013
#04315:0000000000000013
#06918:14
#06916:0014
#0691a:00240024
#07016:1414
#07012:00240024
#07216:1414
#07212:00240000
#07214:00000024
#07218:0000000000000024
#01912:13
#01918:0013000000000000
#01913:00130000
#01919:0000001300000000
#01914:0013
#0191a:0000000000130000
#01915:00000013
#0191b:0000000000000013
#04614:00140014
#04718:00140014
#04812:00140014
#03318:13000013
#0331b:00330000
#03310:41
#03415:13000013
#03412:00330000
#03518:13000013
#0351b:00130000
#03615:13000013
#03612:00130000
#00255:53
#00252:0053
#0035b:53
#00358:0053
#00452:63
#00455:0053
#00558:63
#0055b:0053
#00655:53
#00652:0053
#0105a:0014
#01252:0014
#0245a:0014
#0525b:63
#05252:63
#05452:6333
#05455:00230000
#05752:14
#0585a:0014
#0615a:14
#06252:0014
#06458:0014
#0695a:00140014
#07052:00140014
#0715a:00140014
#07252:00140000
#0135a:14
#00158:63
#0015b:0053
#0075b:53
#00758:0053
#00852:63
#00855:0063
#01857:5313
#0185b:00530000
#0215a:14
#02358:14
#02552:14
#02852:0014
#02754:14
#05352:14
#0565b:5343
#05658:00230000
#0555a:14
#05952:14
#06052:0014
#0635a:14
#06552:00140000
#06554:54
#06858:0054
#06854:00000054
#0685a:0000000000240000
#06852:0000000000000024
#02056:6313
#02052:00630000
#04256:0013
#04457:0013
#0455a:00140014
#04654:00140014
#04758:00140014
#04852:00140014
#03358:63
#03455:53
#03558:63
#0355b:00230000
#03655:53
#03652:00230000
#0145a:0014
#01652:0014
#02252:0014
#0265a:0014
#001380:13
#0013b0:0033
#002380:23
#002351:13
#002321:0033
#003351:23
#0033b0:13
#003380:0033
#0043b0:23
#004321:13
#004351:0033
#005321:23
#005380:13
#0053b0:0033
#006380:23
#006351:13
#006321:0033
#007351:23
#0073b0:13
#007380:0033
#0083b0:23
#008321:13
#008351:0033
#009321:23
#018371:1323
#018391:0033003300000000
#0183b1:00330000
#020361:1323
#020341:0033003300000000
#020321:00330000
#029381:13
#0303b1:23
#030350:13
#031320:23
#0313b1:13
#032381:23
#032320:13
#033350:23
#033381:13
#0333b1:00332300
#034351:13
#034321:00332300
#035381:1323
#0353b1:00330000
#036351:1323
#036321:00330000
#0523b1:13
#052381:00003300330033003434343424000000
#052320:13
#052350:0033333300000000
#052340:00000000000000003434343424000000
#054320:1323
#054340:0033003300000000
#054350:00330000
#0563b0:1323
#056390:0033003300000000
#056380:00330000
#065340:14
#065320:00240000
#068380:00001424
#0683a0:0000000000340000
#068341:00000014
#068321:0000000000000034
#069341:24
#042920:13
#042960:000000000000000000000000000000000000000000000000000000000000000000000000000000000000000000000000000000000000000000000000000000000000000000000000000000000000000000000000000000000000000000000000000000000000000000000000000000000000000000000000000000000000000000000000000000000000000000000000000000000000000000000000000000000000000000000000000000000000000000000000000000000000000000000000000000000000000000000000000000000000000000000000000000000000000000000000000000000000000000000000000000000000000000000000000000000000000000000000000000000000000000000000000000000000000000000000000000000000000000000000000000000000000000000000000000000000000000000000000000000000000000000000000000000000000000000000000000000000000000000000000000000000000000000000000000000000000000000000000000000000000000000000000000000000000000000000000000000000000000000000000000000000000000000000000000000000000000000000000000000000000000000000000000000000000000000000000000000000000000000000000000000000000000000000000000000000000000000000000000000000000000000000000000000000000000000000000000000000000000000000000000000000000000000000000000000000000000000000000000000000000000000000000000000000000000000000000000000000000000000000000000000000000000000000000000000000000000000000000000000000000000000000000000000000000000000000000000000000000000000000000000000000000000000000000000000000000000000000000000000000000000000000000000000000000000000000000000000000000000000000000000000000000000000000000000000000000000000000000000000000000000000000000000000000000000000000000000000000000000000000000000000000000000000000000000000000000000000000000000000000000000000000000000000000000000000000000000000000000000000000000000000000000000000000000000000000000000000000000000000000000000000000000000000000000000000000000000000000000000000000000000000000000000000000000000000000000000000000000000000000000000000000000000000000000000000000000000000000000000005353230000000000000000000000000000000000000000000000000000000000000000000000000000000000000000000000000000000000000000000000000000000000000000000000000000000000000000000000000000000000000000000000000000000000000000000000000000000000000000000000000000000000000000000000000000000000000000000000000000000000000000000000000000000000000000000000000000000000000000000000000000000000000000000000000000000000000000000000000000000000000000000000000000000000000000000000000000000000000000000000000000000000000000000000000000000000000000000000000000000000000000000000000000000000000000000000000000000000000000000000000000000000000000000000000000000000000000000000000000000000000000000000000000000000000000000000000000000000000000000000000000000000000000000000000000000000000000000000000000000000000000000000000000000000000000000000000000000000000000000000000000000000000000000000000000000000000000000000000000000000000000000000000000000000000000000000000000000000000000000000000000000000000000000000000000000000000000000000000000000000000000000000000000000000000000000000000000000000000000000000000000000000000000000000000000000000000000000000000000000000000000000000000000000000000000000000000000000000000000000000000000000000000000000000000000000000000000000000000000000000000000000000000000000000000000000000000000000000000000000000000000000000000000000000000000000000000000000000000000000000000000000000000000000000000000000000000000000000000000000000000000000000000000000000000000000000000000000000000000000000000000000000000000000000000000000000000000000000000000000000000000000000000000000000000000000000000000000000000000000000000000000000000000000000000000000000000000000000000000000000000000000000000000000000000000000000000000000000000000000000000000000000000000000000000000000000000000000000000000000000000000000000000000000000000000000000000000000000000000000000000000000000000000000000000000000000000000000000000000000000
#0449b0:13
#044970:000000000000000000000000000000000000000000000000000000000000000000000000000000000000000000000000000000000000000000000000000000000000000000000000000000000000000000000000000000000000000000000000000000000000000000000000000000000000000000000000000000000000000000000000000000000000000000000000000000000000000000000000000000000000000000000000000000000000000000000000000000000000000000000000000000000000000000000000000000000000000000000000000000000000000000000000000000000000000000000000000000000000000000000000000000000000000000000000000000000000000000000000000000000000000000000000000000000000000000000000000000000000000000000000000000000000000000000000000000000000000000000000000000000000000000000000000000000000000000000000000000000000000000000000000000000000000000000000000000000000000000000000000000000000000000000000000000000000000000000000000000000000000000000000000000000000000000000000000000000000000000000000000000000000000000000000000000000000000000000000000000000000000000000000000000000000000000000000000000000000000000000000000000000000000000000000000000000000000000000000000000000000000000000000000000000000000000000000000000000000000000000000000000000000000000000000000000000000000000000000000000000000000000000000000000000000000000000000000000000000000000000000000000000000000000000000000000000000000000000000000000000000000000000000000000000000000000000000000000000000000000000000000000000000000000000000000000000000000000000000000000000000000000000000000000000000000000000000000000000000000000000000000000000000000000000000000000000000000000000000000000000000000000000000000000000000000000000000000000000000000000000000000000000000000000000000000000000000000000000000000000000000000000000000000000000000000000000000000000000000000000000000000000000000000000000000000000000000000000000000000000000000000000000000000000000000000000000000000000000000000000000000000000000000000000000000000000000000000000005353230000000000000000000000000000000000000000000000000000000000000000000000000000000000000000000000000000000000000000000000000000000000000000000000000000000000000000000000000000000000000000000000000000000000000000000000000000000000000000000000000000000000000000000000000000000000000000000000000000000000000000000000000000000000000000000000000000000000000000000000000000000000000000000000000000000000000000000000000000000000000000000000000000000000000000000000000000000000000000000000000000000000000000000000000000000000000000000000000000000000000000000000000000000000000000000000000000000000000000000000000000000000000000000000000000000000000000000000000000000000000000000000000000000000000000000000000000000000000000000000000000000000000000000000000000000000000000000000000000000000000000000000000000000000000000000000000000000000000000000000000000000000000000000000000000000000000000000000000000000000000000000000000000000000000000000000000000000000000000000000000000000000000000000000000000000000000000000000000000000000000000000000000000000000000000000000000000000000000000000000000000000000000000000000000000000000000000000000000000000000000000000000000000000000000000000000000000000000000000000000000000000000000000000000000000000000000000000000000000000000000000000000000000000000000000000000000000000000000000000000000000000000000000000000000000000000000000000000000000000000000000000000000000000000000000000000000000000000000000000000000000000000000000000000000000000000000000000000000000000000000000000000000000000000000000000000000000000000000000000000000000000000000000000000000000000000000000000000000000000000000000000000000000000000000000000000000000000000000000000000000000000000000000000000000000000000000000000000000000000000000000000000000000000000000000000000000000000000000000000000000000000000000000000000000000000000000000000000000000000000000000000000000000000000000000000000000000000000000000000000
