This file was generated by Ched 2.7.0.0.
#TITLE ""
#ARTIST ""
#DESIGNER ""
#DIFFICULTY 0
#PLAYLEVEL
#SONGID ""
#WAVE ""
#WAVEOFFSET 0
#JACKET ""
#REQUEST "ticks_per_beat 480"
#00002: 4
#BPM01: 198
#BPM02: 280
#BPM03: 216
#BPM04: 317
#00008: 01
#00908: 02
#01508: 03
#05608: 03
#05008: 04
#TIL00: ""
#VOLUME: ""
#HISPEED 00
#MEASUREHS 00
#00312:00140014
#00310:41
#00418:00140014
#00514:00140014
#0061a:00140000
#00614:0014
#00618:00000014
#00912:14
#00913:00000014
#01014:0014
#01212:14
#01213:00000014
#01113:00140000
#01314:0014
#01413:00140000
#02618:00140014
#02614:0014
#02612:26
#02610:41
#0281a:14
#02814:00140014
#02818:0014
#03012:14
#0311a:14
#03318:0014
#03314:00000014
#03414:00140014
#03418:2614
#03612:14
#03618:00140014
#03614:0014
#04518:0013
#04715:0013
#05015:00000016
#05018:26
#05312:16
#05315:00000016
#05914:0014
#07018:0014
#07014:00000014
#07518:00140014
#07514:0014
#0751f:21
#03214:14
#03212:0014
#07814:0014
#07818:00000014
#07918:00140014
#07914:0014
#07912:26
#0811a:14
#08114:00140014
#08118:0014
#08313:14
#07718:14
#0771a:0014
#03818:16
#08718:0014
#08714:00000014
#08712:26
#08912:14
#08918:00140014
#08914:0014
#09312:0014
#09314:24
#09418:0014
#09414:00000014
#09518:16000014
#09514:0014
#09913:14
#09919:14
#02215:16
#0651f:11
#0011a:24
#02514:0024
#02518:00000024
#04018:26
#04215:26
#06713:25
#08419:24
#08513:24
#08519:24
#03912:26
#10113:24
#10119:24
#10414:28
#10019:24
#10013:24
#07412:00343434
#00218:00000036
#01510:41
#04410:41
#06010:41
#07610:41
#02418:5454545454545454
#05712:54
#00358:16
#00952:24
#00953:00000064
#01054:0024
#01153:00640000
#01252:24
#01253:00000064
#01354:0024
#01453:00640000
#02652:16
#02752:0014
#0295a:0014
#03052:64
#0315a:54
#03458:16
#0355a:0014
#03752:0014
#06558:14
#07552:16
#07652:0014
#03254:64
#03252:0024
#07758:54
#0775a:0024
#07952:16
#08052:0014
#0825a:0014
#07858:14
#03354:14
#09354:54
#09352:0024
#09558:16
#09858:0014
#10253:14
#10259:14
#10454:18
#01652:14
#04158:16
#08653:14
#08659:14
#0013a0:1400003400340034
#0023a0:00340000
#002380:00000036
#003380:26
#007320:1424
#0083a0:1424
#009320:14
#009330:00000034
#010340:0034
#011330:00340000
#012320:34
#012330:00000034
#013340:0034
#014330:00340000
#015320:34
#016320:24
#017380:14
#018380:34
#0193a0:24
#020340:14
#021320:24
#027320:1424
#0293a0:1424
#030320:14
#030340:0024
#0313a0:14
#031380:0024
#032340:14
#032320:0054
#033340:24
#0353a0:1424
#037320:1424
#040380:163636363636
#041380:26
#044350:13
#045350:23
#046380:13
#047380:23
#048350:13
#049350:23
#051320:0016
#052320:00260000
#054390:0015
#055390:00250000
#056320:14343434
#057320:24
#060380:14
#0613a0:34
#062380:36
#063380:36
#064380:34
#065380:24
#067330:15555555
#067320:0055005500550055
#068330:55555555
#068320:0055005500550055
#069330:55555555
#069320:0055005500550055
#070330:25
#0713a0:1424
#072340:1424
#073380:1424
#074320:14343434
#075320:26
#076320:1424
#077380:14
#0773a0:0054
#078380:24
#080320:1424
#0823a0:1424
#085330:143434343434
#086330:24
#085391:143434343434
#086391:24
#0883a1:1424
#090321:1424
#0913a1:14
#091381:0034
#0923a1:3424
#093341:14
#093321:0054
#094341:24
#096321:1424
#097381:14
#0973a1:0034
#098381:3424
#101331:143434343434
#102331:24
#101390:143434343434
#102390:24
#024980:1400000000000024
