This file was generated by Ched 2.7.0.0.
#TITLE ""
#ARTIST ""
#DESIGNER ""
#DIFFICULTY 0
#PLAYLEVEL
#SONGID ""
#WAVE ""
#WAVEOFFSET 0
#JACKET ""
#REQUEST "ticks_per_beat 480"
#00002: 4
#BPM01: 138
#00008: 01
#TIL00: ""
#VOLUME: ""
#HISPEED 00
#MEASUREHS 00
#00214:14
#0011a:14
#00318:14
#00412:14
#00614:14
#0051a:14
#00510:41
#00718:14
#00812:14
#01112:14
#0121a:14
#01314:14
#01418:14
#01410:41
#01512:14
#0161a:14
#01714:14
#02012:14
#02118:14
#0211f:11
#0241a:14
#02514:14
#02618:14
#02712:14
#02812:0016
#02818:26
#0281f:21
#02918:16
#02912:0016
#02910:41
#03118:16
#03218:0016
#03212:26
#03312:16
#03318:0016
#03512:16
#03612:0016
#03618:26
#03812:16
#03818:0016
#03810:41
#04012:0016
#04018:26
#04118:16
#04112:0016
#04312:16
#0461a:14
#04614:0014
#04610:41
#0471a:14
#04812:14
#04818:0014
#04912:14
#0501a:14
#05014:0014
#0511a:14
#05212:14
#05218:0014
#05312:14
#05412:0016
#05418:26
#05410:41
#05518:1616
#05618:0016
#05612:26
#05712:1616
#05812:0016
#05818:26
#06018:0016
#06012:26
#06218:14
#06314:14
#06418:14
#009380:14
#010380:24
#018380:1400000000000034
#019380:0034002400000000
#022340:1400000000000034
#023340:0034002400000000
#030380:1626
#034320:1626
#037380:1626
#039320:1626
#042380:1626
#043380:0016
#044380:26
#044320:0016
#045320:26
#059380:1626
#061320:1626
#065340:1424
