This file was generated by Ched 2.7.0.0.
#TITLE ""
#ARTIST ""
#DESIGNER ""
#DIFFICULTY 0
#PLAYLEVEL
#SONGID ""
#WAVE ""
#WAVEOFFSET 0
#JACKET ""
#REQUEST "ticks_per_beat 480"
#00002: 4
#BPM01: 138
#00008: 01
#TIL00: ""
#VOLUME: ""
#HISPEED 00
#MEASUREHS 00
#0021b:2313
#00215:0000001300001300
#00218:0000130000000013
#00212:1323
#00418:0000000000140000
#00412:23000014
#0041a:00000014
#00417:23
#00419:00230000
#0041b:0023
#00414:00230000
#00416:0023
#00818:00240013
#00815:00000013
#0081a:24
#00816:2324
#00814:00230000
#00812:0023
#0091b:1313
#00912:1313
#00918:00140000
#00914:00140000
#0101a:00120012
#01014:00120012
#01018:0000001212120012
#01016:00000000000000120012000000000012
#01118:1212001212120012
#0111a:00120012
#01114:00120012
#01116:00000000000000120012000000000012
#01218:1200000012120012
#01216:00000000000000000012000000000012
#0121a:00000012
#01214:00520012
#01213:00000000000000000000000000000000005200000000000000000000000000000000000000000000000000000000000000000000000000000000000000000000
#01318:125252520000000000120000
#01316:000000000000000000000000120000005200000052000000520000000000000000000000000000120000000000120000
#0131a:0000000000000024
#01418:12000012000000001200000000000012
#01416:00001200000000120012000000001200
#01414:00120000
#0141a:0000001200120000
#0141b:00000012
#01413:00000012
#01410:41
#01513:1300001300131300
#01518:00001300000000130013000000000013
#01515:00000013000000001300000000001300
#0151a:00130013
#01612:14140014
#01614:0014000000000000
#01617:00000014000000000000000000001400
#0161a:0000001400141400
#01615:00000000000000140014000000000014
#01618:0014
#0171c:12
#01718:00005213
#01715:0000000000000013
#0171b:0052000000000000
#0171a:00520000
#01719:0000005200000000
#01812:1300000000130000
#01817:1300000000130000
#0181b:0000131300000013
#01816:0000001300000013
#01814:00000013
#01912:0013000000130000
#0191b:0000001300000000
#01915:00000013
#01918:0000000000000013
#02112:1313
#02115:0013001300000013
#02118:00130013
#0211b:0013
#0211f:11
#0201b:13
#02212:1300001300130023
#02215:00130000
#0221b:2300000000000013
#02219:0000002300000000
#02217:0000000000230000
#0231b:0013001300130000
#02318:00130013
#02315:0000000000000013
#02314:0023000000000000
#02316:0000002300000000
#02412:13000013
#0241b:13130013
#02418:00000000000013001300130000000013
#02415:00000000000000130013000000001300
#02512:13000013
#0251b:0013000000001300
#02518:00000000130000130013000000001300
#02515:00000000000013001300130000000013
#02618:13000023000023000000001300130013
#02612:00130013
#0261b:0013
#02615:00001300000000130000230000002300
#02718:000000006400000000130000
#02715:0000000000000013
#02712:24
#0271a:00240000
#02714:006400000000000000000000
#02716:000064000064000000000000
#03115:0000000000130013
#03118:00240013
#0311a:24
#03116:2424
#03114:00240000
#03112:0024
#03215:00130000
#03218:2400001300000000
#03216:00000014
#03214:0000000024000014
#0321a:0000000024240000
#03212:2424000000000000
#03518:00000013
#03515:0000000000000013
#03516:24242400
#03512:24
#03615:0000130000000013
#03618:0000001300001300
#0361a:2424000000000000
#03612:0000000024240000
#03715:0000130000000013
#03718:2424001300001300
#03714:0000000024240000
#03815:0000130000000013
#03818:0000001300001300
#03816:2424000024240000
#03810:41
#03912:14241424
#03915:0014000000140000
#0391a:24142414
#03917:0000001400000014
#04016:1414000014140000
#04014:0000140000000014
#04018:0000001400001400
#0401a:2424000000000000
#04012:0000000024240000
#04116:1414
#04114:0014000000240014
#04118:0024001400140000
#04112:00142400
#0411a:24000014
#04216:1424000014240000
#04212:0014140024000014
#0421a:2400001400141400
#04316:24000014
#0431a:2424
#04312:00240000
#04416:00150000
#04414:00000016
#04412:25
#04418:0026
#04515:00000013
#04518:0000000000000013
#04512:26
#04612:2400130013000013
#04614:0000001400000000
#0461a:0000000000130000
#04616:00000013
#0461b:13
#04617:0013
#04610:41
#04715:13130000
#04718:0013001300000014
#04716:0013
#04712:0000000000130000
#0471b:13001313
#04812:0000130013000013
#04816:13
#04814:0000001400000000
#0481b:1300000000130000
#04817:0013
#04815:00000013
#04918:00140000
#04916:0014
#0491b:00000013
#04915:0000000000000013
#0491a:14
#04914:00130000
#04912:00001313
#05018:13130000
#05015:0013000000000000
#05012:0000001300130013
#05014:00000014
#05017:0000000000000013
#0501b:0000001300000000
#05112:0013000013000000
#0511b:0000001313000000
#05118:0000000000130013
#05115:00000013
#0521b:1300000000000013
#05218:0013000000001300
#05215:0000130000130000
#05212:2424001313000000
#0521a:0000000024240000
#05318:0013001300000000
#05315:00130000
#0531b:1313
#05312:1313
#05415:0000130000000013
#05418:0000001300001300
#0541b:13
#05412:2413
#0541a:0024
#05410:41
#0551b:1313
#05518:0013000000000000
#05512:2400130024000013
#05515:0000001300001300
#0551a:00240000
#05615:1300001300130000
#05618:00130013
#0561b:0000000013000013
#0561a:24
#05612:0024
#05716:14141400
#0571a:0014001400000000
#05718:00000013
#05715:0000000000000013
#05712:24242400
#05818:0000130000000013
#05815:0000001300001300
#05812:1324
#0581b:0013
#0581a:24
#05912:13241300
#05915:0013000000000000
#0591b:0000130000000013
#05918:0000001300001300
#0591a:2424
#06018:1300001300130000
#06015:00130013
#06012:2400000013000013
#0601a:0024
#06116:1414
#06114:0014001400000000
#06112:00140014
#0611a:24242400
#0621b:12
#06219:0012000000000000
#06217:00120012
#06213:0012
#06215:0000000000120000
#0631a:12
#06318:0012000000001200
#06316:0000120000120000
#06314:0012
#0641b:12
#06419:0012000000000000
#06417:00120012
#06413:0012
#06415:0000000000120000
#0651a:1212
#06518:0012000000000012
#06516:00120012
#06514:0000001200120000
#00015:00000013
#00018:0000000000000013
#00115:1300001300001300
#00118:0000130013000013
#0011b:23
#00112:0023
#00312:1323
#00318:00130000
#00315:0000001300001300
#0031b:2313
#00612:2413
#00618:0000001300001300
#00615:0000130000000013
#0061b:13
#0061a:0024
#00517:13
#00515:0000130000000013
#00518:0000001300001300
#00516:0013
#00512:24
#0051a:0024
#00510:41
#0071b:13
#00715:00130000
#00718:0000001300001300
#00712:2413
#0071a:0024
#02815:00130000
#02818:0000001300000000
#02816:00000014
#02814:0000000000000014
#0281a:2424
#02812:2424
#0281f:21
#02916:0000140000000014
#02918:0000001400000000
#0291a:24002414
#02912:2424
#02910:41
#03012:1414
#0301a:24141414
#03016:0000001400140014
#03316:00140014
#03318:2400001400000000
#03314:0000000024000014
#03312:2424000000000000
#0331a:0000000024240000
#0341a:1414
#03412:24141414
#03416:0000001400140014
#0015b:43
#00152:0033
#0025b:4353
#00252:0033
#0095b:5353
#00958:00240000
#00954:00240000
#00952:5353
#00858:00140023
#0085a:14
#00856:0014
#01058:13
#01055:13
#0135a:0000000000000014
#01852:13
#0185b:0000001300000053
#01856:0000000000000013
#01952:0053000000000000
#01957:0013000000000000
#01956:0000001300000000
#0195b:0000001300000000
#02055:00130013
#0205b:1313
#0215b:1313
#02152:0013
#0225b:13
#02259:0000001300000000
#02257:0000000000130000
#02252:0000000000000013
#02354:0013000000000000
#02356:0000001300000000
#02452:53
#0245b:13
#02552:13
#02658:13
#0395a:1414
#03952:00140014
#0405a:0014000000000000
#04052:0000000000140000
#04158:0014000000000000
#04154:0000000000140000
#04256:0014000000140000
#0435a:5454
#04356:14141424
#04352:00640000
#0445a:44
#04456:00250000
#04452:6535
#04454:00000026
#04458:0056
#04558:46
#04552:36
#04958:00140000
#04956:0014
#0495a:14
#0465b:53
#04652:14
#04752:0000000000230000
#04756:0053
#0485b:5300000000230000
#04857:0053
#04855:00000063
#04852:0000000000000023
#0505b:0000005300000000
#05057:0000000000000053
#05152:0053000000000000
#0535b:0053
#05358:00000013
#05352:0063
#05355:00000013
#0545b:53
#05452:3463
#0545a:0044
#0555b:0053
#05552:3434
#0555a:00440000
#05655:53
#05752:0014
#05756:0014
#05852:6334
#0585b:0053
#0585a:44
#05952:00346300
#0595a:4444
#06058:63
#0615a:0014
#06152:00000024
#06156:0054
#0035b:4353
#00352:5333
#00355:00000053
#00452:13
#00454:00130000
#00456:0013
#00652:3463
#0065a:0044
#0075b:63
#00752:3463
#00758:00000063
#0075a:0044
#00552:34
#0055a:0044
#0285a:14
#02852:0014
#0295a:14
#02952:0014
#03052:5454
#03056:0000000000240024
#0305a:00000054
#0315a:44
#03158:00440000
#03156:0044
#03258:44
#03254:0034
#03358:44
#03354:0034
#03552:3414
#0355a:00140000
#03556:54641400
#0345a:6464
#03452:00000064
#03456:0000000000240024
#0023b0:0013
#002380:00000023
#003320:13
#003350:00230000
#0033b0:0013
#003380:00000023
#003351:00000013
#004321:23
#006321:0013
#006351:00000023
#0073b1:13
#007381:00230000
#007321:0013
#007351:00000023
#007380:00000013
#0083a0:24
#008380:00000013
#0093b0:3333
#009380:00540033
#010380:23
#009321:1333
#009341:00540000
#009351:00000033
#010351:23
#017351:0000000000000000000000000000000013535353530000002300000000000000
#017341:00000000000000000000000000000000000000000000000000000000000000000053005300530053000000000000000000000000000000000000000000000000
#0183b1:0000000000000013
#019371:0023000000000000
#019320:0013000000000000
#019360:0000002300000000
#020320:13
#020350:00530000230000000000000000000000
#020381:00130000
#0203b1:00000000005300002300000000000000
#020320:0013
#020350:00000000000000000053000023000000
#020381:00000013
#0203b1:00000000000000000000000000530000
#0213b1:23
#024321:13
#024351:00230000
#027321:0000000000000000000000000000000014545454340000002400000000000000
#027331:00000000000000000000000000000000000000000000000000000000000000000054005400540054000000000000000000000000000000000000000000000000
#030321:14
#030361:00240000
#030321:00001424
#030361:0000000000540000
#0303a0:00000014
#030360:0000000000000054
#0313a0:24
#0343a0:14
#034360:00240000
#0343a0:00001424
#034360:0000000000540000
#034321:00000014
#034361:0000000000000054
#035321:24
#035360:14
#0353a0:00240000
#035361:00140000
#035321:0024
#036321:1424000000000000
#0363a1:0000000014240000
#037321:1424000000000000
#0373a1:0000000014240000
#038321:1424000000000000
#0383a1:0000000014240000
#0433a1:14
#043361:00240000
#043320:00140000
#043360:0024
#0433a1:0014
#043361:00000054
#0443a1:24
#044320:1525
#044360:00550000
#044381:0016
#044341:00000056
#045381:26
#0463b1:13
#046371:00230000
#047361:00001323
#047321:0000000000530000
#0483b1:13
#048371:00230000
#048371:0013
#0483b1:0000000000530000
#048381:00000023
#048350:00000013
#048320:0000000000000053
#049360:23
#0503b0:0000001300000000
#050370:0000000000230000
#050370:0000000000000013
#0513b0:0023000000000000
#051321:0013000000000000
#051361:0000002300000000
#0533b1:0013
#053381:00000023
#053320:0013
#053350:00000023
#0543b0:13
#054380:00230000
#054320:0013
#054350:00000023
#0553b0:0013
#055380:00000023
#056350:13
#056320:00230000
#058320:13
#058350:00230000
#0583b0:0013
#058380:00000023
#059320:0013
#059350:00000023
#060380:13
#0603b0:00230000
#061360:0014
#061320:00000054
#062360:24
#012940:00120000
#012930:00000000000000000000000000000000002200000000000000000000000000000000000000000000000000000000000000000000000000000000000000000000
#013980:120000000000000000000000000000000000000000000000000000000000000000000000000000000000000000000000000000000000000000000000000000000000000000000000000000000000000000000000000000000000000000000000000000000000000000000000000000000000000000000000000000000000000000000000000000000000000000000000000000000000000000000000000000000000000000000000000000000000000000000000000000000000000000000000000000000000000000000000000000000000000000000000000000000000000000000000000000000000000000000052220000000000000000000000000000000000000000000000000000000000000000000000000000000000000000000000000000000000000000000000000000000000000000000000000000000000000000000000000000000000000000000000000000000000000000000000000000000000000000000000000000000000000000000000000000000000000000000000000000000000000000000000000000000000000000000000000000000000000000000000000000000000000000000000000000000000000000000000000000000000000000000000000000000000000000000000000000000000000000000000000000000000000000000000000000000000000000000000000000000000000000000000000000000000000000000000000000000000000000000000000000000000000000000000000000000000000000000000000000000000000000000000000000000000000000000000000000000000000000000000000000000000000000000000000000000000000000000000000000000000000000000000000000000000000000000000000000000000000000000000000000000000000000000000000000000000000000000000000000000000000000000000000000000000000000000000000000000000000000000000000000000000000000000000000000000000000000000000000000000000000000000000000000000000000000000000000000000000000000000000000000000000000000000000000000000000000000000000000000000000000000000000000000000000000000000000000000000000000000000000000000000000000000000000000000000000000000000000000000000000000000000000000000000000000000000000000000000000000000000000000000000000000000000000000000000000000000000000000000000000000000000000000000000000000000000000000000000000000000000000
#013961:000000000000000000000000000000000000000000000000000000000000000000000000000000000000000000000000000000000000000000000000000000000000000000000000000000000000000000000000000000000000000000000000000000000000000000000000000000000000000000000000000000000000000000000000000000000000000000000000000000000000000000000000000000000000000000000000000000000000000000000000000000000000000000000000000000000000000000000000000000000000000000000000000000000000000000000000000000000000000000000000120000000000000000000000000000000000000000000000000000000000000000000000000000000000000000000000000000000000000000000000000000000000000000000000000000000000000000000000000000000000000000000000000000000000000000000000000000000000000000000000000000000000000000000000000000000000000000000000000000000000000000000000000000000000000000000000000000000000000000000000000000000000000000000000000000000000000000000000000000000000000000000000000000000000000000000000000000000000000000000052220000000000000000000000000000000000000000000000000000000000000000000000000000000000000000000000000000000000000000000000000000000000000000000000000000000000000000000000000000000000000000000000000000000000000000000000000000000000000000000000000000000000000000000000000000000000000000000000000000000000000000000000000000000000000000000000000000000000000000000000000000000000000000000000000000000000000000000000000000000000000000000000000000000000000000000000000000000000000000000000000000000000000000000000000000000000000000000000000000000000000000000000000000000000000000000000000000000000000000000000000000000000000000000000000000000000000000000000000000000000000000000000000000000000000000000000000000000000000000000000000000000000000000000000000000000000000000000000000000000000000000000000000000000000000000000000000000000000000000000000000000000000000000000000000000000000000000000000000000000000000000000000000000000000000000000000000000000000000000000000
#0179c1:12
#017981:000000000000000000000000000000000000000000000000000000000000000000000000000000000000000000000000000000000000000000000000000000000000000000000000000000000000000000000000000000000000000000000000000000000000000000000000000000000000000000000000000000000000000000000000000000000000000000000000000000000000000000000000000000000000000000000000000000000000000000000000000000000000000000000052220000000000000000000000000000000000000000000000000000000000000000000000000000000000000000000000000000000000000000000000000000000000000000000000000000000000000000000000000000000000000000000000000000000000000000000000000000000000000000000000000000000000000000000000000000000000000000000000000000000000000000000000000000000000000000000000000000000000000000000000000000000000000000000000
#027921:14
#027961:002400000000
#0279a1:00140000
#027961:000000000024000000000000
