This file was generated by Ched 2.7.0.0.
#TITLE ""
#ARTIST ""
#DESIGNER ""
#DIFFICULTY 0
#PLAYLEVEL
#SONGID ""
#WAVE ""
#WAVEOFFSET 0
#JACKET ""
#REQUEST "ticks_per_beat 480"
#00002: 4
#BPM01: 138
#00008: 01
#TIL00: ""
#VOLUME: ""
#HISPEED 00
#MEASUREHS 00
#01715:0000130000000013
#0171b:13
#01718:0013000013000000
#01712:0000001300000000
#01719:0000000000130000
#0181b:13
#01812:0000130000130000
#01818:0000001300001300
#01815:0000000000000013
#0191b:0000001300000000
#01918:0013000000001300
#01915:0000000000000013
#01912:0000000000130000
#02112:0013000000000000
#02118:00130013
#02115:0000001300000013
#0211b:0013
#0211f:11
#02212:1300000000000013
#02215:0000001300000000
#02218:00130000
#0221b:0000000000130000
#0231b:0000000000130000
#02315:00000013
#02318:0000000000000013
#02412:13
#02418:0000000000000013
#02612:1300000000130000
#0261b:0013
#02618:00000023000000000000000013000000
#02615:00000000000023000000000000130000
#02718:000000006400000000000000240000000000000000130000
#02715:00000013
#0271a:24
#02714:00240000
#02719:006400000000000000000000
#02713:006400
#02712:000000000064000000000000
#03118:00000013
#03115:0000000000000013
#0311a:24
#03116:00240000
#03112:0024
#03215:0000130000000013
#03218:0000001300000000
#0321a:2424000000001300
#03212:0000000024240000
#03515:0000000000001313
#03512:24
#03516:00240000
#0351a:0024
#03618:0000131300000000
#03615:0000000000001313
#0361a:2400000000240000
#03612:0024
#03718:0000131300000000
#03715:0000000000001313
#0371a:2400000000240000
#03712:0024000024000000
#03818:0000131300000000
#03815:0000000000001313
#0381a:2400000000240000
#03812:0024000024000000
#03810:41
#03913:0014000000000000
#03914:0000001400000000
#03915:0000000000140000
#03917:24
#03918:00240000
#03919:0024
#0391a:00000024
#04515:00000013
#04518:0000000000000013
#04512:25
#04519:25
#04618:0000001300130000
#04615:00000013
#0461b:0000000000000013
#04612:1313
#04610:41
#04718:0013001300000013
#04715:00130000
#04712:1313
#04918:1300000000000013
#0491b:00130000
#04915:00000013
#04815:0000001300000000
#0481b:13000013
#04818:0013
#05015:13130013
#05018:0013001300000000
#0501b:0000000000000013
#05115:0013000000130000
#0511b:0013
#05118:00000013
#05112:0000000000000013
#0521b:13
#05215:0013000000000013
#05218:00131313
#05212:0000001300130000
#05318:0013000013000000
#05315:00130000
#05312:0000001300000000
#0531b:13
#05418:0000130000000013
#05415:0000001300001300
#05412:24
#0541a:0024
#05410:41
#0551b:0013000000000000
#05518:0000001300001300
#05515:0000000000000013
#05512:2424
#05514:00240000
#05615:00130013
#05618:0000001300130000
#05612:0000000024000013
#0561a:24
#05716:0014001400000000
#05718:00000013
#05715:0000000000000013
#0571a:2424
#05712:00240000
#06214:0012000000000000
#06215:00120000
#06213:12
#06219:0012
#06218:0000000000120000
#06217:00000012
#06514:1212
#06518:0012000000120000
#06516:00120012
#0651a:0000001200000012
#00015:00000013
#00018:0000000000000013
#00315:0000001300000000
#00318:00130013
#0031b:0013
#00312:23
#02815:0000130000000013
#02818:0000001300001300
#0281a:24
#02812:0024
#0281f:21
#02915:0000001300001300
#02918:0000130000000013
#02912:24
#0291a:0024
#02910:41
#0331b:00000013
#03315:0000000000000013
#03313:00130000
#03318:0000001300000000
#03312:0000000024240000
#0331a:2424000000000000
#00118:0000130000000013
#00115:0000001300001300
#00112:23
#0011b:0023
#00218:0000130000000013
#00215:0000001300001300
#00212:23
#0021b:0023
#00418:00000013
#00415:0000000000000013
#00416:00240000
#00412:0024
#0041a:24
#00515:0000130000000013
#00518:0000001300001300
#0051b:23
#00512:0023
#00510:41
#00615:0000130000000013
#00618:0000001300001300
#0061b:23
#00612:0023
#00718:0000001300000000
#00712:0013
#00715:00130013
#0071b:23
#00812:24000013
#00816:00240000
#0081a:0024
#00918:13
#00915:0013
#0091b:00130000
#00912:00000013
#0101b:0013000000000000
#01018:0000130000000013
#01015:0000001300001300
#01012:0000000000130000
#0111b:0013000000000000
#01118:0000130000000013
#01115:0000001300001300
#01112:0000000000130000
#0121b:0000000000130000
#01218:00000013
#01215:0000530000000013
#01214:00000000000000000000000000000000005300000000000000000000000000000000000000000000000000000000000000000000000000000000000000000000
#0131a:13
#01315:00130013
#0131b:0013
#01318:000000005300000000000000000000130000000000000000
#01312:0000000000000013
#01319:005300000000000000000000
#01314:005300
#01313:000000000053000000000000
#0141b:1300001300000000
#01415:0013000000001300
#01418:0000130000130000
#01412:0000000013000013
#01410:41
#0151b:13
#01514:0013000000000000
#01517:00130000
#0151a:0000001300000000
#01512:0013
#01519:0000000000130000
#01516:00000013
#01513:0000000000000013
#0161b:13
#01613:0013000000000000
#01616:00130000
#01619:0000001300000000
#01612:0013
#0161a:0000000000130000
#01617:00000013
#01614:0000000000000013
#02518:0000000000000013
#02515:13
#02512:0000001300000000
#03012:14
#03018:00130000
#03015:0000001300000000
#0301a:0014
#03017:00000014
#03412:00131400
#03418:0000001300000000
#03415:00000014
#0341a:2424000000000000
#04016:1414000014140000
#0401a:0000000024240000
#04012:2424000000000000
#04117:1414000000000000
#04115:0000000014140000
#04113:2424000000000000
#04119:0000000024240000
#04216:1414000014140000
#04212:2424000000000000
#0421a:0000000024240000
#04412:16
#04418:0016
#05815:0000130000000013
#05818:0000001300001300
#0581a:24
#05812:0024
#05912:0013000000000000
#05915:0000001300001300
#05918:0000240000000013
#0591a:2424
#06018:00130013
#06015:0000001300130000
#0601b:0000000000000013
#06012:2424
#06116:0014001400000000
#06112:2424
#0611a:00240000
#06315:0012000000000000
#06316:00120000
#06314:12
#0631a:0012
#06319:0000000000120000
#06318:00000012
#06416:0012000000000000
#06417:00120000
#06415:12
#0641b:0012
#0641a:0000000000120000
#06419:00000012
#04312:26
#04315:00260000
#04318:0026
#0185b:13
#01858:0000001300000000
#01855:0000000000000013
#0195b:0000001300000000
#01958:0013000000000000
#0215b:0013
#02452:53
#02652:13
#03957:14
#03958:00140000
#03959:0014
#0395a:00000014
#0405a:0000000000140000
#04056:0014000000140000
#04052:0014000000000000
#04652:53
#04752:0063
#0485b:53000063
#04858:0063
#05058:0000005300000000
#0505b:0000000000000053
#05155:0053000000000000
#05358:0053
#0535b:00000013
#0575a:0014
#00856:00140000
#0085a:0014
#00852:14000053
#0285a:14
#02852:0014
#02952:14
#0295a:0014
#00152:13
#0015b:0013
#00252:13
#0025b:0013
#00352:13
#0035b:0053
#00358:00000023
#0055b:13
#00552:0013
#0065b:13
#00652:0013
#0075b:13
#00752:0063
#00755:00000023
#00456:00140000
#00452:0014
#0045a:14
#00958:53
#00955:0053
#0095b:00230000
#00952:00000023
#01055:13
#01759:0000000000230000
#01758:0053
#02252:0000000000000053
#02355:0000001300000000
#02552:0000002300000000
#02555:53
#03052:14
#0305a:0054
#03057:00000054
#0315a:14
#03156:00140000
#03152:0014
#03452:0064
#03455:00000054
#03552:14
#03556:00140000
#0355a:0014
#04352:16
#04355:00160000
#04358:0016
#04452:56
#04458:0066
#04559:15
#04552:15
#04958:63
#0495b:00230000
#05452:14
#0545a:0014
#05552:0014
#0565a:14
#0585a:14
#05852:0014
#0595a:0014
#06052:14
#06152:0014
#04157:0014000000000000
#04153:0014000000000000
#04155:0000000000140000
#04159:0000000000140000
#04256:0014000000140000
#04252:0014000000000000
#0425a:0000000000140000
#0033b0:0013
#003380:00000033
#0043a0:24
#007320:0013
#007350:00000033
#008320:24
#008320:00000013
#009350:23
#009381:1323
#0093b1:00530000
#009350:0013
#009320:00000053
#010350:23
#017380:00001323
#017390:0000000000530000
#0203b0:1333
#020380:00330033
#0213b0:23
#022320:0000000000000013
#023350:0033332300000000
#024320:13
#024350:0023
#025350:13000023
#025320:0000005300000000
#0303a0:0014
#030370:00000034
#0313a0:24
#034320:0014
#034350:00000034
#035320:24
#044320:16
#044350:00260000
#044380:0016
#044350:00000026
#046320:13
#046350:00230000
#047320:0013
#047350:00000023
#0483b0:13
#048380:00230000
#048380:0013
#0483b0:00000033
#049380:3323
#0493b0:00530000
#050380:0000001300000000
#0503b0:0000000000230000
#0503b0:0000000000000013
#051380:0023000000000000
#051351:0013000000000000
#051321:0000002300000000
#053381:0013
#0533b1:00000023
#012950:00130000
#012940:00000000000000000000000000000000002300000000000000000000000000000000000000000000000000000000000000000000000000000000000000000000
#0139a0:13
#013980:002300000000
#013950:00130000
#013930:000000000023000000000000
#0279a0:14
#027980:002400000000
#027940:00140000
#027920:000000000024000000000000
