This file was generated by Ched 2.7.0.0.
#TITLE ""
#ARTIST ""
#DESIGNER ""
#DIFFICULTY 0
#PLAYLEVEL
#SONGID ""
#WAVE ""
#WAVEOFFSET 0
#JACKET ""
#REQUEST "ticks_per_beat 480"
#00002: 4
#BPM01: 138
#00008: 01
#TIL00: ""
#VOLUME: ""
#HISPEED 00
#MEASUREHS 00
#00116:00140000
#00115:00000015
#00112:1623
#00118:0016
#0011b:23
#00217:00150000
#0021b:0013
#00215:00000013
#00218:0000000000000013
#00212:1624
#0021a:24
#00314:00150000
#00318:16000016
#00312:2516
#00319:0025
#0101b:12120012
#01013:12120012
#01018:0000001212120000
#01017:00001200000000120012000000000012
#01016:0000000000000012
#01116:12000000000000000000000000000012
#01117:0012000000000000
#0111b:00120012
#01113:00120012
#01115:0000000000000012
#01119:0000001212120000
#01118:00000000000000120012000000000000
#01218:00000000000000001200120000000012
#01217:00000000000000000012000000000000
#0121a:00000000000000000000000000000000005200000000000000000000000000000000000000000000000000000000000012000000000000000000000000000000
#01216:0000000000000012
#01214:00000000000000000000000000000000005200000000000000000000000000000000000000000000000000000000000012000000000000000000000000000000
#01215:12520000
#01219:00520000
#01314:15
#01318:000000000000000014000000000000000000120000240000
#01317:000000000000000000000000000000000000000013000000000000000000000000000000000000120000000000120000
#01313:001400000000000000000000
#01312:001300250000
#01319:00150000
#0131a:00000000000000000000000000000000000000000000000000000000000000000000000000000000000000000000000000000000000000000063000000000000
#01418:12000012000000120012000000000012
#01416:0012000012120012
#01414:00120000
#0141a:0000001200000000
#01413:00000012
#0141b:00000012
#01410:41
#01515:13000013000000130013000000000013
#01518:0013000013130013
#0151b:00130013
#01512:0000001300001300
#01618:14000014000000000000000000000014
#01614:0014000014140000
#01612:00140014
#0161a:0000001400001400
#01617:00000000000000140014000000000000
#01615:0000000000000014
#01814:13
#01817:0000121200121212
#0181a:0000001300000013
#01813:0000130000130000
#01819:13
#01916:00000012
#01918:0000000000000012
#01913:13
#01917:0012000000000000
#0191a:00130000
#01914:0000001300120000
#0191b:0000000000120000
#02112:13001313
#02115:0013001300130013
#02118:00000000130000130000001300000013
#0211b:23000000000000000013000000000000
#0211f:11
#02312:0024002400130000
#02319:00000013
#0231b:0052005200000013
#02317:0000520000130000
#02314:00000013
#02316:0000000000000013
#0241b:1300001300001300
#02418:00000000000000130000130000001300
#02415:00000000000000001300000000000013
#02412:00001300000000000013000013000000
#02416:13130000
#02417:0013000000000000
#02612:14
#02618:0013000000230023
#02615:00000023000023130000001300000013
#02613:00000000000000000013000000130000
#0261a:00141313
#02712:000000000022000000140000
#02716:000000000000220000000000000054000000000000140000
#0271c:22
#0271a:002200000000240000000000
#02718:000000002200000000000000005400000000000000000000
#02714:002200
#02719:000000000000000000000000000000000000000000000000005400000000000000000000000000000000000000000000
#02717:00000000000000000054000000000000
#03516:2400240024000012
#03518:00000000000000000000000000000000006400000000000000000000000000000000000000000000000000001200000000000000120000000000000012000000
#03515:0000000000131300
#0351a:2400000000000000006400000000000000000000000000000000000000000000
#03513:00000000000000000000000000000000000000000000000000000000000000000000000000000000005300000000000000530000000000000000000000000000
#03514:00640000000000000000000000000000000000000000000000000000000000000000000000000000000000000000000000000000000000000000000000000000
#03512:0064000000000000000000000000000000000000000000000000000000000000
#03612:1414000024240000
#0361a:2424000014141200
#03619:00000000000000000000000000000000000000000000000000520000000000000000000000000000000000000000000000000000000000001200000000000000
#03615:00000000000000000000000000000000000000000000000012000000000000000000000000000000000000000000000000000000000000000052000000000000
#03614:00120000
#03617:0000005200000052
#03912:14000000000013130000000000000000
#0391b:00001313000000000000131300000000
#03914:0000000000000013
#03919:0000000000000013
#03916:25250025
#03915:0025
#04512:00000013
#04514:0000000000000013
#04517:00525213
#04519:0000000000000013
#0461b:13130013
#04619:0000001300000000
#04614:0054000000000000000000000000000000000000240000000000000013000000
#04612:00130013
#04616:240000000000000000000000000000000000000000000000000000000000000000000000000000000000000000000000000000000000000000000000000000000000000000000000000000000000000000000000000000000000000000000000000000000000000000000000000000000000000000000000000000000000000000000000000000000000000000000000000000000000000000000000000000000000000000000000000000000000000000000000000000000000000000000000000000000000000000000000000000000000000000000000000000000000000000000000000000000000000000000000000000000000000000000000000000000000000000000000000000000000000000000000000000000000000000000000000000000000000000000000000000000000000000000000000000000000000000000000000000000000000000000000000000000000000000000000000000000000000000000000000000000000000000000000000000000000000000000000000000000000000000000000000000000000000000000000000000000000000000000000000000000000000000000000000000000000000000000000000000000000000000000000000000000000000000000000000000000000000000000000000000000000000000000000000000000000000000000000000000000000000000000000000000000000000000000000000000000000000000000000000000000000000000000000000000000000000000000000000000000000000000000000000000000000000000000000000000000000000000000000000000000000000000000000000000000000000000000000000000000000000000000000000000000000000000000000000000000000000000000000000000000000000000000000000000000000000000000000000000000000000000000000000000000000000000000000000000000000000000000000000000000000000000000000000000000000000000000000000000000000000000000000000000000000000000000000000000000000000000000000000000000000000000000000000000000000000000000000000000000000000000000000000000000000000000000000000000000000000000000000000000000000000000000000000000000000000000000000000000000000000000000000000000000000000000000000000000000000000000000000000000000000000000000000000000000000000000000000000000000000000000000000000000000000000000000000000000000000000000000074247400000000000000000000000000000000000000000000000000000000000000000000000000000000000000000000000000000000000000000000000000000000000000000000000000000000000000000000000000000000000000000000000000000000000000000000000000000000000000000000000000000000000000000000000000000000000000000000000000000000000000000000000000000000000000000000000000000000000000000000000000000000000000000000000000000000000000000000000000000000000000000000000000000000000000000000000000000000000000000000000000000000000000000000000000000000000000000000000000000000000000000000000000000000000000000000000000000000000000000000000000000000000000000000000000000000000000000000000000000000000000000000000000000000000000000000000000000000000000000000000000000000000000000000000000000000000000000000000000000000000000000000000000000000000000000000000000000000000000000000000000000000000000000000000000000000000000000000000000000000000000000000000000000000000000000000000000000000000000000000000000000000000000000000000000000000000000000000000000000000000000000000000000000000000000000000000000000000000000000000000000000000000000000000000000000000000000000000000000000000000000000000000000000000000000000000000000000000000000000000000000000000000000000000000000000000000000000000000000000000000000000000000000000000000000000000000000000000000000000000000000000000000000000000000000000000000000000000000000000000000000000000000000000000000000000000000000000000000000000000000000000000000000000000000000000000000000000000000000000000000000000000000000000000000000000000000000000000000000000000000000000000000000000000000000000000000000000000000000000000000000000000000000000000000000000000000000000000000000000000000000000000000000000000000000000000000000000000000000000000000000000000000000000000000000000000000000000000000000000000000000000000000000000000000000000000000000000000000000000000000000000000000000000000000000000000000000000000000000000074
#0461a:0024000000000000
#04610:41
#04615:00540000000000000000000000000000000000000000000000000000000000000000000000000000000000000000000000000000000000000000000000000000
#04912:00140000
#0491a:1414
#04915:00000013
#04918:0000000000000013
#04916:00242400
#05018:0013000000001300
#05015:00130000
#05017:0000001300000013
#05012:2424001300000000
#05014:0000000000000013
#0501b:13
#0501a:0000000024240000
#05118:0000001300000013
#05112:2424000013000000
#05115:00130000
#05114:0000000000130000
#05116:00000013
#0511a:0000000024240000
#0521b:13
#05219:0013001200000000
#05217:00130000
#05215:0000001300000012
#05212:2424000013000000
#05214:0000120000130000
#05216:00000013
#05218:0000000000000013
#0521a:0000000024241200
#05318:0013001300000000
#0531b:13131300
#05312:1313
#05315:0013001300000000
#05316:000000000000000000000000000000000000000000000000000000000000000000000000000000000000000000000000000000000000000000000000000000000000000000000000000000000000000000000000000000000000000000000000000000000000000000000000000000000000000000000000000000000000000000000000000000000000000000000000000000000000000000000000000000000000000000000000000000000000000000000000000000000000000000000000000000000000000000000000000000000000000000000000000000000000000000000000000000000000000000000000000000000000000000000000000000000000000000000000000000000000000000000000000000000000000000000000000000000000000000000000000000000000000000000000000000000000000000000000000000000000000000000000000000000000000000000000000000000000000000000000000000000000000000000000000000000000000000000000000000000000000000000000000000000000000000000000000000000000000000000000000000000000000000000000000000000000000000000000000000000000000000000000000000000000000000000000000000000000000000000000000000000000000000000000000000000000000000000000000000000000000000000000000000000000000000000000000000000000000000000000000000000000000000000000000000000000000000000000000000000000000000000000000000000000000000000000000000000000000000000000000000000000000000000000000000000000000000000000000000000000000000000000000000000000000000000000000000000000000000000000000000000000000000000000000000000000000000000000000000000000000000000000000000000000000000000000000000000000000000000000000000000000000000000000000000000000000000000000000000000000000000000000000000000000000000000000000000000000000000000000000000000000000000000000000000000000000000000000000000000000000000000000000000000000000000000000000000000000000000000000000000000000000000000000000000000000000000000000000000000000000000000000000000000000000000000000000000000000000000000000000000000000000000000000000000000000000000000000000000000000000000000000000000000000000000000000000000000000000000000000000000000000000000000000000000000000000000000000000000000000000000000000000000000000000000000000000000000000000000000000000000000000000000000000000000000000000000000000000000000000000000000000000000000000000000000000000000000000000000000000000000000000000000000000000000000000000000000000000000000000000000000000000000000000000000000000000000000000000000000000000000000000000000000000000000000000000000000000000000000000000000000000000000000000000000000000000000000000000000000000000000000000000000000000000000000000000000000000000000000000000000000000000000000000000000000000000000000000000000000000000000000000000000000000000000000000000000000000000000000000000000000000000000000000000000000000000000000000000000000000000000000000000000000000000000000000000000000000000000000000000000000000000000000000000000000000000000000000000000000000000000000000000000000000000000000000000000000000000000000000000000000000000000000000000000000000000000000000000000000074000000000000000000000000000000000000000000000000000000000000000000000000000000000000000000000000000000000000000000000000000000000000000000000000000000000000000000000000000000000000000000000000000000000000000000000000000000000000000000000000000000000000000000000000000000000000000000000000000000000000000000000000000000000000000000000000000000000000000000000000000000000000000000000000000000000000000000000000000000000000000000000000000000000000000000000000000000000000000000000000000000000000000000000000000000000000000000000000000000000000000000000000000000000000000000000000000000000000000000000000000000000000000000000000000000000000000000000000000000000000000000000000000000000000000000000000000000000000000000000000000000000000000000000000000000000000000000000000000000000000000000000000000000000000000000000000000000000000000000000000000000000000000000000000000000000000000000000000000000000000000000000000000000000000000000000000000000000000000000000000
#05414:00140000
#05418:00001313000013000000000014000000
#05415:00000000000000130000131300001400
#0541b:13
#05412:2513
#05419:0025
#05410:41
#0551b:1300001300000000
#05519:00001300000000530000000000001300
#05512:24132400
#05514:0000000000001413
#05515:0013001300000000
#05518:0000000000000000000000000000005300000000130013000000000000000000
#0551a:0000000000000000240000000053000000000000000000000000000000000000
#05517:0053
#0561b:00131300
#05615:0000000013000000000000001300000000000000130000000000000000000053
#05618:00000013000000000013001300000000
#05612:1300000024001313
#05617:0000000000000013
#0561a:24
#05613:0000000000000000000000000000000000000000000000000000000000530000
#05614:00000000000000000000000000000053
#05716:5314001400140000
#05717:00000013
#05714:0000000000000013
#05719:0000150000000013
#05712:00251613
#0571a:24
#05718:0026
#00815:00001600000016000000160000130013
#00818:0000000000001313
#00812:23282300
#0081b:00230000
#00816:2828
#0091b:13
#00912:00130000000000000000000000000000
#0091a:0013000000000000
#00913:00000013000000000000000000000000
#00919:00130000
#00914:00000000001300000000000000000000
#00918:0000001300000000
#00915:00000000000000130000000000000000
#00916:0000000000000000000000000000000000343434343434340000000000000000
#00917:00000052
#00419:0015250000000000
#00412:2500001525000000
#00418:0000000000131300
#00417:2323
#00416:00230000
#0041a:00000000000000000000000000000000000000000000000000000000000000000000000000000000005300000000000000530000000000000000000000000000
#00517:00140000
#00516:00000014
#0051b:13
#00512:2313
#00513:00140000
#0051a:00002414
#00510:41
#00615:0000140000000013
#00612:25131300
#00618:00002613
#0061b:13
#00717:00140000
#00715:00000014
#00712:13002713
#0071b:00131300
#00718:26
#01718:0000000000000000530000000000000013535353530000001400000000000000
#01715:00000000000053000000131300000000
#01716:0000000000000014
#01712:53
#0171b:0053000000000000
#01719:00000000000000000000000000000000000000000000000000000000000000000053005300530053000000000000000000000000000000000000000000000000
#02015:00001300000000130013001300000000
#02018:00000013000013000000130000000000
#0201b:13001313
#02014:0000000000000013
#02012:13130013
#02019:0000000000000023
#02512:1300001300001300
#02515:00000000000000130000130000001300
#02518:00000000000000001300000000000013
#0251b:00001300000000000013000013000000
#02517:13130000
#02516:0013000000000000
#03118:0000140000131300
#03112:1414
#03114:00240000
#0311a:24000000000000000000000000000000000000000000000000000000000000002400000000000000005300000000000000530000000000000000000000000000
#0321a:0000130024240013
#03215:0000130000000013
#03213:0000001300001300
#03218:0000001300001300
#03212:2424000000000000
#0331b:00130000
#03316:00130000
#03314:0000001300000013
#03319:0000001300000013
#03312:2424000000001300
#03317:00000013
#0331a:0000000024240000
#0341b:0000130000000013
#03416:0000130000000013
#03412:2424001300001300
#03417:0000001300001300
#0341a:0000000024240000
#03712:1414000000000000
#0371a:0000000014140000
#03713:00120000
#03715:00000000000000000000000000000000000000000000000012000000000000000000000000000000000000000000000000000000000000000052000000000000
#0371b:00000012
#03719:00000000000000000000000000000000000000000000000000520000000000000000000000000000000000000000000000000000000000001200000000000000
#03718:2424000000000000
#03714:0000000024240000
#03717:0000005200000052
#03812:1414120000000000
#0381a:0000000014140000
#03815:00000000000000000000000000000000000000000000000012000000000000000000000000000000000000000000000000000000000000000052000000000000
#0381c:00000012
#03819:00000000000000000000000000000000000000000000000000520000000000000000000000000000000000000000000000000000000000001200000000000000
#03816:2424000024240000
#03810:41
#03817:0000005200000052
#04012:14000000000000001400000000000000120000000000000000000000000000000000000000000000000000000000000000000000000000000053000000000000
#0401a:0000000014140000
#04015:0000001200000000
#0401c:00000012
#04019:0000000000000000000000000000000000000000000000000000000000000000000000000000000000000000000000000053000000000000000000000000000000000000000000000000000000000000000000000000000000000000000000000000000000000000000000000000000012000000000000000000000000000000
#04016:2424000024240053
#04017:0000005300000000
#0401b:00000000000000000000000000000000000000000000000000530000000000000000000000000000000000000000000000000000000000000000000000000000
#04014:0000000000000000000000000000000000000000000000000000000000000000000000000000000000000000000000000000000000000000000000000000000000000000000000000000000000000000000000000000000000000000000000000000000000000000000000000000000000530000000000000000000000000000
#04112:14000000000000000000000000000000120000000000000000000000000000000000000000000000000000000000000000000000000000000053000000000000
#04114:0000000000000000000000000000000014000000000000000000000000000000000000000000000000000000000000000000000000000000000000000000000000000000000000000000000000000000240000000000000000000000000000000000000000000000000000000000000000530000000000000000000000000000
#0411a:0014
#04118:0024000000140000
#04115:0000001200000000
#0411c:00000012
#04119:0000000000000000000000000000000000000000000000000000000000000000000000000000000000000000000000000053000000000000000000000000000000000000000000000000000000000000000000000000000000000000000000000000000000000000000000000000000012000000000000000000000000000000
#04116:2400000024000053
#04117:0000005300000000
#0411b:00000000000000000000000000000000000000000000000000530000000000000000000000000000000000000000000000000000000000000000000000000000
#04212:14000000000000000000000000000000120000000000000000000000000000000000000000000000240000000000000000000000000000000053000000000000
#04216:2414000024140053
#0421a:0024000014000000
#04215:0000001200000000
#0421c:00000012
#04219:0000000000000000000000000000000000000000000000000000000000000000000000000000000000000000000000000053000000000000000000000000000000000000000000000000000000000000000000000000000000000000000000000000000000000000000000000000000012000000000000000000000000000000
#04217:0000005300000000
#0421b:00000000000000000000000000000000000000000000000000530000000000000000000000000000000000000000000000000000000000000000000000000000
#04214:0000000000000000000000000000000000000000000000000000000000000000000000000000000000000000000000000000000000000000000000000000000000000000000000000000000000000000000000000000000000000000000000000000000000000000000000000000000000530000000000000000000000000000
#04712:0000130000241300
#0471b:00130000
#04719:0000001300000013
#04714:0000000000000013
#04718:0024000000000000
#04716:247400000000000000000000000000000000000000000000000000000000000000000000000000000000000000000000000000000000000000000000000000000000000000000000000000000000000000000000000000000000000000000000000000000000000000000000000000000000000000000000000000000000000000000000000000000000000000000000000000000000000000000000000000000000000000000000000000000000000000000000000000000000000000000000000000000000000000000000000000000000000000000000000000000000000000000000000000000000000000000000000000000000000000000000000000000000000000000000000000000000000000000000000000000000000000000000000000000000000000000000000000000000000000000000000000000000000000000000000000000000000000000000000000000000000000000000000000000000000000000000000000000000000000000000000000000000000000000000000000000000000000000000000000000000000000000000000000000000000000000000000000000000000000000000000000000000000000000000000000000000000000000000000000000000000000000000000000000000000000000000000000000000000000000000000000000000000000000000000000000000000000000000000000000000000000000000000000000000000000000000000000000000000000000000000000000000000000000000000000000000000000000000000000000000000000000000000000000000000000000000000000000000000000000000000000000000000000000000000000000000000000000000000000000000000000000000000000000000000000000000000000000000000000000000000000000000000000000000000000000000000000000000000000000000000000000000000000000000000000000000000000000000000000000000000000000000000000000000000000000000000000000000000000000000000000000000000000000000000000000000000000000000000000000000000000000000000000000000000000000000000000000000000000000000000000000000000000000000000000000000000000000000000000000000000000000000000000000000000000000000000000000000000000000000000000000000000000000000000000000000000000000000000000000000000000000000000000000000000000000000000000000000000000000000000000000000000000000000000000000074247400000000000000000000000000000000000000000000000000000000000000000000000000000000000000000000000000000000000000000000000000000000000000000000000000000000000000000000000000000000000000000000000000000000000000000000000000000000000000000000000000000000000000000000000000000000000000000000000000000000000000000000000000000000000000000000000000000000000000000000000000000000000000000000000000000000000000000000000000000000000000000000000000000000000000000000000000000000000000000000000000000000000000000000000000000000000000000000000000000000000000000000000000000000000000000000000000000000000000000000000000000000000000000000000000000000000000000000000000000000000000000000000000000000000000000000000000000000000000000000000000000000000000000000000000000000000000000000000000000000000000000000000000000000000000000000000000000000000000000000000000000000000000000000000000000000000000000000000000000000000000000000000000000000000000000000000000000000000000000000000000000000000000000000000000000000000000000000000000000000000000000000000000000000000000000000000000000000000000000000000000000000000000000000000000000000000000000000000000000000000000000000000000000000000000000000000000000000000000000000000000000000000000000000000000000000000000000000000000000000000000000000000000000000000000000000000000000000000000000000000000000000000000000000000000000000000000000000000000000000000000000000000000000000000000000000000000000000000000000000000000000000000000000000000000000000000000000000000000000000000000000000000000000000000000000000000000000000000000000000000000000000000000000000000000000000000000000000000000000000000000000000000000000000000000000000000000000000000000000000000000000000000000000000000000000000000000000000000000000000000000000000000000000000000000000000000000000000000000000000000000000000000000000000000000000000000000000000000000000000000000000000000000000000000000000000000000000000000000000000
#04812:1300000000240014
#04816:2414000024140000
#0481b:00131300
#04819:0000001300000000
#04814:0000001300000000
#04817:00000013
#0481a:0024000000000000
#05818:0000000000000000140000000000005300000000130013000000000000000000
#05814:00000014
#05817:0000000053000014
#05816:13
#05815:00001313000013000000000000000000
#0581b:0000001300000000
#05819:25000000000000530000000000000000
#05812:0025
#0581a:0000000000000000000000000053000000000000000000000000000000000000
#05912:1300241300000013
#05914:00001300000000530000000000000000
#0591b:0000130000000013
#05918:0013001300001400
#05915:0000000000000000000000000000005300000000130013000000000000000000
#0591a:2424
#05913:0000000000000000000000000053000000000000000000000000000000000000
#05916:0053
#06012:24131300
#06018:0000000013000000000000001300000000000000130000000000000000000053
#06015:00000013000000000013001300000000
#0601b:1300000000001313
#06016:0000000000000013
#0601a:0000000000000000000000000000000024000000000000000000000000530000
#06019:00000000000000000000000000000053
#06116:0014001400000000
#06112:24152600
#06118:0016
#06113:00000016
#06119:00250000
#06117:53
#04318:00640000000000000000000000000000000000000000000000000000000000000000000000000000130000000000000013000000000000001200000000000000
#04316:24000000240000002400001200120012
#04312:2400000000000000006400000000000000000000000000000000000000000000
#0431a:00006400000000000000000000000000000000000000000000000000000000000000000000000000005300000000000000530000000000000000000000000000
#04314:00000000000000000000000000000000006400000000000000000000000000000000000000000000000000000000000000000000000000000000000000000000
#02816:1414000014140000
#02815:0000130000000013
#02818:0000001300001300
#0281a:2424000000000000
#02812:0000000024240000
#0281f:21
#02916:1414
#02914:0014000000240000
#02918:0024001300141300
#02915:0000130000000013
#0291a:24
#02912:0024
#02910:41
#03016:1424000014240000
#03012:0014000024000000
#0301a:2400000000140000
#03015:0000130000000013
#03018:0000001300001300
#04412:150000002c00007c
#04419:15
#04417:000000000000000000000000000000000000000000000000000000000000000000000000000000000000000000000000000000000000000000000000000000000000000000000000000000000000000000000000000000000000000000000000000000000000000000000000000000000000000000000000000000000000000000000000000000000000000000000000000000000000000000000000000000000000000000000000000000000000000000000000000000000000000000000012000000000000000000000000000000000000000000000000000000000000000000000000000000000000000000000000000000000000000000000000000000000000000000000000000000000000000000000000000000000000000000000000000000000000000000000000000000000000000000000000000000000000000000000000000000000000000000000000000000000000000000000000000000000000000000000000000000000000000000000000000000000000000000000000
#0221a:2400002400240000
#02212:0000000000000024
#02213:5200000000520000
#02217:0000520000000052
#02215:0000005200000000
#0621a:54000052
#06213:52
#06216:0052000052000000
#06219:00520000
#06218:0000000000520000
#06315:52
#06318:0052000000005200
#0631b:00520000
#06314:0052
#06316:0000000000520000
#06413:52
#06416:0052000052000000
#06419:00520000
#06418:0000000000520000
#0641a:00000052
#06514:52
#0651b:0052000000000000
#06519:0000520000000052
#06517:0000005200005200
#06513:0052
#06515:0000000000520000
#0015b:43
#00156:00240000
#00155:00000025
#00152:6633
#00158:0056
#00257:00250000
#0025a:44
#00252:6634
#0025b:0053
#00352:3566
#00354:00250000
#00359:0045
#00358:56000026
#00852:00380000
#00856:4848
#01854:13
#0185a:0000001300000013
#01853:0000000000130000
#01857:0000000000000052
#02152:0013
#0225a:1400001400140000
#02252:0000000000000014
#02352:0014001400000000
#0285a:0014000000000000
#02856:0014000000140000
#02852:0000000000140000
#03154:00140000
#0315a:1414
#03158:00140000
#03152:1414
#05052:0000006300000000
#05057:0000000000000053
#05352:5363
#05356:00000014
#05355:0023000000000000
#05358:0000002300000000
#0535b:00535300
#05452:35
#05459:0045
#05758:0016
#0575a:14
#05752:00150000
#00452:3535
#00459:00450000
#00557:00240000
#00556:00000024
#0055b:53
#00552:3363
#0055a:0044
#00655:00240000
#00652:3563
#0065b:53
#00658:0046
#00757:00240000
#00755:00000024
#00752:6337
#0075b:0053
#00758:46
#0125a:00000000000000000000000000000000004200000000000000000000000000000000000000000000000000000000000000000000000000000000000000000000
#01254:00000000000000000000000000000000003200000000000000000000000000000000000000000000000000000000000000000000000000000000000000000000
#01954:0013001300000000
#01953:23
#01957:0062000000000000
#0195a:00230000
#01959:0000001300000000
#0205b:53
#02052:00630000
#0245b:63
#02457:0023000000000000
#02456:00130000
#02552:53
#02556:0023000000000000
#02557:00130000
#02652:34
#0265a:00440000
#03252:0014000000000000
#0325a:0000000000140000
#03256:0014000000140000
#03352:0014000000000000
#0335a:0000000000140000
#03356:0014000000140000
#03452:0014000000000000
#0345a:0000000000140000
#03456:0014000000140000
#0365a:4444000000000000
#03652:0000000034340000
#03758:4444000000000000
#03754:0000000034340000
#03856:4444000034340000
#04056:4444000034340000
#04156:4434
#04158:0044000000000000
#04154:0000000000340000
#04256:4434
#0425a:0044000000000000
#04252:0000000000340000
#03956:45350035
#03955:0045
#04652:00230000
#04656:000000000000000000000000000000000000000000000000000000000000000000000000000000000000000000000000000000000000000000000000000000000000000000000000000000000000000000000000000000000000000000000000000000000000000000000000000000000000000000000000000000000000000000000000000000000000000000000000000000000000000000000000000000000000000000000000000000000000000000000000000000000000000000000000000000000000000000000000000000000000000000000000000000000000000000000000000000000000000000000000000000000000000000000000000000000000000000000000000000000000000000000000000000000000000000000000000000000000000000000000000000000000000000000000000000000000000000000000000000000000000000000000000000000000000000000000000000000000000000000000000000000000000000000000000000000000000000000000000000000000000000000000000000000000000000000000000000000000000000000000000000000000000000000000000000000000000000000000000000000000000000000000000000000000000000000000000000000000000000000000000000000000000000000000000000000000000000000000000000000000000000000000000000000000000000000000000000000000000000000000000000000000000000000000000000000000000000000000000000000000000000000000000000000000000000000000000000000000000000000000000000000000000000000000000000000000000000000000000000000000000000000000000000000000000000000000000000000000000000000000000000000000000000000000000000000000000000000000000000000000000000000000000000000000000000000000000000000000000000000000000000000000000000000000000000000000000000000000000000000000000000000000000000000000000000000000000000000000000000000000000000000000000000000000000000000000000000000000000000000000000000000000000000000000000000000000000000000000000000000000000000000000000000000000000000000000000000000000000000000000000000000000000000000000000000000000000000000000000000000000000000000000000000000000000000000000000000000000000000000000000000000000000000000000000000000000000000000000000000000000005400000000000000000000000000000000000000000000000000000000000000000000000000000000000000000000000000000000000000000000000000000000000000000000000000000000000000000000000000000000000000000000000000000000000000000000000000000000000000000000000000000000000000000000000000000000000000000000000000000000000000000000000000000000000000000000000000000000000000000000000000000000000000000000000000000000000000000000000000000000000000000000000000000000000000000000000000000000000000000000000000000000000000000000000000000000000000000000000000000000000000000000000000000000000000000000000000000000000000000000000000000000000000000000000000000000000000000000000000000000000000000000000000000000000000000000000000000000000000000000000000000000000000000000000000000000000000000000000000000000000000000000000000000000000000000000000000000000000000000000000000000000000000000000000000000000000000000000000000000000000000000000000000000000000000000000000000000000000000000000000000000000000000000000000000000000000000000000000000000000000000000000000000000000000000000000000000000000000000000000000000000000000000000000000000000000000000000000000000000000000000000000000000000000000000000000000000000000000000000000000000000000000000000000000000000000000000000000000000000000000000000000000000000000000000000000000000000000000000000000000000000000000000000000000000000000000000000000000000000000000000000000000000000000000000000000000000000000000000000000000000000000000000000000000000000000000000000000000000000000000000000000000000000000000000000000000000000000000000000000000000000000000000000000000000000000000000000000000000000000000000000000000000000000000000000000000000000000000000000000000000000000000000000000000000000000000000000000000000000000000000000000000000000000000000000000000000000000000000000000000000000000000000000000000000000000000000000000000000000000000000000000000000000000000000000000000000000000000000000000
#0465b:00000023
#04654:0054000000000000000000000000000000000000000000000000000000000000
#04752:00230000
#04756:006400000000000000000000000000000000000000000000000000000000000000000000000000000000000000000000000000000000000000000000000000000000000000000000000000000000000000000000000000000000000000000000000000000000000000000000000000000000000000000000000000000000000000000000000000000000000000000000000000000000000000000000000000000000000000000000000000000000000000000000000000000000000000000000000000000000000000000000000000000000000000000000000000000000000000000000000000000000000000000000000000000000000000000000000000000000000000000000000000000000000000000000000000000000000000000000000000000000000000000000000000000000000000000000000000000000000000000000000000000000000000000000000000000000000000000000000000000000000000000000000000000000000000000000000000000000000000000000000000000000000000000000000000000000000000000000000000000000000000000000000000000000000000000000000000000000000000000000000000000000000000000000000000000000000000000000000000000000000000000000000000000000000000000000000000000000000000000000000000000000000000000000000000000000000000000000000000000000000000000000000000000000000000000000000000000000000000000000000000000000000000000000000000000000000000000000000000000000000000000000000000000000000000000000000000000000000000000000000000000000000000000000000000000000000000000000000000000000000000000000000000000000000000000000000000000000000000000000000000000000000000000000000000000000000000000000000000000000000000000000000000000000000000000000000000000000000000000000000000000000000000000000000000000000000000000000000000000000000000000000000000000000000000000000000000000000000000000000000000000000000000000000000000000000000000000000000000000000000000000000000000000000000000000000000000000000000000000000000000000000000000000000000000000000000000000000000000000000000000000000000000000000000000000000000000000000000000000000000000000000000000000000000000000000000000000000000000000000000000000000005400000000000000000000000000000000000000000000000000000000000000000000000000000000000000000000000000000000000000000000000000000000000000000000000000000000000000000000000000000000000000000000000000000000000000000000000000000000000000000000000000000000000000000000000000000000000000000000000000000000000000000000000000000000000000000000000000000000000000000000000000000000000000000000000000000000000000000000000000000000000000000000000000000000000000000000000000000000000000000000000000000000000000000000000000000000000000000000000000000000000000000000000000000000000000000000000000000000000000000000000000000000000000000000000000000000000000000000000000000000000000000000000000000000000000000000000000000000000000000000000000000000000000000000000000000000000000000000000000000000000000000000000000000000000000000000000000000000000000000000000000000000000000000000000000000000000000000000000000000000000000000000000000000000000000000000000000000000000000000000000000000000000000000000000000000000000000000000000000000000000000000000000000000000000000000000000000000000000000000000000000000000000000000000000000000000000000000000000000000000000000000000000000000000000000000000000000000000000000000000000000000000000000000000000000000000000000000000000000000000000000000000000000000000000000000000000000000000000000000000000000000000000000000000000000000000000000000000000000000000000000000000000000000000000000000000000000000000000000000000000000000000000000000000000000000000000000000000000000000000000000000000000000000000000000000000000000000000000000000000000000000000000000000000000000000000000000000000000000000000000000000000000000000000000000000000000000000000000000000000000000000000000000000000000000000000000000000000000000000000000000000000000000000000000000000000000000000000000000000000000000000000000000000000000000000000000000000000000000000000000000000000000000000000000000000000000000000000000000000000
#04856:0024000000240000
#04852:5300000000000024
#04857:00000053
#0485b:0053
#0495a:4444
#04952:00340000
#05859:45
#05852:0035
#06152:1416
#06159:00150000
#06158:0056
#06153:00000026
#04352:3434
#0435a:00440000
#02954:0014000000140000
#02958:0014000000140000
#03052:0014000000000000
#0305a:0000000000140000
#03056:0014000000140000
#04557:12
#04452:555c
#04459:15
#04457:000000000000000000000000000000000000000000000000000000000000000000000000000000000000000000000000000000000000000000000000000000000000000000000000000000000000000000000000000000000000000000000000000000000000000000000000000000000000000000000000000000000000000000000000000000000000000000000000000000000000000000000000000000000000000000000000000000000000000000000000000000000000000000000022000000000000000000000000000000000000000000000000000000000000000000000000000000000000000000000000000000000000000000000000000000000000000000000000000000000000000000000000000000000000000000000000000000000000000000000000000000000000000000000000000000000000000000000000000000000000000000000000000000000000000000000000000000000000000000000000000000000000000000000000000000000000000000000000
#05552:1414
#0555a:00140000
#0565a:14
#05652:0014
#0595a:1414
#05952:00140000
#06052:14
#0605a:0014
#0355a:4444
#03552:00340000
#001320:1623
#001360:00540000
#001381:0016
#001351:00000055
#0023a1:24
#002320:1624
#002370:00550000
#0023b1:0013
#002381:00000023
#003381:16
#003341:00550000
#003391:0025
#003320:0016
#003380:00000056
#004320:25
#0053b0:13
#005370:00540000
#0053a0:0024
#005321:0013
#005361:00000054
#006321:25
#0063b0:13
#006350:00540000
#006380:0026
#006321:0013
#006351:00000023
#007321:1327
#007371:00540000
#0073b0:0013
#007350:00000054
#008360:28
#009360:0000000000000000000000000000000014343434343434340000000000000000
#009370:00000022
#018370:0000000000000012
#019330:53
#019340:0023000000000000
#019371:0012000000000000
#0193a1:00530000
#019391:0000002300000000
#0203b1:13
#020381:0023000000000000
#020321:00130000
#020351:0000002300000000
#0243b1:13230000
#024371:0053000000000000
#025321:13230000
#025361:0053000000000000
#027361:000000000000001400240000
#032361:1424000000000000
#032361:0000000014240000
#033361:1424000000000000
#033361:0000000014240000
#034361:1424000000000000
#034361:0000000014240000
#035321:0014000000000000240000000000000000000000000000000000000000000000
#0353a1:0000000000000000001400000000000024000000000000000000000000000000
#036371:0000122200000000
#036371:0000000000001222
#037371:0000122200000000
#037371:0000000000001222
#038371:0000122200000000
#038371:0000000000001222
#040371:0000132300000000
#040361:0000000000001323
#041371:0000132300000000
#041361:0000000000001323
#042371:0000132300000000
#042361:0000000000001323
#0433a1:0014000000000000240000000000000000000000000000000000000000000000
#043321:0000000000000000001400000000000024000000000000000000000000000000
#044321:150000000000002c
#044371:000000000000000000000000000000000000000000000000000000000000000000000000000000000000000000000000000000000000000000000000000000000000000000000000000000000000000000000000000000000000000000000000000000000000000000000000000000000000000000000000000000000000000000000000000000000000000000000000000000000000000000000000000000000000000000000000000000000000000000000000000000000000000000000052000000000000000000000000000000000000000000000000000000000000000000000000000000000000000000000000000000000000000000000000000000000000000000000000000000000000000000000000000000000000000000000000000000000000000000000000000000000000000000000000000000000000000000000000000000000000000000000000000000000000000000000000000000000000000000000000000000000000000000000000000000000000000000000000
#044320:001c
#044370:000000000000000000000000000000000000000000000000000000000000000000000000000000000000000000000000000000000000000000000000000000000000000000000000000000000000000000000000000000000000000000000000000000000000000000000000000000000000000000000000000000000000000000000000000000000000000000000000000000000000000000000000000000000000000000000000000000000000000000000000000000000000000000000000000000000000000000000000000000000000000000000000000000000000000000000000000000000000000000000000000000000000000000000000000000000000000000000000000000000000000000000000000000000000000000000000000000000000000000000000000000000000000000000000000000000000000000000000000000000000000000000052000000000000000000000000000000000000000000000000000000000000000000000000000000000000000000000000
#045370:22
#046340:0014000000000000000000000000000000000000000000000000000000000000
#046320:00530000
#046360:000000000000000000000000000000000000000000000000000000000000000000000000000000000000000000000000000000000000000000000000000000000000000000000000000000000000000000000000000000000000000000000000000000000000000000000000000000000000000000000000000000000000000000000000000000000000000000000000000000000000000000000000000000000000000000000000000000000000000000000000000000000000000000000000000000000000000000000000000000000000000000000000000000000000000000000000000000000000000000000000000000000000000000000000000000000000000000000000000000000000000000000000000000000000000000000000000000000000000000000000000000000000000000000000000000000000000000000000000000000000000000000000000000000000000000000000000000000000000000000000000000000000000000000000000000000000000000000000000000000000000000000000000000000000000000000000000000000000000000000000000000000000000000000000000000000000000000000000000000000000000000000000000000000000000000000000000000000000000000000000000000000000000000000000000000000000000000000000000000000000000000000000000000000000000000000000000000000000000000000000000000000000000000000000000000000000000000000000000000000000000000000000000000000000000000000000000000000000000000000000000000000000000000000000000000000000000000000000000000000000000000000000000000000000000000000000000000000000000000000000000000000000000000000000000000000000000000000000000000000000000000000000000000000000000000000000000000000000000000000000000000000000000000000000000000000000000000000000000000000000000000000000000000000000000000000000000000000000000000000000000000000000000000000000000000000000000000000000000000000000000000000000000000000000000000000000000000000000000000000000000000000000000000000000000000000000000000000000000000000000000000000000000000000000000000000000000000000000000000000000000000000000000000000000000000000000000000000000000000000000000000000000000000000000000000000000000000000000000000000024000000000000000000000000000000000000000000000000000000000000000000000000000000000000000000000000000000000000000000000000000000000000000000000000000000000000000000000000000000000000000000000000000000000000000000000000000000000000000000000000000000000000000000000000000000000000000000000000000000000000000000000000000000000000000000000000000000000000000000000000000000000000000000000000000000000000000000000000000000000000000000000000000000000000000000000000000000000000000000000000000000000000000000000000000000000000000000000000000000000000000000000000000000000000000000000000000000000000000000000000000000000000000000000000000000000000000000000000000000000000000000000000000000000000000000000000000000000000000000000000000000000000000000000000000000000000000000000000000000000000000000000000000000000000000000000000000000000000000000000000000000000000000000000000000000000000000000000000000000000000000000000000000000000000000000000000000000000000000000000000000000000000000000000000000000000000000000000000000000000000000000000000000000000000000000000000000000000000000000000000000000000000000000000000000000000000000000000000000000000000000000000000000000000000000000000000000000000000000000000000000000000000000000000000000000000000000000000000000000000000000000000000000000000000000000000000000000000000000000000000000000000000000000000000000000000000000000000000000000000000000000000000000000000000000000000000000000000000000000000000000000000000000000000000000000000000000000000000000000000000000000000000000000000000000000000000000000000000000000000000000000000000000000000000000000000000000000000000000000000000000000000000000000000000000000000000000000000000000000000000000000000000000000000000000000000000000000000000000000000000000000000000000000000000000000000000000000000000000000000000000000000000000000000000000000000000000000000000000000000000000000000000000000000000000000000000000000000000000000000000
#046360:000000000000000000000000000000000000000000000000000000000000000000000000000000000000000000000000000000000000000000000000000000000000000000000000000000000000000000000000000000000000000000000000000000000000000000000000000000000000000000000000000000000000000000000000000000000000000000000000000000000000000000000000000000000000000000000000000000000000000000000000000000000000000000000000000000000000000000000000000000000000000000000000000000000000000000000000000000000000000000000000000000000000000000000000000000000000000000000000000000000000000000000000000000000000000000000000000000000000000000000000000000000000000000000000000000000000000000000000000000000000000000000000000000000000000000000000000000000000000000000000000000000000000000000000000000000000000000000000000000000000000000000000000000000000000000000000000000000000000000000000000000000000000000000000000000000000000000000000000000000000000000000000000000000000000000000000000000000000000000000000000000000000000000000000000000000000000000000000000000000000000000000000000000000000000000000000000000000000000000000000000000000000000000000000000000000000000000000000000000000000000000000000000000000000000000000000000000000000000000000000000000000000000000000000000000000000000000000000000000000000000000000000000000000000000000000000000000000000000000000000000000000000000000000000000000000000000000000000000000000000000000000000000000000000000000000000000000000000000000000000000000000000000000000000000000000000000000000000000000000000000000000000000000000000000000000000000000000000000000000000000000000000000000000000000000000000000000000000000000000000000000000000000000000000000000000000000000000000000000000000000000000000000000000000000000000000000000000000000000000000000000000000000000000000000000000000000000000000000000000000000000000000000000000000000000000000000000000000000000000000000000000000000000000000000000000000000000000000000000000000001400000000000000000000000000000000000000000000000000000000000000000000000000000000000000000000000000000000000000000000000000000000000000000000000000000000000000000000000000000000000000000000000000000000000000000000000000000000000000000000000000000000000000000000000000000000000000000000000000000000000000000000000000000000000000000000000000000000000000000000000000000000000000000000000000000000000000000000000000000000000000000000000000000000000000000000000000000000000000000000000000000000000000000000000000000000000000000000000000000000000000000000000000000000000000000000000000000000000000000000000000000000000000000000000000000000000000000000000000000000000000000000000000000000000000000000000000000000000000000000000000000000000000000000000000000000000000000000000000000000000000000000000000000000000000000000000000000000000000000000000000000000000000000000000000000000000000000000000000000000000000000000000000000000000000000000000000000000000000000000000000000000000000000000000000000000000000000000000000000000000000000000000000000000000000000000000000000000000000000000000000000000000000000000000000000000000000000000000000000000000000000000000000000000000000000000000000000000000000000000000000000000000000000000000000000000000000000000000000000000000000000000000000000000000000000000000000000000000000000000000000000000000000000000000000000000000000000000000000000000000000000000000000000000000000000000000000000000000000000000000000000000000000000000000000000000000000000000000000000000000000000000000000000000000000000000000000000000000000000000000000000000000000000000000000000000000000000000000000000000000000000000000000000000000000000000000000000000000000000000000000000000000000000000000000000000000000000000000000000000000000000000000000000000000000000000000000000000000000000000000000000000000000000000000000000000000000000000000000000000000000000000000000000000000000000000000000000000000000000024
#0463b0:00000053
#047360:001400000000000000000000000000000000000000000000000000000000000000000000000000000000000000000000000000000000000000000000000000000000000000000000000000000000000000000000000000000000000000000000000000000000000000000000000000000000000000000000000000000000000000000000000000000000000000000000000000000000000000000000000000000000000000000000000000000000000000000000000000000000000000000000000000000000000000000000000000000000000000000000000000000000000000000000000000000000000000000000000000000000000000000000000000000000000000000000000000000000000000000000000000000000000000000000000000000000000000000000000000000000000000000000000000000000000000000000000000000000000000000000000000000000000000000000000000000000000000000000000000000000000000000000000000000000000000000000000000000000000000000000000000000000000000000000000000000000000000000000000000000000000000000000000000000000000000000000000000000000000000000000000000000000000000000000000000000000000000000000000000000000000000000000000000000000000000000000000000000000000000000000000000000000000000000000000000000000000000000000000000000000000000000000000000000000000000000000000000000000000000000000000000000000000000000000000000000000000000000000000000000000000000000000000000000000000000000000000000000000000000000000000000000000000000000000000000000000000000000000000000000000000000000000000000000000000000000000000000000000000000000000000000000000000000000000000000000000000000000000000000000000000000000000000000000000000000000000000000000000000000000000000000000000000000000000000000000000000000000000000000000000000000000000000000000000000000000000000000000000000000000000000000000000000000000000000000000000000000000000000000000000000000000000000000000000000000000000000000000000000000000000000000000000000000000000000000000000000000000000000000000000000000000000000000000000000000000000000000000000000000000000000000000000000000000000000000000000000000000024000000000000000000000000000000000000000000000000000000000000000000000000000000000000000000000000000000000000000000000000000000000000000000000000000000000000000000000000000000000000000000000000000000000000000000000000000000000000000000000000000000000000000000000000000000000000000000000000000000000000000000000000000000000000000000000000000000000000000000000000000000000000000000000000000000000000000000000000000000000000000000000000000000000000000000000000000000000000000000000000000000000000000000000000000000000000000000000000000000000000000000000000000000000000000000000000000000000000000000000000000000000000000000000000000000000000000000000000000000000000000000000000000000000000000000000000000000000000000000000000000000000000000000000000000000000000000000000000000000000000000000000000000000000000000000000000000000000000000000000000000000000000000000000000000000000000000000000000000000000000000000000000000000000000000000000000000000000000000000000000000000000000000000000000000000000000000000000000000000000000000000000000000000000000000000000000000000000000000000000000000000000000000000000000000000000000000000000000000000000000000000000000000000000000000000000000000000000000000000000000000000000000000000000000000000000000000000000000000000000000000000000000000000000000000000000000000000000000000000000000000000000000000000000000000000000000000000000000000000000000000000000000000000000000000000000000000000000000000000000000000000000000000000000000000000000000000000000000000000000000000000000000000000000000000000000000000000000000000000000000000000000000000000000000000000000000000000000000000000000000000000000000000000000000000000000000000000000000000000000000000000000000000000000000000000000000000000000000000000000000000000000000000000000000000000000000000000000000000000000000000000000000000000000000000000000000000000000000000000000000000000000000000000000000000000000000000000000000000000000000
#047320:00530000
#047360:000000000000000000000000000000000000000000000000000000000000000000000000000000000000000000000000000000000000000000000000000000000000000000000000000000000000000000000000000000000000000000000000000000000000000000000000000000000000000000000000000000000000000000000000000000000000000000000000000000000000000000000000000000000000000000000000000000000000000000000000000000000000000000000000000000000000000000000000000000000000000000000000000000000000000000000000000000000000000000000000000000000000000000000000000000000000000000000000000000000000000000000000000000000000000000000000000000000000000000000000000000000000000000000000000000000000000000000000000000000000000000000000000000000000000000000000000000000000000000000000000000000000000000000000000000000000000000000000000000000000000000000000000000000000000000000000000000000000000000000000000000000000000000000000000000000000000000000000000000000000000000000000000000000000000000000000000000000000000000000000000000000000000000000000000000000000000000000000000000000000000000000000000000000000000000000000000000000000000000000000000000000000000000000000000000000000000000000000000000000000000000000000000000000000000000000000000000000000000000000000000000000000000000000000000000000000000000000000000000000000000000000000000000000000000000000000000000000000000000000000000000000000000000000000000000000000000000000000000000000000000000000000000000000000000000000000000000000000000000000000000000000000000000000000000000000000000000000000000000000000000000000000000000000000000000000000000000000000000000000000000000000000000000000000000000000000000000000000000000000000000000000000000000000000000000000000000000000000000000000000000000000000000000000000000000000000000000000000000000000000000000000000000000000000000000000000000000000000000000000000000000000000000000000000000000000000000000000000000000000000000000000000000000000000000000000000000000000000000000000000001400000000000000000000000000000000000000000000000000000000000000000000000000000000000000000000000000000000000000000000000000000000000000000000000000000000000000000000000000000000000000000000000000000000000000000000000000000000000000000000000000000000000000000000000000000000000000000000000000000000000000000000000000000000000000000000000000000000000000000000000000000000000000000000000000000000000000000000000000000000000000000000000000000000000000000000000000000000000000000000000000000000000000000000000000000000000000000000000000000000000000000000000000000000000000000000000000000000000000000000000000000000000000000000000000000000000000000000000000000000000000000000000000000000000000000000000000000000000000000000000000000000000000000000000000000000000000000000000000000000000000000000000000000000000000000000000000000000000000000000000000000000000000000000000000000000000000000000000000000000000000000000000000000000000000000000000000000000000000000000000000000000000000000000000000000000000000000000000000000000000000000000000000000000000000000000000000000000000000000000000000000000000000000000000000000000000000000000000000000000000000000000000000000000000000000000000000000000000000000000000000000000000000000000000000000000000000000000000000000000000000000000000000000000000000000000000000000000000000000000000000000000000000000000000000000000000000000000000000000000000000000000000000000000000000000000000000000000000000000000000000000000000000000000000000000000000000000000000000000000000000000000000000000000000000000000000000000000000000000000000000000000000000000000000000000000000000000000000000000000000000000000000000000000000000000000000000000000000000000000000000000000000000000000000000000000000000000000000000000000000000000000000000000000000000000000000000000000000000000000000000000000000000000000000000000000000000000000000000000000000000000000000000000000000000000000000000000000000000000000
#0473b0:00000023
#048320:13230000
#048360:0054000000000000
#0483b0:00001323
#048360:0000000000540000
#048371:00000013
#048321:0000000000000054
#049361:24
#050321:0000001300000000
#050361:0000000000230000
#050371:0000000000000013
#0513b1:0023000000000000
#053321:13230000
#053351:0033000000000000
#0533b0:00133300
#053380:0000003300000000
#053360:000000000000000000000000000000000000000000000000000000000000000000000000000000000000000000000000000000000000000000000000000000000000000000000000000000000000000000000000000000000000000000000000000000000000000000000000000000000000000000000000000000000000000000000000000000000000000000000000000000000000000000000000000000000000000000000000000000000000000000000000000000000000000000000000000000000000000000000000000000000000000000000000000000000000000000000000000000000000000000000000000000000000000000000000000000000000000000000000000000000000000000000000000000000000000000000000000000000000000000000000000000000000000000000000000000000000000000000000000000000000000000000000000000000000000000000000000000000000000000000000000000000000000000000000000000000000000000000000000000000000000000000000000000000000000000000000000000000000000000000000000000000000000000000000000000000000000000000000000000000000000000000000000000000000000000000000000000000000000000000000000000000000000000000000000000000000000000000000000000000000000000000000000000000000000000000000000000000000000000000000000000000000000000000000000000000000000000000000000000000000000000000000000000000000000000000000000000000000000000000000000000000000000000000000000000000000000000000000000000000000000000000000000000000000000000000000000000000000000000000000000000000000000000000000000000000000000000000000000000000000000000000000000000000000000000000000000000000000000000000000000000000000000000000000000000000000000000000000000000000000000000000000000000000000000000000000000000000000000000000000000000000000000000000000000000000000000000000000000000000000000000000000000000000000000000000000000000000000000000000000000000000000000000000000000000000000000000000000000000000000000000000000000000000000000000000000000000000000000000000000000000000000000000000000000000000000000000000000000000000000000000000000000000000000000000000000000000000000000000000000000000000000000000000000000000000000000000000000000000000000000000000000000000000000000000000000000000000000000000000000000000000000000000000000000000000000000000000000000000000000000000000000000000000000000000000000000000000000000000000000000000000000000000000000000000000000000000000000000000000000000000000000000000000000000000000000000000000000000000000000000000000000000000000000000000000000000000000000000000000000000000000000000000000000000000000000000000000000000000000000000000000000000000000000000000000000000000000000000000000000000000000000000000000000000000000000000000000000000000000000000000000000000000000000000000000000000000000000000000000000000000000000000000000000000000000000000000000000000000000000000000000000000000000000000000000000000000000000000000000000000000000000000000000000000000000000000000000000000000000000000000000000000000000000000000000000000000000000000000000000000000000000000000000000000000000000000000000000000000000024000000000000000000000000000000000000000000000000000000000000000000000000000000000000000000000000000000000000000000000000000000000000000000000000000000000000000000000000000000000000000000000000000000000000000000000000000000000000000000000000000000000000000000000000000000000000000000000000000000000000000000000000000000000000000000000000000000000000000000000000000000000000000000000000000000000000000000000000000000000000000000000000000000000000000000000000000000000000000000000000000000000000000000000000000000000000000000000000000000000000000000000000000000000000000000000000000000000000000000000000000000000000000000000000000000000000000000000000000000000000000000000000000000000000000000000000000000000000000000000000000000000000000000000000000000000000000000000000000000000000000000000000000000000000000000000000000000000000000000000000000000000000000000000000000000000000000000000000000000000000000000000000000000000000000000000000000000000000000000000000
#053321:0013
#053361:00000024
#061381:0016
#061331:00000056
#0623a1:24
#004980:0000000000130000
#0049a0:00000000000000000000000000000000000000000000000000000000000000000000000000000000002300000000000000000000000000000000000000000000
#004980:00000013
#0049a0:00000000000000000000000000000000000000000000000000000000000000000000000000000000000000000000000000230000000000000000000000000000
#012990:00120000
#0129a0:00000000000000000000000000000000002200000000000000000000000000000000000000000000000000000000000000000000000000000000000000000000
#012951:00120000
#012941:00000000000000000000000000000000002200000000000000000000000000000000000000000000000000000000000000000000000000000000000000000000
#013981:0000000000000014
#0139a1:00000000000000000000000000000000000000000000000000000000000000000000000000000000000000000000000000000000000000000023000000000000
#017981:0000000000000000000000000000000013535353230000000000000000000000
#017991:00000000000000000000000000000000000000000000000000000000000000000053005300530053000000000000000000000000000000000000000000000000
#0279a1:000000000000000000000000000000000000000000000000000000000000000000000000000000000000000000000000000000000000000000000000000000000000000000000000000000000000000000000000000000000000000000000000000000000000000000000000000000000000000000000000000000000000000000000000000000000000000000000000000000000000000000000000000000000000000000000000000000000000000000000000000000000000000000000000001400000000000000000000000000000000000000000000000000000000000000000000000000000000000000000000000000000000000000000000000000000000000000000000000000000000000000000000000000000000000000000000000000000000000000000000000000000000000000000000000000000000000000000000000000000000000000000000000000000000000000000000000000000000000000000000000000000000000000000000000000000000000000000000
#027961:000000000000002400000000
#031981:0000000000130000
#0319a1:00000000000000000000000000000000000000000000000000000000000000000000000000000000002300000000000000000000000000000000000000000000
#031981:00000013
#0319a1:00000000000000000000000000000000000000000000000000000000000000000000000000000000000000000000000000230000000000000000000000000000
#035961:14
#035921:0024000000000000000000000000000000000000000000000000000000000000
#035961:00140000
#0359a1:0000000000000000002400000000000000000000000000000000000000000000
#035951:0000000000130000
#035931:00000000000000000000000000000000000000000000000000000000000000000000000000000000002300000000000000000000000000000000000000000000
#035951:00000013
#035931:00000000000000000000000000000000000000000000000000000000000000000000000000000000000000000000000000230000000000000000000000000000
#036971:0000001200000000
#036991:00000000000000000000000000000000000000000000000000220000000000000000000000000000000000000000000000000000000000000000000000000000
#036971:0000000000000012
#036951:00000000000000000000000000000000000000000000000000000000000000000000000000000000000000000000000000000000000000000022000000000000
#037971:0000001200000000
#037991:00000000000000000000000000000000000000000000000000220000000000000000000000000000000000000000000000000000000000000000000000000000
#037971:0000000000000012
#037951:00000000000000000000000000000000000000000000000000000000000000000000000000000000000000000000000000000000000000000022000000000000
#038971:0000001200000000
#038991:00000000000000000000000000000000000000000000000000220000000000000000000000000000000000000000000000000000000000000000000000000000
#038971:0000000000000012
#038951:00000000000000000000000000000000000000000000000000000000000000000000000000000000000000000000000000000000000000000022000000000000
#040971:0000001300000000
#0409b1:00000000000000000000000000000000000000000000000000230000000000000000000000000000000000000000000000000000000000000000000000000000
#040961:0000000000000013
#040921:00000000000000000000000000000000000000000000000000000000000000000000000000000000000000000000000000000000000000000023000000000000
#041971:0000001300000000
#0419b1:00000000000000000000000000000000000000000000000000230000000000000000000000000000000000000000000000000000000000000000000000000000
#041961:0000000000000013
#041921:00000000000000000000000000000000000000000000000000000000000000000000000000000000000000000000000000000000000000000023000000000000
#042971:0000001300000000
#0429b1:00000000000000000000000000000000000000000000000000230000000000000000000000000000000000000000000000000000000000000000000000000000
#042961:0000000000000013
#042921:00000000000000000000000000000000000000000000000000000000000000000000000000000000000000000000000000000000000000000023000000000000
#043961:14
#0439a1:0024000000000000000000000000000000000000000000000000000000000000
#043961:00140000
#043921:0000000000000000002400000000000000000000000000000000000000000000
#043981:0000000000130000
#0439a1:00000000000000000000000000000000000000000000000000000000000000000000000000000000002300000000000000000000000000000000000000000000
#043981:00000013
#0439a1:00000000000000000000000000000000000000000000000000000000000000000000000000000000000000000000000000230000000000000000000000000000
#046961:001400000000000000000000000000000000000000000000000000000000000000000000000000000000000000000000000000000000000000000000000000000000000000000000000000000000000000000000000000000000000000000000000000000000000000000000000000000000000000000000000000000000000000000000000000000000000000000000000000000000000000000000000000000000000000000000000000000000000000000000000000000000000000000000000000000000000000000000000000000000000000000000000000000000000000000000000000000000000000000000000000000000000000000000000000000000000000000000000000000000000000000000000000000000000000000000000000000000000000000000000000000000000000000000000000000000000000000000000000000000000000000000000000000000000000000000000000000000000000000000000000000000000000000000000000000000000000000000
#046941:0024000000000000000000000000000000000000000000000000000000000000
#0559b1:0000001300000000
#055971:0023
#056921:0000000000000013
#057961:23
#0589b1:0000001300000000
#058971:0023
#059921:0000001300000000
#059961:0023
#0609b1:0000000000000013
#061971:23
