This file was generated by Ched 2.7.0.0.
#TITLE ""
#ARTIST ""
#DESIGNER ""
#DIFFICULTY 0
#PLAYLEVEL
#SONGID ""
#WAVE ""
#WAVEOFFSET 0
#JACKET ""
#REQUEST "ticks_per_beat 480"
#00002: 4
#BPM01: 138
#00008: 01
#TIL00: ""
#VOLUME: ""
#HISPEED 00
#MEASUREHS 00
#0011a:14
#00114:0014
#00218:14
#00212:0014
#00318:14
#00314:0014
#0041a:14
#00512:14
#00518:0014
#00510:41
#00614:14
#0061a:0014
#00714:14
#00718:0014
#00812:14
#0091a:14
#01114:14
#01118:0014
#01218:14
#01214:0014
#01014:0014
#01314:14
#0141a:14
#01414:0014
#01410:41
#0151a:14
#01514:0014
#01618:14
#01612:0014
#01718:14
#01812:14
#0201a:14
#02014:00140000
#02018:0014
#02012:00000014
#0211a:14
#02114:00140000
#02118:0014
#0211f:11
#02214:14
#0241a:14140000
#02414:00001414
#02518:14140000
#02512:00001414
#0261a:14
#02814:14
#02818:0014
#0281a:24
#02812:0024
#0281f:21
#02914:14
#02918:0014
#0291a:24
#02912:0024
#02910:41
#03014:14
#03012:0014
#0301a:14
#03018:0014
#03218:00140000
#0321a:00000014
#03212:24
#03214:0024
#03318:00140000
#0331a:00000014
#03312:24
#03314:0024
#03418:14
#0341a:0014
#03412:14
#03414:0014
#03614:00140014
#0361a:2424
#03712:00140014
#03718:2424
#03814:00140014
#0381a:2424
#03810:41
#04018:00140014
#04012:2424
#0411a:00140014
#04114:2424
#04218:14
#0421a:0014
#04212:14
#04214:0014
#04412:0014
#04418:0014
#0441a:24
#04414:24
#04612:1414
#04618:00140014
#04610:41
#04714:1414
#0471a:00140014
#04812:14
#04814:0014
#0501a:1414
#05014:00140014
#05118:1414
#05112:00140014
#0521a:1414
#05214:00140014
#05318:1414
#05312:00140000
#05418:00140000
#05413:0014
#05419:00000014
#05412:24
#05410:41
#05519:00000014
#05514:24
#05618:00140000
#05613:0014
#05617:00000014
#05614:24
#05814:00140000
#05819:0014
#05813:00000014
#0581a:24
#05913:00000014
#05918:24
#06014:00140000
#06019:0014
#06015:00000014
#06018:24
#06214:13
#06219:0013
#06315:13
#06318:0013
#06414:13
#06419:0013
#06515:1313
#06518:00130013
#0391a:24
#03918:00240000
#03916:0024
#03914:00000024
#04319:0024
#04313:0024
#04312:24
#04318:24
#05712:24
#0611a:24
#02712:003434003434000000000000
#0045a:14
#00852:14
#01058:14
#0095a:54
#01852:54
#02158:0014
#02254:64
#0265a:14
#03054:54
#03052:0054
#0305a:54
#03058:0054
#03458:64
#0345a:0064
#03452:64
#03454:0064
#04258:64
#0425a:0064
#04252:64
#04254:0064
#04358:14
#04352:14
#04452:0054
#04458:0054
#04454:54
#0445a:54
#0455a:14
#04554:14
#04952:14
#04852:54
#04854:0054
#05358:0014
#05754:0014
#06158:0014
#0093a0:14
#009380:0034
#010380:24
#018320:14
#018340:0000003400340034
#019340:0034002400000000
#022340:14
#022320:0000003400340034
#023320:0034002400000000
#027320:143434003434240000000000
#027340:00340000
#030340:14
#030320:0034
#031340:24
#0303a1:14
#030381:0034
#0313a1:24
#034381:14
#0343a1:0034
#035381:24
#034320:14
#034340:0034
#035320:24
#042380:14
#0423a0:0034
#043380:24
#042321:14
#042341:0034
#043321:24
#044341:14
#044321:0034
#045341:24
#0443a0:14
#044380:0034
#0453a0:24
#048320:14
#048340:0034
#049320:24
#055340:14
#055330:00340000
#055320:0024
#057320:14
#057330:00340000
#057340:0024
#059380:14
#059390:00340000
#0593a0:0024
#0613a0:14
#061390:00340000
#061380:0024
