This file was generated by Ched 2.7.0.0.
#TITLE ""
#ARTIST ""
#DESIGNER ""
#DIFFICULTY 0
#PLAYLEVEL
#SONGID ""
#WAVE ""
#WAVEOFFSET 0
#JACKET ""
#REQUEST "ticks_per_beat 480"
#00002: 4
#BPM01: 181
#00008: 01
#TIL00: ""
#VOLUME: ""
#HISPEED 00
#MEASUREHS 00
#05018:2616
#0501f:21
#04818:14
#04814:0014
#0491a:14
#04912:0014
#06814:14
#06918:14
#07212:14
#0731a:14
#07412:16
#07518:16
#02012:14
#02112:14
#02212:14
#01912:14
#01910:41
#0031a:14
#00412:14
#00714:14
#00710:41
#00814:14
#00918:14
#01018:14
#01112:14
#01412:14
#0131a:14
#01212:14
#0161a:14
#0171a:14
#0181a:14
#0151a:14
#02414:14
#02518:14
#02614:14
#02318:14
#02812:14
#0291a:14
#03012:14
#0271a:14
#03118:14
#03114:0014
#04018:14
#0401f:11
#04114:14
#0421a:14
#04312:14
#05112:16
#05118:0016
#05110:41
#05212:1616
#05318:16
#05312:0016
#05618:1616
#05712:1616
#05812:0016
#05818:26
#06012:16
#06018:0016
#06218:1616
#06210:41
#06312:1616
#06418:16
#06412:0016
#06518:16
#06512:0016
#07014:14
#07010:41
#07118:14
#07612:16
#03210:41
#07652:66
#001340:14
#002340:24
#005380:14
#006380:24
#032380:14
#033380:24
#034340:14
#035340:24
#0363a0:14
#0373a0:24
#038320:14
#039320:24
#044380:14
#0453a0:24
#046340:14
#047320:24
#054380:1626
#055320:1626
#059380:1626
#061320:1626
#066380:16
#067380:26
#076320:16
#077320:24
