This file was generated by Ched 2.7.0.0.
#TITLE ""
#ARTIST ""
#DESIGNER ""
#DIFFICULTY 0
#PLAYLEVEL
#SONGID ""
#WAVE ""
#WAVEOFFSET 0
#JACKET ""
#REQUEST "ticks_per_beat 480"
#00002: 4
#BPM01: 181
#00008: 01
#TIL00: ""
#VOLUME: ""
#HISPEED 00
#MEASUREHS 00
#0401f:11
#0401b:0000000000130000
#04017:0000131300000013
#0401a:24
#04012:00540054
#07412:13000013
#07417:00000000000000000013000000000000
#0741b:1300001300000000
#07416:00000013000000000000000000000000
#0511b:0000001313000000
#05116:14131400
#05112:0000000000000013
#05117:00000013
#05110:41
#0481b:13
#04815:0000000013000013
#0481a:00000014
#04812:0000140000130000
#04814:13
#01318:0000001300000000
#01315:13000013
#0131b:13
#07516:00000014000000000014000000000000
#07512:2400002400000000
#0751a:24000024
#01915:1313
#01912:00130013
#01918:00130013
#0191b:0013
#01910:41
#0181b:00130000000000001300000000000000
#01818:00000013
#01815:0013
#01812:00130000
#03716:24001424
#03712:2400002424000000
#0351a:2414
#03516:2400002424000000
#03512:00000024
#07012:0000001300130000
#07016:1313000000000013
#0701b:1313000000000000
#07010:41
#0681b:0000001300130000
#06817:1313000000000013
#06812:1313000000000000
#07112:0013000000001300
#0711b:0013
#07115:00130000
#07118:0000001300000000
#03616:24001424
#0361a:2400002424000000
#03412:2414
#0341a:00000024
#03416:2400002424000000
#00912:0000000000130013
#00917:0000000000130013
#00914:0000001300000000
#0091b:1313000000000000
#00916:1313000000000000
#00919:0000001300000000
#0101b:0013000000001300
#01018:00130000
#01015:0000001300000000
#0071b:0000000000130013
#00716:0000000000130013
#00719:0000001300000000
#00712:1313000000000000
#00717:1313000000000000
#00714:0000001300000000
#00710:41
#00617:000000000000000000000000000000000000000000000000000000000000000000000000000000000000000000000000000000000000000000000000000000000000000000000000000000000000000000000000000000000000000000000000000000000000000000000000000000000000000000000000000000000000000000000000000000000000000000000000000000000000000000000000000000000000000000000000000000000000000000000000000000000000000000000000000000000000000000000000000000000000000000000000000000000000000000000000000000000000000000000000000000000000000000000000000000000000000000000000000000000000000000000000000000000000000000000000000000000000000000000000000000000000000000000000000000000000000000000000000000000000000000000000000000000000000000000000000000000000000000000000000000000000000000000000000000000000000000000000000000000000000000000000000000000000000000000000000000000000000000000000000000000000000000000000000000000000000000000000000000000000000000000000000000000000000000000000000000000000000000000000000000000000000000000000000000000000000000000000000000000000000000000000000000000000000000000000000000000000000000000000000000000000000000000000000000000000000000000000000000000000000000000000000000000000000000000000000000000000000000000000000000000000000000000000000000000000000000000000000000000000000000000000000000000000000000000000000000000000000000000000000000000000000000000000000000000000000000000000000000000000000000000000000000000000000000000000000000000000000000000000000000000000000000000000000000000000000000000000000000000000000000000000000000000000000000000000000000000000000000000000000000000000000000000000000000000000000000000000000000000000000000000000000000000000000000000000000000000000000000000000000000000000000000000000000000000000000000000000000000000000000000000000000000000000000000000000000000000000000000000000000000000000000000000000000000000000000000000000000000000000000000000000000000000000000000000000000000000000000000000000000000000000000000000000000000000000000000000000000000000000000000000000000000000000000000000000000000000000000000000000000000000000000000000000000000000000000000000000000000000000000000000000000000000000000000000000000000000000000000000014000000000000000000000000000000000000000000000000000000000000000000000000000000000000000000000000000000000000000000000000000000000000000000000000000000000000000000000000000000000000000000000000000000000000000000000000000000000000000000000000000000000000000000000000000000000000000000000000000000000000000000000000000000000000000000000000000000000000000000000000000000000000000000000000000000000000000000000000000000000000000000000000000000000000000000000000000000000000000000000000000000000000000000000000000000000000000000000000000000000000000000000000000000000000000000000000000000000000000000000000000000000000000000000000000000000000000000000000000000000000000000000000000000000000000000000000000000000000000000000000000000000000000000000000000000000000000000000000000000000000000000000000000000000000000000000000000000000000000000000000000000000000000000000000000000000000000000000000000000000000000000000000000000000000000000000000000000000000000000000000000000000000000000000000000000000000000000000000000000000000000000000000000000000000000000000000000000000000000000000000000000000000000000000000000000000000000000000000000000000000000000000000000000000000000000000000000000000000000000000000000000000000000000000000000000000000000000000000000000000000000000000000000000000000000000000000000000000000000000000000000000000000000000000000000000000000000000000000000000000000000000000000000000000000000000000000000000000000000000000000000000000000000000000000000000000000000000000000000000000000000000000000000000000000000000000000000000000000000000000000000000000000000000000000000000000000000000000000000000000000000000000000000000000000000000000000000000000000000000000000
#00615:00000000000000000014000000000000
#0061b:0000001300000000
#00612:0000001300002600
#00618:00000026
#00518:0000000000130013
#00512:13
#0051b:13
#00515:00000013
#00818:0000001300000000
#00815:00130000
#00812:0013000000001300
#05412:0000131300000000
#05416:1300000000130000
#05417:0000001300000013
#0541b:13
#0551b:0000131300000000
#05517:1300000000130000
#05516:0000001300000013
#05512:13
#00118:1300000000130000
#0011b:00000000000013000000000000130000
#00115:0000131300000000
#00112:23
#0731b:0013000013000000
#07312:0013
#07318:00130000
#07315:0000001300000000
#07212:1313000000130000
#0721b:1313000000130000
#06912:0013
#0691b:0013000000001300
#06918:00130000
#06915:0000001300000000
#06716:14000000001400000000000000000000
#06712:1400002c
#0671a:0000000000140000
#0661a:1400000000000014
#06616:14000000001400000000000014000000
#06612:0000000000140000
#06412:0000000000130000
#0641b:0000001300000013
#06416:0000131300000000
#0651b:0000000000130000
#06512:0000001300000013
#06517:1300131300000000
#06317:0000000000131300
#06312:13000013
#0631b:0000131300000000
#06316:0000001300000000
#06216:0000000000131300
#0621b:13000013
#06212:1300131300000000
#06217:0000001300000000
#06210:41
#06115:0000001323000000
#06118:00132300
#06112:24
#06016:00140014
#06012:24000014
#0601a:24142400
#05316:14001413
#05312:0000001313000000
#0531b:0000000000000013
#05317:00130000
#05912:0000130000000013
#05919:0000001300000000
#0591b:0013
#05915:0014
#0591a:14
#05917:00000013
#05816:00140014
#0581a:24000014
#05812:24142400
#05616:1300000000000013
#05614:0000000000130000
#05612:0000131300000000
#0561b:2300000000000023
#05619:0000000000230000
#05617:0000232300000000
#05717:0013000000000000
#05712:0013000000130000
#05718:0000000000000013
#05715:00000013
#05719:00330000
#05714:00330000
#05216:00140014
#05212:24000014
#0521a:24142400
#05016:00140014
#0501a:24000014
#05012:24142400
#0501f:21
#04616:14000014
#0461a:00140000
#04619:0013
#04416:0000001313000000
#0441b:0000000000000013
#0441a:0014
#04412:23
#04212:0000000000130000
#04216:0000131300000013
#0421a:00540054
#04719:1313
#04716:00000014
#0471a:00140000
#0451b:2300000000130013
#04512:1414
#04517:0000001300000000
#04516:00000014
#04314:00000013
#04316:0013
#0431a:00540054
#04119:00000013
#04117:0013
#04112:00540054
#0391a:0000000000140000
#03918:00140000
#03916:00000024
#03914:0000002400000000
#03912:24
#03812:0000000000140000
#03814:00140000
#03816:00000024
#03818:0000002400000000
#0381a:24
#03017:00000000001300000000000000000000
#03012:1300000000130000
#03015:0000000000000013
#03018:00000013
#0301b:13
#03115:0000000000000013
#03118:00000013
#0311b:0000000000130000
#03116:0013
#03119:0000001300000000
#03114:00130000
#03117:0013000000000000
#03112:13
#02915:0000000000000013
#0291b:1300000000130000
#02917:0000001300000000
#02912:0000131300000000
#02918:00000013
#02812:1313000000001300
#02817:1313000000001300
#0271b:00130013
#02716:00130013
#02712:0013
#02717:0013
#0261b:00000013
#02616:00000013
#02612:0013
#02617:0013
#02512:1300130000000013
#02517:0000000000000013
#02516:0000000000130000
#0251b:1313
#02412:0013000000130013
#0241b:0013001300000013
#02418:13
#02315:0000000013000013
#02319:00130000
#02312:14
#0231a:14
#02318:0023
#02314:00230000
#02115:0000001300130013
#0211b:0000131300130000
#02112:13
#02212:00000013000000000000000013000000
#0221b:0013
#02216:0000000000140014
#0201b:1313000000001300
#02015:1313000000001300
#02018:0000001300000000
#01718:0000000000000013
#01712:1300000000130000
#01715:00130000
#0171b:1313
#01615:1300001300000013
#01618:0013000000130000
#01512:1600000000000013
#01518:2613
#0151b:00130000
#0141a:0000002400001400
#01416:1400001400000000
#01412:24000024
#01212:0013000000000000
#01215:0000001300000000
#01218:00130000
#0121b:0013000000000000
#0111b:1300000000130000
#01112:1313000000000000
#01118:0000000000000013
#01115:0000001300000000
#00412:0000131300000013
#00418:1300000000130000
#0041b:0000001300000000
#00415:13
#00315:1300000000130000
#0031b:0000131300000013
#00312:0000001300000000
#00318:13
#00212:1300000000130000
#0021b:0000131300000000
#00215:0000001300001600
#07612:26
#07618:26
#07613:0000000000000000000000000000000000000000000000000000000000000063
#07614:00000000000000000000000000000063
#07615:0000000000000000000000000000000000000000000000000000000000630000
#07616:0000000000000063
#03316:2400002424002400
#0331a:24
#03216:2400002424002400
#03212:24
#03210:41
#0491b:23
#0491a:00240000
#04919:0025
#04918:00000026
#07712:63
#0745b:4300006300004300
#07452:5300003300003300
#07457:00000000000000000023000000000000
#07456:00000023000000000000000000000000
#0135b:13000013
#01352:0000001300000000
#01358:0000005300000000
#01355:63
#07552:3400005400003400
#0755a:6400004400004400
#07556:00000024000000000024000000000000
#0375a:00000014
#03756:00005414
#03556:00000014
#03552:00000014
#0355a:0064
#0335a:00000014
#03356:00000014
#03652:00000014
#03656:00006414
#03456:00000014
#0345a:00000014
#03452:0054
#03252:00000014
#03256:00000014
#07358:00000013
#07355:00000013
#0735b:0063
#07352:0053
#07257:0000000000000013
#07256:0000001300000000
#0725b:0000000000630000
#07252:0053000000000000
#07157:00000013
#0715b:0063
#07152:00000013
#06956:00000013
#06952:0053
#0695b:00000013
#06556:0000000000130000
#0655b:0000000000630000
#06557:1300005300000000
#06552:0000005300000000
#06457:0000000000130000
#06456:1300006300000000
#06452:0000000000530000
#0645b:0000006300000000
#06357:13
#06352:53000053
#06356:0000006300000000
#06152:54000014
#0615a:44000014
#06155:0063
#06158:0053
#06052:2434
#0605a:4424
#06056:00240024
#05952:34
#05955:0064
#0595a:64
#0585a:2444
#05852:3424
#05856:00240024
#05756:0000001300000000
#0575b:0000001300000000
#05757:0053000000000000
#05752:0053000000000000
#05552:5300000000130000
#05557:1300000000530000
#05556:0000006300000000
#0555b:0000006300000000
#0545b:6300000000130000
#05456:1300000000630000
#05457:0000005300000000
#05452:0000005300000000
#0535a:14
#05356:6454
#05252:5414
#0525a:1464
#05256:00640054
#05152:14
#05156:5464
#0505a:6414
#05052:1454
#05056:00540064
#04352:00130000
#0415b:00130000
#02856:0000001300000000
#0285b:0000001300000000
#02852:0053000000005300
#02857:0053000000000000
#02752:13
#02757:13
#0265b:00130063
#02656:00130063
#02652:0053
#02657:0053
#02158:0000000000000013
#02155:0000000000000063
#0215b:0000000000630000
#02152:53
#02052:0000001300000000
#0205b:00000063
#02055:0063000000000000
#02058:0000001300000000
#0125b:00000013
#01252:00000013
#01152:0000000000000013
#0115b:0000001300000000
#01052:00000013
#0105b:00000013
#00258:13
#0025b:0000006300000000
#00252:53
#00255:0000001300001600
#0085b:00000013
#00852:00000013
#01558:16
#01552:66
#01452:14000014
#0145a:0000001400000000
#01456:5400006400000000
#07652:56
#07658:16
#00652:0000005300003600
#00658:00000046
#00657:000000000000000000000000000000000000000000000000000000000000000000000000000000000000000000000000000000000000000000000000000000000000000000000000000000000000000000000000000000000000000000000000000000000000000000000000000000000000000000000000000000000000000000000000000000000000000000000000000000000000000000000000000000000000000000000000000000000000000000000000000000000000000000000000000000000000000000000000000000000000000000000000000000000000000000000000000000000000000000000000000000000000000000000000000000000000000000000000000000000000000000000000000000000000000000000000000000000000000000000000000000000000000000000000000000000000000000000000000000000000000000000000000000000000000000000000000000000000000000000000000000000000000000000000000000000000000000000000000000000000000000000000000000000000000000000000000000000000000000000000000000000000000000000000000000000000000000000000000000000000000000000000000000000000000000000000000000000000000000000000000000000000000000000000000000000000000000000000000000000000000000000000000000000000000000000000000000000000000000000000000000000000000000000000000000000000000000000000000000000000000000000000000000000000000000000000000000000000000000000000000000000000000000000000000000000000000000000000000000000000000000000000000000000000000000000000000000000000000000000000000000000000000000000000000000000000000000000000000000000000000000000000000000000000000000000000000000000000000000000000000000000000000000000000000000000000000000000000000000000000000000000000000000000000000000000000000000000000000000000000000000000000000000000000000000000000000000000000000000000000000000000000000000000000000000000000000000000000000000000000000000000000000000000000000000000000000000000000000000000000000000000000000000000000000000000000000000000000000000000000000000000000000000000000000000000000000000000000000000000000000000000000000000000000000000000000000000000000000000000000000000000000000000000000000000000000000000000000000000000000000000000000000000000000000000000000000000000000000000000000000000000000000000000000000000000000000000000000000000000000000000000000000000000000000000000000000000000000000000000024000000000000000000000000000000000000000000000000000000000000000000000000000000000000000000000000000000000000000000000000000000000000000000000000000000000000000000000000000000000000000000000000000000000000000000000000000000000000000000000000000000000000000000000000000000000000000000000000000000000000000000000000000000000000000000000000000000000000000000000000000000000000000000000000000000000000000000000000000000000000000000000000000000000000000000000000000000000000000000000000000000000000000000000000000000000000000000000000000000000000000000000000000000000000000000000000000000000000000000000000000000000000000000000000000000000000000000000000000000000000000000000000000000000000000000000000000000000000000000000000000000000000000000000000000000000000000000000000000000000000000000000000000000000000000000000000000000000000000000000000000000000000000000000000000000000000000000000000000000000000000000000000000000000000000000000000000000000000000000000000000000000000000000000000000000000000000000000000000000000000000000000000000000000000000000000000000000000000000000000000000000000000000000000000000000000000000000000000000000000000000000000000000000000000000000000000000000000000000000000000000000000000000000000000000000000000000000000000000000000000000000000000000000000000000000000000000000000000000000000000000000000000000000000000000000000000000000000000000000000000000000000000000000000000000000000000000000000000000000000000000000000000000000000000000000000000000000000000000000000000000000000000000000000000000000000000000000000000000000000000000000000000000000000000000000000000000000000000000000000000000000000000000000000000000000000000000000000000000000000000
#00655:00000000000000000024000000000000
#0065b:0000006300000000
#0565b:0000000000000063
#05656:0000000000000063
#03956:00000014
#03954:0000001400000000
#03952:14
#03856:00000014
#03858:0000001400000000
#0385a:14
#00152:13
#00158:5300000000530000
#0015b:00000000000000000000000000230000
#00155:0000006300000000
#06752:5400001c
#06756:14000000002400000000000000000000
#0485b:63
#0485a:00000014
#04852:00140000
#07052:0000001300000000
#07056:0000000000000013
#0685b:0000001300000000
#06857:0000000000000013
#00952:0000000000000053
#00957:0000000000000013
#0075b:0000000000000063
#00756:0000000000000013
#00552:53
#0055b:13
#06656:14000000002400000000000000000000
#0665a:64
#0625b:63000063
#06257:0000005300000000
#06252:13
#04656:64000014
#0465a:00140000
#04456:0063
#0445a:0014
#04252:0000000000530000
#04256:0000006300000063
#0405b:0000000000630000
#04057:0000005300000053
#04552:0014
#04556:00000014
#04756:00000014
#0475a:00140000
#03057:00000000002300000000000000000000
#03052:13
#0305b:63
#02952:0000005300000000
#0295b:63
#02552:0000530000000053
#02557:0000000000000053
#02556:0000000000630000
#0255b:63
#0245b:0000006300000000
#02452:0053000000000000
#02355:0013
#02359:00130000
#02252:00000023000000000000000000000000
#01858:00000053
#0185b:00230000000000000000000000000000
#01855:0063
#01758:0000000000000053
#01752:0000000000530000
#01755:00630000
#0175b:63
#01655:0000006300000000
#01658:0053000000000000
#00458:5300000000530000
#00452:0000005300000000
#00455:13
#00355:6300000000630000
#0035b:0000006300000000
#00358:13
#001380:13
#0013b0:00230000
#001350:0000001300000000
#001320:0000000000230000
#001381:0000000000130000
#0013b1:00000000000000000000000000530000
#002381:23
#002320:13
#002350:00230000
#0023b0:0000001300000000
#002380:0000000000230000
#003350:13
#003320:00230000
#0033b0:0000001300000000
#003380:0000000000230000
#003351:0000000000130000
#003321:0000000000000023
#004381:13
#0043b1:00230000
#004321:0000001300000000
#004351:0000000000230000
#004380:0000000000130000
#0043b0:0000000000000023
#005320:13
#005350:0000000000230000
#006320:1333333300002600
#006350:00000000000000000054000000000000
#0063b1:1333333300000000
#006371:000000000000000000000000000000000000000000000000000000000000000000000000000000000000000000000000000000000000000000000000000000000000000000000000000000000000000000000000000000000000000000000000000000000000000000000000000000000000000000000000000000000000000000000000000000000000000000000000000000000000000000000000000000000000000000000000000000000000000000000000000000000000000000000000000000000000000000000000000000000000000000000000000000000000000000000000000000000000000000000000000000000000000000000000000000000000000000000000000000000000000000000000000000000000000000000000000000000000000000000000000000000000000000000000000000000000000000000000000000000000000000000000000000000000000000000000000000000000000000000000000000000000000000000000000000000000000000000000000000000000000000000000000000000000000000000000000000000000000000000000000000000000000000000000000000000000000000000000000000000000000000000000000000000000000000000000000000000000000000000000000000000000000000000000000000000000000000000000000000000000000000000000000000000000000000000000000000000000000000000000000000000000000000000000000000000000000000000000000000000000000000000000000000000000000000000000000000000000000000000000000000000000000000000000000000000000000000000000000000000000000000000000000000000000000000000000000000000000000000000000000000000000000000000000000000000000000000000000000000000000000000000000000000000000000000000000000000000000000000000000000000000000000000000000000000000000000000000000000000000000000000000000000000000000000000000000000000000000000000000000000000000000000000000000000000000000000000000000000000000000000000000000000000000000000000000000000000000000000000000000000000000000000000000000000000000000000000000000000000000000000000000000000000000000000000000000000000000000000000000000000000000000000000000000000000000000000000000000000000000000000000000000000000000000000000000000000000000000000000000000000000000000000000000000000000000000000000000000000000000000000000000000000000000000000000000000000000000000000000000000000000000000000000000000000000000000000000000000000000000000000000000000000000000000000000000000000000000000000000000054000000000000000000000000000000000000000000000000000000000000000000000000000000000000000000000000000000000000000000000000000000000000000000000000000000000000000000000000000000000000000000000000000000000000000000000000000000000000000000000000000000000000000000000000000000000000000000000000000000000000000000000000000000000000000000000000000000000000000000000000000000000000000000000000000000000000000000000000000000000000000000000000000000000000000000000000000000000000000000000000000000000000000000000000000000000000000000000000000000000000000000000000000000000000000000000000000000000000000000000000000000000000000000000000000000000000000000000000000000000000000000000000000000000000000000000000000000000000000000000000000000000000000000000000000000000000000000000000000000000000000000000000000000000000000000000000000000000000000000000000000000000000000000000000000000000000000000000000000000000000000000000000000000000000000000000000000000000000000000000000000000000000000000000000000000000000000000000000000000000000000000000000000000000000000000000000000000000000000000000000000000000000000000000000000000000000000000000000000000000000000000000000000000000000000000000000000000000000000000000000000000000000000000000000000000000000000000000000000000000000000000000000000000000000000000000000000000000000000000000000000000000000000000000000000000000000000000000000000000000000000000000000000000000000000000000000000000000000000000000000000000000000000000000000000000000000000000000000000000000000000000000000000000000000000000000000000000000000000000000000000000000000000000000000000000000000000000000000000000000000000000000000000000000000000000000000000000000000000000000000
#006381:00000026
#0073b1:0000000000000013
#008371:0023000000000000
#0083b1:00001323
#009321:0000000000000013
#010361:0023000000000000
#010321:00001323
#0113b1:0013002300000000
#011321:0000000000130023
#0123b1:00001323
#012320:00001323
#013350:13
#013320:0000002300000000
#013381:0000001300000000
#0133b1:00000023
#014361:14
#0143a1:0000002400000000
#014360:0000001400000000
#014320:00000024
#015320:1623
#016380:0013000000000000
#0163b0:0000002300000000
#016351:0000001300000000
#016321:0000000000230000
#0173b1:13
#017381:00230000
#017350:00130000
#017320:0023
#017320:0000000000130000
#017350:0000000000000023
#017381:0000000000000013
#0183b1:00530000000000000000000000000000
#018381:00230000
#018351:0013
#018321:00000023
#018380:00000013
#0193b0:23
#020350:0013000000000000
#020320:0000002300000000
#0203b0:00000013
#021380:23
#021321:13
#021351:00230000
#0213b1:0000000000130000
#021381:0000000000000023
#021350:0000000000000013
#022320:00000053000000000000000000000000
#022350:0023
#024320:0013000000000000
#024360:0000002300000000
#0243b1:0000001300000000
#024371:0000000000230000
#0253b1:13
#025371:00230000
#025320:00130000
#025360:0023
#025360:0000000000130000
#025320:0000000000000033
#026360:00230000
#025371:0000000000000013
#0263b1:00230000
#026321:0013
#026361:00000033
#027321:23
#026370:0013
#0263b0:00000033
#027370:23
#028320:0013000000000000
#028360:0000002300000000
#028371:0013000000000000
#0283b1:0000002300000000
#028321:00000013
#029361:23
#0293b0:13
#029370:00230000
#029320:0000001300000000
#029360:0000000000230000
#0303b0:1300000000230000
#030370:00000000005300000000000000000000
#032320:1400003434002400
#0333a0:1400003434002400
#034320:1400003434000000
#034360:00000024
#0353a0:1400003434000000
#035360:00000024
#036360:1400003434000000
#036320:00000024
#037360:1400003434000000
#0373a0:00000024
#040320:14
#042320:24
#040371:0000001300000033
#0403b1:0000000000330000
#0413b1:00230000
#0423a1:14
#0443a1:24
#042360:0000001300000033
#042320:0000000000330000
#043320:00230000
#0443a1:0014002400000000
#044361:0013
#044321:0000000000000023
#045321:0014002400000000
#046361:14
#046321:00000054
#047321:0024
#0483b1:13
#048381:0023
#049321:13000026
#0503a1:1424
#050361:00340000
#050320:0014
#050360:00000034
#051320:24
#051361:14
#0513b1:00230000
#051361:0014
#051321:00000023
#052321:1424
#052361:00340000
#0523a0:0014
#052360:00000034
#0533a0:24
#053361:14
#053321:00230000
#053361:0014
#0533b1:00000023
#0543b1:1300000000230000
#054371:0000333300000000
#054320:0000001300000023
#054360:0000000000330000
#055320:1300000000230000
#055360:0000333300000000
#0553b1:0000001300000023
#055371:0000000000330000
#056361:0000000000000013
#057321:0033000000000000
#057341:00330000
#057361:0000002300000000
#0563b0:0000000000000013
#057370:0033000000000000
#057390:00330000
#0573b0:0000002300000000
#0583a0:1424
#058360:00340000
#058321:0014
#058361:00000034
#059321:24
#0593a0:14
#059370:00230000
#059350:0014
#059320:00000023
#060320:1424
#060360:00340000
#0603a1:0014
#060361:00000034
#0613a1:24
#061320:14
#061350:00230000
#061350:0013
#061320:00000024
#061381:0013
#0613a1:00000024
#0623b1:13
#062371:00230000
#062371:0000001300000000
#0623b1:0000000000230000
#0623b1:00000013
#063371:23
#063320:13
#063360:00230000
#063360:0000001300000000
#063320:0000000000230000
#063320:00000013
#064360:23
#0643b1:1300003300000000
#064371:0000000000230000
#064360:0000001300000023
#064320:0000000000330000
#065320:1300003300000000
#065360:0000000000230000
#065371:0000001300000023
#0653b1:0000000000330000
#0663a1:1400000000240000
#066361:00000000005400000000000000000000
#067321:1400000000240000
#067361:00000000005400000000000000000000
#068361:0000001300230000
#068321:0000000000000013
#069321:0023000000000000
#069321:0013
#069361:00000023
#070371:0000001300230000
#0703b1:0000000000000013
#0713b1:0023000000000000
#0713b1:0013
#071371:00000023
#072321:0013000000000000
#072361:0000002300000000
#0723b0:0000001300330000
#072370:0000000000000023
#072321:0000000000000013
#073321:0023000000000000
#0733b1:0013
#073381:00000023
#073320:0013
#073350:00000023
#074320:1300002300000000
#074360:00000053000000000000000000000000
#0743b1:0000001300002300
#074371:00000000000000000053000000000000
#0753a1:1400002400000000
#075361:00000054000000000000000000000000
#075320:0000001400002400
#075360:00000000000000000054000000000000
#076320:16
#076360:0000000000000023
#076960:0000000000000013
#077920:23
