This file was generated by Ched 2.7.0.0.
#TITLE ""
#ARTIST ""
#DESIGNER ""
#DIFFICULTY 0
#PLAYLEVEL
#SONGID ""
#WAVE ""
#WAVEOFFSET 0
#JACKET ""
#REQUEST "ticks_per_beat 480"
#00002: 4
#BPM01: 181
#00008: 01
#TIL00: ""
#VOLUME: ""
#HISPEED 00
#MEASUREHS 00
#05415:0000001300000013
#05412:13
#0541b:0000001300000000
#01312:13
#01315:0000001300000000
#0231b:13
#02312:13
#02315:0000130000000013
#02318:0013
#01518:0000130000000013
#01515:0013
#01512:24
#01615:1300000000000013
#01618:0013000000000000
#0161b:0000001300000000
#02015:00000013
#02012:13
#02018:0013000000000000
#02115:0000001300000000
#0211b:0000000000130000
#02118:0000130000000013
#03118:1300000000000013
#03112:0013000000000000
#0311b:0000130000130000
#03115:0000001300001300
#04718:00000013
#04015:00130000
#04018:0000001300000013
#0401b:0000000000130000
#0401f:11
#0401a:24
#04115:0013
#04118:00000013
#04318:0013
#04315:00000013
#04818:00000013
#04815:1300000000000013
#0451b:0013000000000013
#04515:0000000000130000
#04512:2400000000000013
#05014:24140000
#0501a:24140000
#05018:00002414
#05012:00002414
#0501f:21
#05512:0000001300000013
#0551b:13
#05518:0000001300000023
#05912:00000014000000000000000000000000
#0591a:1414
#05914:1414
#05918:00000014000000000000000000000000
#06312:00000013
#06318:00130013
#06315:0000001300000000
#06415:0000130000000013
#0641b:0000001300000000
#0011b:13
#00118:0000333300130000
#00215:00130000
#0021b:0000001300000000
#00315:1300000000000033
#00312:0000333300130000
#00418:1300000000000033
#0041b:0000333300130000
#00515:13
#0061b:13
#00612:13
#00618:00000024
#00614:00000024
#00718:13
#00710:41
#0111b:13
#01417:0000001400000000
#0141a:24
#01718:1300000000000013
#01712:0013
#0171b:0000000000130000
#01812:0013
#01815:00000013
#0191b:00130000
#01918:0013
#01915:00000013
#01910:41
#02418:1300000000000013
#02415:0013000000000000
#02412:0000001300000000
#02818:00000013
#0281b:13
#02815:0013000000000000
#02918:0000001300001300
#02915:0000130000000013
#02912:0000000000130000
#02515:1300000000000013
#0251b:0013
#02512:0000000000130000
#0261b:0013
#02618:00000013
#02712:00130000
#02715:0013
#02718:00000013
#03212:2313
#03210:41
#03816:0000001400000000
#0381a:14000024
#03916:0000001400000000
#03912:14000024
#04212:1400000000130000
#04218:00130000
#04215:0000001300000013
#04412:0013000000000000
#04418:0000000000000013
#0441a:24
#05218:24140000
#05212:24140000
#05214:00002414
#0521a:00002414
#05112:0014
#0511a:14
#05118:0014
#05114:14
#05110:41
#0531a:0014
#05312:14
#05314:0014
#05318:14
#05618:2300000000130000
#05612:1300000000130000
#05615:0000001300000000
#0561b:0000001300000000
#05715:0013000000000000
#0571b:0023000000000000
#05719:00330000
#05713:00330000
#05812:00140014
#05818:00140014
#05814:2424
#0581a:2424
#0611a:00000014000000000000000000000000
#06112:1414
#06118:1414
#06114:00000014000000000000000000000000
#0601a:00140014
#06014:00140014
#06018:2424
#06012:2424
#06215:0000001300000000
#06212:13000013
#0621b:13000013
#06218:0000001300000000
#06210:41
#06518:1300130000000013
#06512:1300001300000000
#06615:1300000000000013
#0661b:13
#06712:13
#06718:13
#0671a:00000024
#06714:00000024
#06812:1313000000130000
#06815:0000001300000000
#06818:1313000000130000
#0681b:0000001300000000
#06912:0013000000000000
#06915:00130000
#06918:0000001300000000
#07415:13
#07412:0000001300000000
#0741b:13
#07418:0000001300000000
#0751a:0000001400000000
#07515:0000001400000000
#07512:24
#07517:24
#0711b:0013000000000000
#07118:00130000
#07115:0000001300000000
#0701b:1313000000130000
#07018:0000001300000000
#07015:1313000000130000
#07012:0000001300000000
#07010:41
#0721b:1313000000130000
#07218:0000001300000000
#07212:1313000000130000
#07215:0000001300000000
#07318:0013001300000000
#07315:00130000
#00818:0013000000000000
#00815:00130000
#00915:13
#01015:0013000000000000
#01018:00130000
#01218:0013000000000000
#01215:00130000
#0331b:2313
#03415:2313
#03518:2313
#0361b:2313
#03615:2313
#03712:2313
#03718:2313
#04918:13
#0761a:2400000000000000000000000000000000000000000000000000000000000063
#07615:2400000000000000000000000000000000000000000000000000000000000063
#07617:0000000000000063
#07618:0000000000000000000000000000000000000000000000000000000000630000
#07619:00000000000000000000000000000063
#07614:00000000000000000000000000000063
#07613:0000000000000000000000000000000000000000000000000000000000630000
#07612:0000000000000063
#0771b:63
#07716:63
#05054:14
#0505a:14
#05058:0014
#05052:0014
#01352:53000013
#01355:0000006300000000
#00658:00000014
#00654:00000014
#0065b:63
#00652:53
#01658:0053000000000000
#0165b:0000006300000000
#02055:00000063
#02058:0053000000000000
#0205b:0000001300000000
#0215b:0000000000630000
#02158:0000000000000053
#0385a:64000014
#03856:0000005400000000
#0415b:00130000
#04058:0000005300000053
#0405b:0000000000630000
#0455b:0063000000000063
#04558:0000001300000000
#04555:0000000000630000
#04552:0000000000000053
#05952:00000024000000000000000000000000
#0595a:6464
#05954:6464
#05958:00000024000000000000000000000000
#06352:00000053
#06355:1300001300000000
#06358:13000053
#0645b:1300006300000000
#06455:13
#0015b:63
#00158:0000000000530000
#0025b:1300006300000000
#00258:00000013
#00355:63
#00352:0000000000530000
#00458:53
#0045b:0000000000630000
#00555:63
#0085b:00000013
#0125b:00000013
#01252:00000013
#01457:0000005400000000
#0145a:64000014
#01758:5300000000000053
#0175b:0000000000630000
#01852:0053
#01855:00000063
#02455:0063000000000000
#02452:0000005300000000
#02858:00000053
#02855:0063000000000000
#02852:0000001300000000
#02555:6300000000000063
#02552:0000000000530000
#0265b:0063
#02658:00000053
#02955:0000000000000063
#03252:0053
#03255:00000013
#03956:0000006400000000
#03952:54000014
#04255:0000006300000063
#04252:0000000000530000
#04352:00130000
#04452:0053000000000000
#04455:0000001300000000
#05258:14
#05252:14
#05254:0014
#0525a:0014
#05152:0054
#0515a:64
#05158:0054
#05154:64
#0535a:0064
#05352:54
#05354:0064
#05358:54
#05452:5300000000130000
#05455:0000006300000000
#0545b:0000006300000000
#05458:0000000000130000
#0555b:6300000000130000
#05558:0000005300000000
#05552:0000005300000000
#05555:0000000000130000
#05658:5300000000530000
#05652:5300000000530000
#05655:0000006300000013
#0565b:0000006300000013
#05755:0063000000000000
#05752:0000001300000000
#05758:0000001300000000
#0575b:0063000000000000
#05854:1414
#0585a:1414
#0615a:00000024000000000000000000000000
#06152:5454
#06158:5454
#06154:00000024000000000000000000000000
#06058:1414
#06052:1414
#06255:0000006300000000
#06252:53000053
#0625b:63000063
#06258:0000005300000000
#06552:0000005300000000
#06652:0000000000130000
#06658:0000000000130000
#0665b:63
#06655:63
#06752:53
#06758:53
#0675a:00000014
#06754:00000014
#06855:0000006300000013
#06852:0053000000530000
#06858:0053000000530000
#0685b:0000006300000013
#0695b:00000013
#07455:63000013
#07452:0000005300000000
#0745b:63000013
#07458:0000005300000000
#0755a:0000006400000000
#07555:0000006400000000
#07557:54000014
#07552:54000014
#07152:00000013
#0705b:0063000000630000
#07058:0000005300000013
#07055:0063000000630000
#07052:0000005300000013
#0725b:0063000000630000
#07258:0000005300000013
#07252:0053000000530000
#07255:0000006300000013
#0735b:00000013
#07352:00000013
#00752:0000000000000013
#01052:00000013
#0095b:0000000000000013
#01155:0000000000000013
#0335b:0063
#03358:00000013
#03455:0063
#03452:00000013
#03558:0053
#0355b:00000013
#0365b:0063
#03658:00000013
#03655:0063
#03652:00000013
#03752:0053
#03758:0053
#03755:00000013
#0375b:00000013
#0765a:64
#07655:64
#01552:14
#04855:63
#04958:53
#0013b0:13
#001380:0000333300330000
#0023b0:23
#0023b0:0000001300000000
#002380:00000023
#003350:1300000000000033
#003320:0000333300330000
#004350:23
#004381:1300000000000033
#0043b1:0000333300330000
#005381:23
#005350:13
#005320:0000000000330033
#006320:33
#006340:00000024
#0053b1:0000000000130033
#0063b1:33
#006381:00000024
#007351:0013003300000000
#007321:0000000000330023
#0083b1:00001323
#009381:0013003300000000
#0093b1:0000000000330023
#010321:00001323
#011321:0013003300000000
#011351:0000000000330023
#0123b1:00001323
#012320:00001323
#013320:13000023
#013350:0000003300000000
#0143a0:14000024
#014370:0000003400000000
#016380:0013000000230000
#0163b0:0000003300000000
#017380:13
#0173b0:00230000
#0173b0:0000000000130000
#017380:0000000000000033
#0183b0:00230000
#018320:0013
#018350:00000033
#019320:23
#020380:0013000000000000
#0203b0:0000002300000000
#020350:00000013
#021320:23
#0213b0:0000000000130000
#021380:0000000000000033
#0223b0:00000023
#024350:0013000000230000
#024320:0000003300000000
#025350:13
#025320:00230000
#025320:0000000000130000
#025350:0000000000000033
#026320:00230000
#0263b0:0013
#026380:00000033
#0273b0:23
#028350:0013000000000000
#028320:0000002300000000
#028380:00000013
#0293b0:23
#029350:0000000000000013
#030320:00000023
#032320:1300003333000000
#032350:00000023
#0333b0:1300003333000000
#033380:00000023
#034350:1300003333000000
#034320:00000023
#035380:1300003333000000
#0353b0:00000023
#0363b0:1300003333000000
#036380:00000023
#036351:1300003333000000
#036321:00000023
#037321:1300003333000000
#037351:00000023
#037380:1300003333000000
#0373b0:00000023
#0383a0:14000024
#038360:0000343400000000
#039320:14000024
#039360:0000343400000000
#040380:0000001300000033
#0403b0:0000000000330000
#0413b0:00230000
#042350:0000001300000033
#042320:0000000000330000
#043320:00230000
#044320:0013000000000000
#044350:0000002300000000
#0453b0:0013000000000000
#045380:0000002300000000
#045350:0000000000130000
#045320:0000000000000033
#047350:0023
#0453b1:0000000000000013
#047381:0023
#048351:13
#048321:0000000000230000
#049381:13
#0493b1:00000023
#0513a1:14000024
#051381:0000003434000000
#051340:14000024
#051320:0000003434000000
#053320:14000024
#053340:0000003434000000
#053381:14000024
#0533a1:0000003434000000
#054321:1300000000230000
#054351:0000333300000000
#0543b0:0000133300000000
#054380:0000000000230000
#0553b0:1300000000230000
#055380:0000333300000000
#055321:0000133300000000
#055351:0000000000230000
#056321:1300000000330000
#056351:0000333300000023
#056380:1300000000330000
#0563b0:0000333300000023
#0573b0:0013000000000000
#057390:00330000
#057380:0000002300000000
#057351:0013000000000000
#057331:00330000
#057321:0000002300000000
#0593a1:1400003434000000
#059381:00000054000000000000000024000000
#059340:1400003434000000
#059320:00000054000000000000000024000000
#061320:1400003434000000
#061340:00000054000000000000000024000000
#061381:1400003434000000
#0613a1:00000054000000000000000024000000
#062321:1300000000333300
#062351:0000333300000000
#063351:23
#0623b0:1300000000333300
#062380:0000333300000000
#063380:23
#063320:00000013
#064350:23
#063381:00000013
#0643b1:23
#0643b1:0000001300000000
#064381:0000000000230000
#065321:0000001300000000
#065351:0000000000230000
#0663b1:13
#066381:0000000000230000
#066350:13
#066320:0000000000230000
#067320:13
#067340:00000024
#067381:13
#0673a1:00000024
#068321:0013000000330000
#068351:0000003300000023
#068380:0013000000330000
#0683b0:0000003300000023
#0693b0:00001323
#0703b0:0013000000330000
#070380:0000003300000023
#070351:0013000000330000
#070321:0000003300000023
#071321:00001323
#0723b1:0013000000330000
#072381:0000003300000023
#072320:0013000000330000
#072350:0000003300000023
#0733b0:00001323
#073321:00001323
#074351:13000023
#074321:0000003300000000
#0743b0:13000023
#074380:0000003300000000
#075370:14000024
#0753a0:0000003400000000
#075321:14000024
#075351:0000003400000000
#076351:14
#076321:0000000000000023
#0763a0:14
#076370:0000000000000023
#076970:0000000000000013
#0779b0:23
#076921:0000000000000013
#077961:23
