This file was generated by Ched 2.7.0.0.
#TITLE ""
#ARTIST ""
#DESIGNER ""
#DIFFICULTY 0
#PLAYLEVEL
#SONGID ""
#WAVE ""
#WAVEOFFSET 0
#JACKET ""
#REQUEST "ticks_per_beat 480"
#00002: 4
#BPM01: 181
#00008: 01
#TIL00: ""
#VOLUME: ""
#HISPEED 00
#MEASUREHS 00
#05014:00140014
#0501a:2414
#0501f:21
#0511a:14
#05110:41
#04412:14
#04414:00140000
#00213:0014
#00518:14
#00514:0014
#00118:16
#0031a:14
#00312:0014
#0041a:14
#00412:0014
#00714:1414
#00710:41
#00814:1414
#00918:1414
#01018:1414
#01112:14
#0111a:0014
#0121a:0014
#01212:14
#0151a:0014
#01512:24
#01612:14
#0161a:0014
#01714:14
#01718:0014
#01814:14
#01818:0014
#01912:14
#0191a:0014
#01910:41
#02012:14
#0201a:0014
#02114:14
#02118:0014
#02214:14
#02218:0014
#02312:1414
#0231a:00140000
#02418:1414
#02414:00140000
#02512:1414
#0251a:00140014
#02614:1414
#02618:00140000
#0271a:1414
#02712:00140000
#02814:1414
#02818:00140000
#0291a:1414
#02912:00140014
#03018:1414
#03014:00140000
#03112:14
#03114:0014
#0311a:00140000
#03118:00000014
#03814:14
#03818:0014
#03914:14
#03918:0014
#0451a:14
#04518:00140000
#03612:14
#0371a:14
#03414:14
#03518:14
#04612:14
#04616:0014
#0471a:14
#04716:0014
#04812:14
#04814:0014
#04916:14
#04918:0014
#05218:00140014
#05212:2414
#05312:14
#05518:1414
#05514:00140014
#0541a:1414
#05412:00140014
#0561a:14000014
#05612:0014
#05616:00140000
#05712:14000014
#0571a:0014
#05716:00140000
#05814:00140000
#0581a:0014
#05812:00000014
#05818:24
#05918:14
#06018:00140000
#06012:0014
#0601a:00000014
#06014:24
#06114:14
#0631a:14
#06316:00140000
#06312:0014
#06318:00000014
#06218:14
#06214:00140000
#0621a:0014
#06212:00000014
#06210:41
#06414:14
#0641a:00140000
#06412:0014
#06418:00000014
#06512:14
#06516:00140014
#0651a:0014
#06612:14
#06714:14
#06712:00000024
#0681a:14
#06816:0014
#06912:14
#07012:14
#07016:0014
#07010:41
#0711a:14
#0721a:14
#07218:0014
#07214:00140000
#07312:14
#07318:00140000
#07418:1414
#07414:00140014
#07518:1616
#07512:00160016
#07618:16
#0401f:11
#00618:00000024
#03210:41
#0515a:64
#05158:0014
#04452:5414
#04454:00240000
#00158:56
#0455a:6414
#04558:00240000
#03652:54
#03654:0014
#0375a:64
#03758:0014
#03454:64
#03452:0014
#03558:54
#0355a:0014
#0505a:14
#00658:00000014
#01552:14
#00259:14
#03252:0014
#0335a:0014
#05352:54
#05354:0014
#05252:14
#05858:14
#05958:54
#0595a:0014
#06154:64
#06152:0014
#06054:14
#06652:54
#06754:64
#06752:00000014
#06958:00000014
#07154:00000014
#07354:00000014
#07658:56
#001380:16
#002390:24
#006380:14000024
#013340:1424
#014380:1424
#032320:1424
#0333a0:1424
#034340:14
#034320:0024
#035380:14
#0353a0:0024
#036320:14
#036340:0024
#0373a0:14
#037380:0024
#040320:14
#040340:0034
#041320:34
#041340:0024
#0423a0:14
#042380:0034
#0433a0:34
#043380:0024
#044320:1424
#044340:00540000
#0453a0:1424
#045380:00540000
#0513a0:14
#051380:0024
#053320:14
#053340:0024
#059380:14
#0593a0:0024
#061340:14
#061320:0024
#066320:14
#066340:0034
#067340:34
#067320:00000024
#069380:00001424
#071340:00001424
#073340:00001424
#076380:16
#0773a0:24
