This file was generated by Ched 2.7.0.0.
#TITLE ""
#ARTIST ""
#DESIGNER ""
#DIFFICULTY 0
#PLAYLEVEL
#SONGID ""
#WAVE ""
#WAVEOFFSET 0
#JACKET ""
#REQUEST "ticks_per_beat 480"
#00002: 4
#BPM01: 164
#00008: 01
#TIL00: ""
#VOLUME: ""
#HISPEED 00
#MEASUREHS 00
#0001a:14
#00114:14
#00218:14
#00312:14
#00414:0014
#0041a:24
#00410:41
#0051a:14
#00612:14
#00618:0014
#00712:14
#0161a:14
#01610:41
#0171a:14
#01814:14
#01914:14
#02018:14
#02118:14
#02212:14
#02312:14
#02418:14
#02410:41
#02614:14
#0281a:14
#02914:14
#03218:0016
#03212:26
#03210:00410000
#03312:16
#03318:0016
#03612:16
#03618:0016
#03712:16
#03718:0016
#03412:1616
#03518:1616
#04012:14
#04018:0014
#04114:14
#0411a:0014
#05214:14
#05210:41
#05314:14
#05418:14
#05518:14
#05612:14
#05712:14
#0581a:14
#0591a:14
#06014:2414
#0601f:11
#06218:1414
#06412:1414
#0661a:14
#06718:14
#06918:0016
#07012:1616
#07010:41
#07118:1616
#07212:16
#07218:0016
#07312:16
#07318:0016
#07714:16
#07818:0016
#07912:16
#07918:0016
#06812:0000000000000026
#0681f:0000000000000021
#07612:26
#08012:26
#02458:64
#02654:54
#0665a:64
#06758:24
#07754:26
#07652:66
#08052:66
#0083a0:14
#0093a0:24
#010340:14
#011340:24
#012380:14
#013380:24
#014320:14
#015320:24
#024380:14
#0253a0:24
#026340:14
#027320:24
#030380:14
#0303a0:0000000000000034
#0313a0:0024
#038320:1626
#039380:1626
#042320:1424
#0433a0:1424
#044340:14
#045320:34
#046340:34
#047320:24
#048380:14
#0493a0:34
#050380:34
#0513a0:24
#061340:1424
#063380:1424
#065320:1424
#0663a0:14
#067380:34
#0683a0:24
#074320:1626
#075380:1626
#076320:16
#077340:56
#078320:26
#080320:16
#082330:0024000000000000
