This file was generated by Ched 2.7.0.0.
#TITLE ""
#ARTIST ""
#DESIGNER ""
#DIFFICULTY 0
#PLAYLEVEL
#SONGID ""
#WAVE ""
#WAVEOFFSET 0
#JACKET ""
#REQUEST "ticks_per_beat 480"
#00002: 4
#BPM01: 164
#00008: 01
#TIL00: ""
#VOLUME: ""
#HISPEED 00
#MEASUREHS 00
#0001a:12000012
#00017:0012001200120000
#00014:0000120000000012
#0011a:13000013
#00117:0012001300000000
#00113:0000130000000013
#00116:0000000000130000
#0021a:14000014
#00216:0014001400140000
#00212:0000140000000014
#00318:16
#00315:000000000000000000000000000000000000000000000000000000000000000000000000000000000000000000000000000000000000000000000000000000000000000000000000000000000000000000000000000000000000000000000000000000000000000000000000000000000000000000000000000000000000000000000000000000000000000000000000000000000000000000000000000000000000000000000000000000000000000000000000000000000000000000000000000000000000000000000000000000000000000000000000000000000000000000000000000000000000000000000000160000000000000000000000000000000000000000000000000000000000000000000000000000000000000000000000000000000000000000000000000000000000000000000000000000000000000000000000000000000000000000000000000000000000000000000000000000000000000000000000000000000000000000000000000000000000000000000000000000000000000000000000000000000000000000000000000000000000000000000000000000000000000000000000000000000000000000000000000000000000000000000000000000000000000000000000000000000000000000000000000000000000000000000000000000000000000000000000000000000000000000000000000000000000000000000000000000000000000000000000000000000000000000000000000000000000000000000000000000000000000000000000000000000000000000000000000000000000000000000000000000000000000000000000000000000000000000000000000000000000000000000000000000000000000000000000000000000000000000000000000000000000000000000000000000000000000000000000000000000000000000000000000000000000000000000000000000000000000000000000160000000000000000000000000000000000000000000000000000000000000000000000000000000000000000000000000000000000000000000000000000000000000000000000000000000000000000000000000000000000000000000000000000000000000000000000000000000000000000000000000000000000000000000000000000000000000000000000000000000000000000000000000000000000000000000000000000000000000000000000000000000000000000000000000000000000000000000000000000000000000000000000000000000000000000000000000000000000000000000000000000000000000000000000000000000000000000000000000000000000000000000000000000000000000000000000000000000000000000000000000000000000000000000000000000000000000000000000000000000000000000000000000000000000000000000000000000000000000000000000000000000000000000000000000000000000000000000000000000000000000000000000000000000000000000000000000000000000000000000000000000000000000000000000000000000000000000000000000000000000000000000000000000000000000000000000000000000000000000000000000000000000000000000000000000000000000000000000000000000000000000000000000000000000000000000000000000000000000000000000000000000000000000000000000000000000000000000000000000000000000000000000000000000000000000000000000000000000000000000000000000000000000000000000000000000000000000000000000000000000000000000000000000000000000000000000000000000000000000000000000000000000000000000000000000000000000000000000000000000000000000000000000000000000000000000000000000000000000000000000000000000000000000000000000000000000000000000000000000000000000000000000000000000000000000000000000000000000000000000000000000000000000000000000000000000000000000000000000000000000000000000000000000000000000000000000000000000000000000000000000000000000000000000000000000000000000000000000000000000000000000000000000000000000000000000000000000000000000000000000000000000000000000000000000000000000000000000000000000000000000000000000000000000000000000000000000000000000000000000000001400000000000000000000000000000000000000000000000000000000000000000000000000000000000000000000000000000000000000000000000000000000000000000000000000000000000000000000000000000000000000000000000000000000000000000000000000000000000000000000000000000000000000000000000000000000000000000000000000000000000000000000000000000000000000000000000000000000000000000000000000000000000000000000000000000000000000000000000000000000000000000000000000000000000000000000000000000000000000000000
#00312:0000160000141400
#0031a:00000014
#00317:0000000000000014
#0041a:00140014
#00412:25140014
#00415:0000001300130000
#00418:0000000000000013
#00419:25
#00410:41
#00518:0013001300130000
#00512:00140014
#0051a:00140014
#00515:1400000000000013
#00615:0013001300130000
#0061a:00140014
#00612:00140014
#00617:1415
#00618:0000001300000013
#00718:0013001300130000
#00712:00140014
#0071a:00140014
#00715:1400001300000000
#00714:0015
#00817:1300000000000013
#0081b:00131300
#00819:00000000000000000000001300000000
#0091b:1300000000000013
#00919:0013000000000000
#00917:00130000
#01017:1300001313000013
#01112:15353500
#01117:13
#01114:0000000000000013
#01212:1300000000000013
#01216:0000131300000000
#01214:0000000000130000
#01312:0013000000001300
#01412:00000014000000000000000000000000
#01416:1300001300001300
#01413:00000000000000000013000000000000
#01512:0016
#01518:00000000000000002600001500002400
#01514:0000000000000014
#01513:00000000000000000000002500000000
#01619:15
#01618:0013
#01615:0013
#01617:00130000
#01616:00000000000000000000001300001300
#01612:25240000
#0161a:00000024
#01610:41
#01715:13
#01718:13
#0171a:0013000000002400
#01716:0000000000000013
#01712:00240000
#01815:1313
#01818:1313
#01817:00000013000013000000000000000000
#01816:00000013
#01812:00240000
#0181a:00000024
#01915:1300000000000013
#01918:13
#01916:00140000
#01912:00240000
#0191a:00000024
#02012:1414
#02018:0000001300002400
#0201a:1414
#02015:0000000000130013
#02014:00240000
#02112:1414
#0211a:1414
#02118:0013000000002400
#02114:0000240000000013
#02115:00000013
#02212:1414
#0221a:1414
#02218:00130024
#02219:0000001300000000
#02215:00000000000000000000001300000000
#02214:00240000
#02415:0000002400001400
#02412:24000000000000000014000000000000
#02410:41
#0251b:00130000
#02517:13000013
#02519:0000000000000013
#02615:0000002400001400
#02612:00000000000000000014000000000000
#0261a:0000001400000000
#02617:00000000000000000014000000000000
#0271b:00130000
#02712:14
#02716:00140000
#02717:13000013
#02816:13
#02812:00130013
#02817:00000000130013000000001300001300
#0281a:24
#02917:13
#02916:00131313
#02912:24
#03012:1400000000000023
#0301a:14
#03018:00000000000013000000001300000000
#03015:0013
#0301b:0000000000000023
#03118:0000000013131300
#03115:00000000000000000013001300000000
#03112:0024240000000000
#0311a:0024240000000000
#03214:1813
#03217:0013
#0321a:0000000000000014
#03216:0000000000000013
#03212:00000000000000000000000000000000250000000000000000000000000000000053000000000000000000000000000024000000000000000000000000000000
#03219:00250000
#03210:00410000
#03317:0013000000000000
#03319:0000001300000000
#03316:0013
#03312:00240024
#03415:1600001300130000
#0341b:0013000000000000
#03418:00131300
#0341a:00000014
#03417:0000000000000013
#03412:00240024
#03512:1415
#03516:0000000013000000000000000000000000000000140000000054000000000000
#03518:14000000000000000000000000000000000000000000000000000000000000000000000000000000000000000000000000540000000000000000000000000000
#0351b:00130000
#03519:00000000000000000000000000000000005300000000000000000000000000001500000000000000000000000000000000000000000000000000000000000000
#0351a:00000014
#03517:0000000000000000005300000000000000000000000000000000000000000000
#03612:1313
#03614:0013000000000000
#03616:00131313
#03618:2400001300000000
#03617:0000000000000013
#0361a:00240024
#03717:0013000000000000
#03715:00130013
#03712:0000001300130000
#03719:0000000000000013
#0371a:00240024
#03817:13
#03812:1300000013000013
#03816:0000001300000014
#0381b:0013
#03818:0000000000130000
#03815:00000000000000000000001300000000
#0381a:00240024
#03912:0013000024000000
#0391b:13
#03916:00130013
#03914:0000001300000000
#03919:0000001300000000
#03917:0013
#0391a:00240024
#04015:0016001300130000
#04012:14250014
#0401a:14000014
#04018:0000001300000013
#0401b:0013
#04019:00250000
#04118:0013001300130000
#04112:00141314
#0411a:00140014
#04115:1400001300000013
#04215:0013001300130000
#0421a:00140014
#04212:00140014
#04217:14
#04218:0000001400000013
#0421c:0012
#04318:0013001300130000
#04312:00141214
#0431a:00140014
#04315:14
#04314:0000001400000000
#04412:25141414
#04417:0000130013130000
#0441b:0000000000000013
#04419:25
#04517:0013000000130000
#04518:00000013
#04519:0000000000000013
#04512:14141414
#0451b:0000001300000000
#0461a:14141414
#04612:1400000000130000
#04616:0000131300000013
#0471a:14141414
#04712:00000013000000000000000000000000
#04716:0000000000001313
#0481a:14
#04812:14141414
#04817:0000131300000000
#04819:0000000000130000
#0481b:0000000000000013
#04912:14141414
#04919:0013000000000013
#04917:0000001300130000
#04918:00000013
#05012:14
#0501a:14141414
#05016:0000131300000000
#05214:0014
#05218:2613
#05216:00130000
#05217:00000000000000000000001300001300
#05219:00250000
#05212:26000025
#05210:41
#05318:14
#05315:13
#05313:0013000000000000
#05317:0000000000000013
#05319:00250000
#05312:00000025
#05418:1413
#05415:13
#05416:00000013000013000000000000000000
#05414:0014
#05417:00000013
#05419:00250000
#05412:00000025
#05518:1400000013000013
#05515:13
#05512:0014000000002500
#05514:00140000
#05516:0000001400000000
#05517:00000000000000000000001300000000
#05519:00250000
#0561a:1414
#05615:0000001300000000
#05612:14001426
#05618:0000260000130013
#0571a:14
#05712:14001426
#05715:0013000000000000
#05718:00261613
#05719:0000000000000013
#0581a:1400000014000014
#05812:14001426
#05815:00130000
#05814:0000001300000000
#05818:00000000260000000000001300000000
#05816:0000000000000024
#05916:00140000000000000000000000000000
#05912:00140000000000001300000000000000
#05915:0000000000130000
#05918:00000013
#0591b:0000000000000013
#0601b:0000131300000000
#06016:00000000001300130000000000000000
#06019:0000000013130000
#06014:00000000000000000013001300000000
#06017:0000000000001313
#06012:26000000000000000000000000130013
#0601f:11
#06018:26
#06112:0000131300000000
#06117:00000000001300130000000000000000
#06114:0000000013130000
#06119:00000000000000000013001300000000
#06116:0000000000001313
#0611b:00000000000000000000000000130013
#0621b:0000131300000000
#06216:00000000001300130000000000000000
#06219:0000000013130053
#06214:00000000000000000013001300000000
#06217:00000013
#0621a:00000000000000000000000000000053
#06218:00000000000000000000000000530000
#06316:00000014000000140000000000000000
#06318:00000000000000000013001300000000
#06315:0000000000130000
#0631a:0014140000000000
#06312:0000001414002500
#06319:00000025
#0631b:53
#06412:23131415
#06417:00000000001300130000000000000000
#06414:0000001300000000
#06419:00000000000000000013001300000000
#06415:2900000000130000
#0641b:00000000000000000000000000130013
#06416:0000000000000013
#0651b:00130000
#06516:00000000001300130000000000000000
#06519:0000001300001500
#0651a:0014
#06514:00000000000000000013001300000000
#06518:0000000000130000
#06512:00000000000000000000000000130013
#06517:0000000000000013
#06615:19160016
#0661b:00000000133333000000000000000000
#06612:00000000000000001600003313003300
#06715:0019
#06712:00000013
#06816:0000000000001414
#0681b:00000013
#06812:0000000000000023
#0681f:0000000000000021
#06916:0013000000000000
#06914:0000001300000000
#06917:0013
#06912:0014
#06915:00000013
#06918:00260026
#07015:1600130000130000
#07012:0013001300001400
#07018:00261326
#07016:0000000000000014
#07010:41
#07218:0013001300001400
#0721b:00131300
#07215:0013
#07212:25260026
#07219:25
#07316:0014000000000000
#07318:00140014
#07312:0000260000142600
#0731a:0000000000000014
#07416:0000001400000000
#07418:2400260000130000
#07415:00000000000000000000001300000000
#07412:00001424
#0741a:0000000014002424
#07414:0000000000000016
#07516:00130000
#07512:0014001400002300
#07517:0000001300000000
#0751a:00240000
#0751b:0023
#07515:00002626
#07116:0000000014000000005400000000000000000000000000000054000000000000
#07112:15141614
#07115:0000000000150000
#07119:25
#07118:0026
#07114:00000000000000000000000000000000005400000000000000000000000000000000000000000000000000000000000000540000000000000000000000000000
#07618:0000001300130000
#07615:0016001300000013
#07612:14250024
#0761a:14000000000000000000000000000000000000000000000000520000000000000000000000000000000000000000000024000000000000000000000000000000
#07614:0015
#07619:00250000
#0761b:0000000000000000000000000053000000000000000000000000000000000000
#07715:0013001300130000
#07717:1615
#07718:0000001300000013
#0771a:00240024
#07712:0000000000000000240000000053000000000000000000002400000000000000
#07714:00000000000000000000000000000000000000000000000000520000000000000000000000000000000000000000000000000000000000000000000000000000
#07818:0013001300130000
#07814:0000001400000000
#07812:00241224
#07815:0000000000000013
#07813:16
#0781a:00000000000000000000000000000000240000000000000000520000000000000000000000000000000000000000000024000000000000000000000000000000
#0781b:0000000000000000000000000053000000000000000000000000000000000000
#07915:0013001300130000
#07917:16
#07918:0000001400002424
#0791c:0012
#0791a:00240000
#07912:0000000000000000240000000053000000000000000000000000000000000000
#07914:00000000000000000000000000000000000000000000000000520000000000000000000000000000000000000000000000000000240000000000000000000000
#08112:12
#0811c:22
#05112:2500000000000024
#05119:25000000000000000000002300000000
#05114:00000000000000000000002300000000
#0511a:0000000000000024
#08018:26
#08012:26
#0801c:0022
#08019:0000000000230023
#08016:00000024
#08218:0066000000000000
#08212:0066000000000000
#00057:0000006200000000
#00157:0000006300000000
#00256:0000006400000000
#00355:000000000000000000000000000000000000000000000000000000000000000000000000000000000000000000000000000000000000000000000000000000000000000000000000000000000000000000000000000000000000000000000000000000000000000000000000000000000000000000000000000000000000000000000000000000000000000000000000000000000000000000000000000000000000000000000000000000000000000000000000000000000000000000000000000000000000000000000000000000000000000000000000000000000000000000000000000000000000000000000000000000000000000000000000000000000000000000000000000000000000000000000000000000000000000000000000000000000000000000000000000000000000000000000000000000000000000000000000000000000000000000000000000000000000000000000000000000000000000000000000000000000000000000000000000000000000000000000000000000000000000000000000000000000000000000000000000000000000000000000000000000000000000000000000000000000000000000000000000000000000000000000000000000000000000000000000000000000000000000000000000000000000000000000000000000000000000000000000000000000000000000000000000000000000000000000000000000000000000000000000000000000000000000000000000000000000000000000000000000000000000000000000000000000000000000000000000000000000000000000000000000000000000000000000000000000000000000000000000000000000000000000000000000000000000000000000000000000000000000000000000000000000000000000000000000000000000000000000000000000000000000000000000000000000000000000000000000000000000000000000660000000000000000000000000000000000000000000000000000000000000000000000000000000000000000000000000000000000000000000000000000000000000000000000000000000000000000000000000000000000000000000000000000000000000000000000000000000000000000000000000000000000000000000000000000000000000000000000000000000000000000000000000000000000000000000000000000000000000000000000000000000000000000000000000000000000000000000000000000000000000000000000000000000000000000000000000000000000000000000000000000000000000000000000000000000000000000000000000000000000000000000000000000000000000000000000000000000000000000000000000000000000000000000000000000000000000000000000000000000000000000000000000000000000000000000000000000000000000000000000000000000000000000000000000000000000000000000000000000000000000000000000000000000000000000000000000000000000000000000000000000000000000000000000000000000000000000000000000000000000000000000000000000000000000000000000000000000000000000000000000000000000000000000000000000000000000000000000000000000000000000000000000000000000000000000000000000000000000000000000000000000000000000000000000000000000000000000000000000000000000000000000000000000000000000000000000000000000000000000000000000000000000000000000000000000000000000000000000000000000000000000000000000000000000000000000000000000000000000000000000000000000000000000000000000000000000000000000000000000000000000000000000000000000000000000000000000000000000000000000000000000000000000000000000000000000000000000000000000000000000000000000000000000000000000000000000000000000000000000000000000000000000000000000000000000000000000000000000000000000000000000000000000000000000000000000000000000000000000000000000000000000000000000000000000000000000000000000000000000000000000000000000000000000000000000000000000000000000000000000000000000000000000000000000000000000000000000000000000000000000000000000000000000000000000000000000000000000000000000000002400000000000000000000000000000000000000000000000000000000000000000000000000000000000000000000000000000000000000000000000000000000000000000000000000000000000000000000000000000000000000000000000000000000000000000000000000000000000000000000000000000000000000000000000000000000000000000000000000000000000000000000000000000000000000000000000000000000000000000000000000000000000000000000000000000000000000000000000000000000000000000000000000000000000000000000000000000000000000000000
#0035a:00000064
#00357:0000000000000024
#00352:00000064
#00459:45
#00452:35
#00455:0000001300000000
#00558:0000001300000000
#00655:0000001300000000
#00658:0000002300000000
#00657:0065
#00758:0000001300000000
#00752:00000034
#0075a:00000044
#00755:0000002300000000
#00754:0055
#0095b:0013
#00957:00630000
#0105a:00000013000000000000000000000000
#01057:6363
#0105b:00000000000000000000001300000000
#01152:65
#01157:63
#01356:0013
#01456:6300006300006300
#01452:00000024000000000000000000000000
#01453:00000000000000000023000000000000
#01552:15
#01559:15
#01658:0043
#01652:35
#01755:33
#01758:0043
#01855:33
#01858:0043
#01955:33
#01958:6343
#01956:00240000
#02052:14
#0205a:6414
#02152:14
#0215a:0014
#02252:14
#0225a:0014
#02352:00000013
#02357:00000013
#0245a:00000014
#02455:0000006400006400
#02452:00000000000000000024000000000000
#0255b:00230000
#02557:6313
#02655:0000006400006400
#02652:00000000000000000024000000000000
#0265a:0000006400004400
#02657:00000000000000000024000000000000
#0275b:00230000
#02752:64000014
#02756:00240000
#02757:6313
#02852:00130013
#02957:63
#0295b:00130013
#03052:6400000000000013
#0305a:54
#03055:0063
#03058:00000000000000000000005300000000
#0305b:0000000000000013
#03158:00000013
#03252:00150000
#03259:00150000
#03257:0063
#03256:0000000000000053
#03357:00000013
#03552:64346535
#03556:0023000000240000
#03558:14
#03559:0015
#03658:14
#03652:0013
#03657:0000000000000013
#03752:0000001300000000
#03857:13
#03852:6300000000000013
#03856:0000000000000064
#0395b:23
#03957:0013
#03956:00000013
#04055:0000001300000000
#04058:0000006300000000
#0405b:0023
#04158:0000001300000000
#04155:0000005300000000
#04152:0023
#04255:0000001300000000
#04258:0000006400000000
#0425c:0022
#04358:0000001300000000
#0435a:00000044
#04352:00002234
#04354:0000005400000000
#04652:1400000000130000
#04656:0000001300000063
#04457:0000000000130000
#0445b:0000000000000013
#04557:0013000000000000
#0455b:0000001300000000
#04752:00000023000000000000000000000000
#0485a:14
#04857:0000001300000000
#04859:0000000000130000
#0485b:0000000000000013
#04959:0013000000000000
#04957:0000001300000000
#05052:14000013
#05056:0000006300000000
#05159:65
#05152:65
#05155:0013
#05158:0013
#05254:0034
#05258:46
#05252:36
#05358:44
#05354:0034
#05458:44
#05454:0034
#05558:44
#05555:53
#05552:0024000000000000
#05554:00643400
#05556:0000002400000000
#0565a:14
#05652:5414
#0575a:14
#05752:0014
#0585a:1400000000000064
#05852:0014
#05856:0000000000000064
#05956:00240000000000000000000000000000
#05952:00240000000000000000000000000000
#06058:16
#06452:13
#06655:69
#0665b:00230000
#06652:00006623
#06755:0069
#06752:00000023
#06852:1c00000000000013
#06856:0000000000000064
#0685b:00000013
#0725b:0013
#07252:00160016
#06958:00160016
#06952:0064
#06955:00000063
#07058:00160016
#07156:0024000000000000
#07159:65450000
#07155:0000000000250000
#07158:00006646
#07152:3536
#07352:00160016
#07458:00160000
#07454:0000000000000036
#0745a:0000000000000064
#07555:00001616
#07854:0000005400000000
#07852:0022
#07958:0000006400000000
#0795c:0022
#07758:0000002300000000
#07757:0065
#07655:0000002300000000
#07654:0055
#08058:46
#08052:56
#08152:22
#0815c:22
#000370:0000001200000000
#0003a0:0000000000220000
#001370:0000001300000000
#0013a0:0000000000230000
#002360:0000001400000000
#0023a0:0000000000240000
#003350:0000001600000000
#0033a0:0000000000543400
#003370:0000000000000054
#004390:25
#003321:00000014
#003351:000000000000000000000000000000000000000000000000000000000000000000000000000000000000000000000000000000000000000000000000000000000000000000000000000000000000000000000000000000000000000000000000000000000000000000000000000000000000000000000000000000000000000000000000000000000000000000000000000000000000000000000000000000000000000000000000000000000000000000000000000000000000000000000000000000000000000000000000000000000000000000000000000000000000000000000000000000000000000000000000000000000000000000000000000000000000000000000000000000000000000000000000000000000000000000000000000000000000000000000000000000000000000000000000000000000000000000000000000000000000000000000000000000000000000000000000000000000000000000000000000000000000000000000000000000000000000000000000000000000000000000000000000000000000000000000000000000000000000000000000000000000000000000000000000000000000000000000000000000000000000000000000000000000000000000000000000000000000000000000000000000000000000000000000000000000000000000000000000000000000000000000000000000000000000000000000000000000000000000000000000000000000000000000000000000000000000000000000000000000000000000000000000000000000000000000000000000000000000000000000000000000000000000000000000000000000000000000000000000000000000000000000000000000000000000000000000000000000000000000000000000000000000000000000000000000000000000000000000000000000000000000000000000000000000000000000000000000000000000000000000000000000000000000000000000000000000000000000000000000000000000000000000000000000000000000000000000000000000000000000000000000000000000000000000000000000000000000000000000000000000000000000000000000000000000000000000000000000000000000000000000000000000000000000000000000000000000000000000000000000000000000000000000000000000000000000000000000000000000000000000000000000000000000000000000000000000000000000000000000000000000000000000000000000000000000000000000000000000000000000000000000000000000000000000000000000000000000000000000000000000000000000000000000000000000000000000000000000000000000000000000000000000000000000000000000000000000000000000000000000000000000000000000000000000000000000000000000000000000000000000000000000000000000000000000000000000000000000000000000000000000000000000000000000000000000000000000000000000000000000000000000000000000000000000000000000000000000000000000000000000000000000000000000000000000000000000000000000000000000000000000000000000000000000000000000000000000000000000000000000000000000000000000000000000000000000000000000000000000000000000000000000000000000000000000000000000000000000000000000000000000000000000000000000000000000000000000000000000000000000000000000000000000000000000000000000000000000000000000000000000000000000000000000000000000000000000000000000000000000000000000000000000000000000000000000000000000000000000000000000000000000000000000000000000000000000000000000000000000000000000000000000000000000000000000000000000000000000000000000000000000000000000000000000000000000000000000000000000000000000000000000000000000000000000000000000000000000000000000000000000000000000000000000000000000000000000000000000000000000000000000000000000000000000000000000000000000000000000000000000000000000000000000000000000000000000000000000000000000000000000000000000000000000000000000000000000000000000000000000000000000000000000000000000000000000000000000000000000000000000005400000000000000000000000000000000000000000000000000000000000000000000000000000000000000000000000000000000000000000000000000000000000000000000000000000000000000000000000000000000000000000000000000000000000000000000000000000000000000000000000000000000000000000000000000000000000000000000000000000000000000000000000000000000000000000000000000000000000000000000000000000000000000000000000000000000000000000000000000000000000000000000000000000000000000000000000000000000000000000000
#004321:25
#004381:0000001300230000
#005351:0000001300230000
#006381:0000001300230000
#006371:0055
#007351:0000001300230000
#007341:0055
#008321:15540054355400543554005435540054
#009321:35540054355400543554005435540054
#010321:35540054355400543554005435540054
#011321:35353500
#011361:00000023
#009370:00130000
#0093b0:0023
#010370:13
#0103a0:0000005300002300000000000000000000000000000000000000000000000000
#010370:0013
#0103b0:0000000000000000000000000000000000000053000023000000000000000000
#011370:13
#011390:00000035
#012390:35353535
#0123a0:00540054005400540054005400540054
#013390:35353535
#0133a0:00540054005400540054005400540054
#014390:35353535
#0143a0:00540054005400540054005400540054
#015390:25
#013361:00132300
#014361:1300003300003300
#014321:00000054000000000000000000000000
#014331:00000000000000000053000000000000
#015321:25
#017371:00130000
#017381:0023
#017350:0013
#017360:00000023
#019380:1323
#019360:00540000
#019351:00001323
#0203a1:14
#020381:00230000
#022361:0000000000000013
#023321:00000023
#0223b0:0000000000000013
#023370:00000023
#0243a0:1400003400002400
#024351:0000001400003400
#024321:00000000000000000054000000000000
#025321:3434
#026321:24
#025370:1323
#0253b0:00530000
#0263a0:1400003400002400
#026370:00000000000000000054000000000000
#026351:0000001400003400
#026321:00000000000000000054000000000000
#027321:34003424
#027361:00540000
#027370:1323
#0273b0:00530000
#028321:00000000000000001300002300000000
#029371:13
#0293b1:00230000
#0293b1:00001323
#030321:14
#030351:00230000
#0303a0:14
#030380:00230000
#030350:0013
#030320:0000000000530023
#030381:00000000000000000000001300000000
#0303b1:00000000000000000000000000532300
#032371:0013
#0323a1:00000024
#032361:0000000000000013
#033321:0024000000000000
#0333a1:0014
#033371:00000023
#035321:14240000
#035361:0053000000000000
#035321:00001525
#035361:0000000000540000
#036321:0000000000000013
#037321:0023000000000000
#037371:0000001300230000
#038321:13
#038361:00230000
#038361:0000000000000014
#0393b1:53
#039361:0024000000000000
#040381:0000001300230000
#0403b1:0053
#041351:0000001300230000
#041321:0053
#042381:0000001400240000
#0423c1:0052
#043341:0000001400240000
#043321:0052
#046361:0000000000000013
#047321:00000053000000000000000000000000
#047361:0023
#050361:0000001300000000
#050321:00000023
#051391:15
#051381:0023
#051320:15
#051350:0023
#053360:00130000
#053340:0024
#053381:0014
#053371:00000023
#055351:13
#055321:0054000000000000
#055341:00542400
#055361:0000005400000000
#056321:14
#056351:00230000
#058361:0000000000000014
#059321:00540000000000000000000000000000
#059361:00240000
#0583a0:0000000000000014
#059360:00540000000000000000000000000000
#0593a0:00240000
#060320:16260000
#060330:005400000054000000000000000000000000000000000000
#061380:16260000
#061390:005400340054000000000000000000000000000000000000
#062320:16260000
#062330:005400000054000000000000000000000000000000000000
#063360:1424000000000000
#064350:19290000
#064370:005500000055000000000000000000000000000000000000
#065320:19290000
#065340:005500350055000000000000000000000000000000000000
#066350:19
#0663b0:00000000333333000000000000000000
#066380:0026
#066321:00000000000000001600003353003300
#067321:29
#0673b0:1323000000000000
#067321:0016260000000000
#067380:0000162600000000
#067321:0000001323000000
#067350:0019
#0673b0:00000023
#067321:00000013
#068321:2c
#068361:0000000000000014
#0683a1:00000000000000000000000000000054
#0693a1:0024000000000000
#069321:00000000000000001400000000530000
#069351:00000000000000000053000033000000
#070321:23
#071391:15250000
#071361:0054000000000000
#071381:00001626
#071351:0000000000550000
#0723a1:0000000000000014
#0733a1:0024000000000000
#073361:0000001400240000
#074341:14240000
#0743a1:0000000000000014
#075371:0023000000000000
#076351:0000001300230000
#076341:0055
#077381:0000001300230000
#077371:0055
#078341:0000001400240000
#078321:0052
#079381:0000001400240000
#0793c1:0052
#080321:16
#081321:52
#082321:0026000000000000
#0813c0:12
#082380:0026000000000000
#032940:0013
#032920:00000000000000000000000000000000000000000000000000000000000000000023000000000000000000000000000000000000000000000000000000000000
#0359b0:00130000
#035970:0000000000000000002300000000000000000000000000000000000000000000
#0359a0:00000014
#035960:0000000000000000000000000000000000000000000000000024000000000000
#062970:00000013
#0639b0:23
#071920:00140000
#071960:0000000000000000002400000000000000000000000000000000000000000000
#071920:00000014
#071960:0000000000000000000000000000000000000000000000000024000000000000
#076980:0000001300000000
#0769b0:000000000000000000000000000000000000000000000000000000000000000000000000000000000000000000000000000000000000000000000000000000000000000000000000000000000000000000000000000000000000000000000000000000000000000000000000000000000000000000000000000000000000000000000000000000000000000000000000000000000000000000000000000000000000000000000000000000000000000000000000000000000000000000000000000000000000000000000000000000000000000000000000000000000000000000000000000000000000000000000000000000000000000000000000000000000000000000000000000000000000000000000000000000000000000000000000000000000000000000000000000000000000000000000000000000000000000000000000000000000000000000000000000000000000000000000000000000000000000000000000000000000000000000000000000000000000000000000000000000000000000000000000000000000000000000000000000000000000000000000000000000000000000000000000000000000000000000000000000000000000000000000000000000000000000000000000000000000000000000000000000000000000000000000000000000000000000000000000000000000000000000000000000000000000000000000000000000000000000000000000000000000000000000000000000000000000000000000000000000000000000000000000000000000000000000000000000000000000000000000000000000000000000000000000000000000000000000000000000000000000000000000000000000000000000000000000000000000000000000000000000000000000000000000000000000000000000000000000000000000000000000000000000000000000000000000000000000000000000000000000000000000000000000000000000000000000000000000000000000000000000000000000000000000000000000000000000000000000000000000053230000000000000000000000000000000000000000000000000000000000000000000000000000000000000000000000000000000000000000000000000000000000000000000000000000000000000000000000000000000000000000000000000000000000000000000000000000000000000000000000000000000000000000000000000000000000000000000000000000000000000000000000000000000000000000000000000000000000000000000000000000000000000000000000000000000000000000000000000000000000000000000000000000000000000000000000000000000000000000000000000000000000000000000000000000000000000000000000000000000000000000000000000000000000000000000000000000000000000000000000000000000000000000000000000000000000000000000000000000000000000000000000000000000000000000000000000000000000000000000000000000000000000000000000000000000000000000000000000000000000000000000000000000000000000000000000000000000000000000000000000000000000000000000000000000000000000000000000000000000000000000000000000000000000000000000000000000000000000000000000000000000000000000000000000000000000000000000000000000000000000000000000000000000000000000000000000000000000000000000000000000000000000000000000000000000000000000000000000000000000000000000000000000000000000000000000000000000000000000000000000000000000000000000000000000000000000000000000000000000000000000000000000000000000000000000000000000000000000000000000000000000000000000000000000000000000000000000000000000000000000000000000000000000000000000000000000000000000000000000000000000000000000000000000000000000000000000000000000000000000000000000000000000000000000000000000000000000000000000000000000000000000000000000000000000000000000000000000000000000000000000000000000000000000000000000000000000000000000000000000000000000000000000000000000000000000000000000000000000000000000000000000000000000000000000000000000000000000000000000000000000000000000000000000000000000000000000000000000000000000000000000000000000000000000000000000000000000000000000000000000000000000000000000000000000000000000000000000000000000000000000000000000000000000000000000000000000000000000000000000000000000000000000000000000000000000000000000000000000000000000000000000000000000000000000000000000000000000000000000000000000000000000000000000000000000000000000000000000000000000000000000000000000000000000000000000000000000000000000000000
#077950:0000001300000000
#077920:000000000000000000000000000000000000000000000000000000000000000000000000000000000000000000000000000000000000000000000000000000000000000000000000000000000000000000000000000000000000000000000000000000000000000000000000000000000000000000000000000000000000000000000000000000000000000000000000000000000000000000000000000000000000000000000000000000000000000000000000000000000000000000000000000000000000000000000000000000000000000000000000000000000000000000000000000000000000000000000000000000000000000000000000000000000000000000000000000000000000000000000000000000000000000000000000000000000000000000000000000000000000000000000000000000000000000000000000000000000000000000000000000000000000000000000000000000000000000000000000000000000000000000000000000000000000000000000000000000000000000000000000000000000000000000000000000000000000000000000000000000000000000000000000000000000000000000000000000000000000000000000000000000000000000000000000000000000000000000000000000000000000000000000000000000000000000000000000000000000000000000000000000000000000000000000000000000000000000000000000000000000000000000000000000000000000000000000000000000000000000000000000000000000000000000000000000000000000000000000000000000000000000000000000000000000000000000000000000000000000000000000000000000000000000000000000000000000000000000000000000000000000000000000000000000000000000000000000000000000000000000000000000000000000000000000000000000000000000000000000000000000000000000000000000000000000000000000000000000000000000000000000000000000000000000000000000000000000000000000053230000000000000000000000000000000000000000000000000000000000000000000000000000000000000000000000000000000000000000000000000000000000000000000000000000000000000000000000000000000000000000000000000000000000000000000000000000000000000000000000000000000000000000000000000000000000000000000000000000000000000000000000000000000000000000000000000000000000000000000000000000000000000000000000000000000000000000000000000000000000000000000000000000000000000000000000000000000000000000000000000000000000000000000000000000000000000000000000000000000000000000000000000000000000000000000000000000000000000000000000000000000000000000000000000000000000000000000000000000000000000000000000000000000000000000000000000000000000000000000000000000000000000000000000000000000000000000000000000000000000000000000000000000000000000000000000000000000000000000000000000000000000000000000000000000000000000000000000000000000000000000000000000000000000000000000000000000000000000000000000000000000000000000000000000000000000000000000000000000000000000000000000000000000000000000000000000000000000000000000000000000000000000000000000000000000000000000000000000000000000000000000000000000000000000000000000000000000000000000000000000000000000000000000000000000000000000000000000000000000000000000000000000000000000000000000000000000000000000000000000000000000000000000000000000000000000000000000000000000000000000000000000000000000000000000000000000000000000000000000000000000000000000000000000000000000000000000000000000000000000000000000000000000000000000000000000000000000000000000000000000000000000000000000000000000000000000000000000000000000000000000000000000000000000000000000000000000000000000000000000000000000000000000000000000000000000000000000000000000000000000000000000000000000000000000000000000000000000000000000000000000000000000000000000000000000000000000000000000000000000000000000000000000000000000000000000000000000000000000000000000000000000000000000000000000000000000000000000000000000000000000000000000000000000000000000000000000000000000000000000000000000000000000000000000000000000000000000000000000000000000000000000000000000000000000000000000000000000000000000000000000000000000000000000000000000000000000000000000000000000000000000000000000000000000000000000000000000000000000000000
#078980:0000001300000000
#0789b0:000000000000000000000000000000000000000000000000000000000000000000000000000000000000000000000000000000000000000000000000000000000000000000000000000000000000000000000000000000000000000000000000000000000000000000000000000000000000000000000000000000000000000000000000000000000000000000000000000000000000000000000000000000000000000000000000000000000000000000000000000000000000000000000000000000000000000000000000000000000000000000000000000000000000000000000000000000000000000000000000000000000000000000000000000000000000000000000000000000000000000000000000000000000000000000000000000000000000000000000000000000000000000000000000000000000000000000000000000000000000000000000000000000000000000000000000000000000000000000000000000000000000000000000000000000000000000000000000000000000000000000000000000000000000000000000000000000000000000000000000000000000000000000000000000000000000000000000000000000000000000000000000000000000000000000000000000000000000000000000000000000000000000000000000000000000000000000000000000000000000000000000000000000000000000000000000000000000000000000000000000000000000000000000000000000000000000000000000000000000000000000000000000000000000000000000000000000000000000000000000000000000000000000000000000000000000000000000000000000000000000000000000000000000000000000000000000000000000000000000000000000000000000000000000000000000000000000000000000000000000000000000000000000000000000000000000000000000000000000000000000000000000000000000000000000000000000000000000000000000000000000000000000000000000000000000000000000000000000000000053230000000000000000000000000000000000000000000000000000000000000000000000000000000000000000000000000000000000000000000000000000000000000000000000000000000000000000000000000000000000000000000000000000000000000000000000000000000000000000000000000000000000000000000000000000000000000000000000000000000000000000000000000000000000000000000000000000000000000000000000000000000000000000000000000000000000000000000000000000000000000000000000000000000000000000000000000000000000000000000000000000000000000000000000000000000000000000000000000000000000000000000000000000000000000000000000000000000000000000000000000000000000000000000000000000000000000000000000000000000000000000000000000000000000000000000000000000000000000000000000000000000000000000000000000000000000000000000000000000000000000000000000000000000000000000000000000000000000000000000000000000000000000000000000000000000000000000000000000000000000000000000000000000000000000000000000000000000000000000000000000000000000000000000000000000000000000000000000000000000000000000000000000000000000000000000000000000000000000000000000000000000000000000000000000000000000000000000000000000000000000000000000000000000000000000000000000000000000000000000000000000000000000000000000000000000000000000000000000000000000000000000000000000000000000000000000000000000000000000000000000000000000000000000000000000000000000000000000000000000000000000000000000000000000000000000000000000000000000000000000000000000000000000000000000000000000000000000000000000000000000000000000000000000000000000000000000000000000000000000000000000000000000000000000000000000000000000000000000000000000000000000000000000000000000000000000000000000000000000000000000000000000000000000000000000000000000000000000000000000000000000000000000000000000000000000000000000000000000000000000000000000000000000000000000000000000000000000000000000000000000000000000000000000000000000000000000000000000000000000000000000000000000000000000000000000000000000000000000000000000000000000000000000000000000000000000000000000000000000000000000000000000000000000000000000000000000000000000000000000000000000000000000000000000000000000000000000000000000000000000000000000000000000000000000000000000000000000000000000000000000000000000000000000000000000000000000000000000000000000000
#079950:0000001300000000
#079920:000000000000000000000000000000000000000000000000000000000000000000000000000000000000000000000000000000000000000000000000000000000000000000000000000000000000000000000000000000000000000000000000000000000000000000000000000000000000000000000000000000000000000000000000000000000000000000000000000000000000000000000000000000000000000000000000000000000000000000000000000000000000000000000000000000000000000000000000000000000000000000000000000000000000000000000000000000000000000000000000000000000000000000000000000000000000000000000000000000000000000000000000000000000000000000000000000000000000000000000000000000000000000000000000000000000000000000000000000000000000000000000000000000000000000000000000000000000000000000000000000000000000000000000000000000000000000000000000000000000000000000000000000000000000000000000000000000000000000000000000000000000000000000000000000000000000000000000000000000000000000000000000000000000000000000000000000000000000000000000000000000000000000000000000000000000000000000000000000000000000000000000000000000000000000000000000000000000000000000000000000000000000000000000000000000000000000000000000000000000000000000000000000000000000000000000000000000000000000000000000000000000000000000000000000000000000000000000000000000000000000000000000000000000000000000000000000000000000000000000000000000000000000000000000000000000000000000000000000000000000000000000000000000000000000000000000000000000000000000000000000000000000000000000000000000000000000000000000000000000000000000000000000000000000000000000000000000000000000000000053230000000000000000000000000000000000000000000000000000000000000000000000000000000000000000000000000000000000000000000000000000000000000000000000000000000000000000000000000000000000000000000000000000000000000000000000000000000000000000000000000000000000000000000000000000000000000000000000000000000000000000000000000000000000000000000000000000000000000000000000000000000000000000000000000000000000000000000000000000000000000000000000000000000000000000000000000000000000000000000000000000000000000000000000000000000000000000000000000000000000000000000000000000000000000000000000000000000000000000000000000000000000000000000000000000000000000000000000000000000000000000000000000000000000000000000000000000000000000000000000000000000000000000000000000000000000000000000000000000000000000000000000000000000000000000000000000000000000000000000000000000000000000000000000000000000000000000000000000000000000000000000000000000000000000000000000000000000000000000000000000000000000000000000000000000000000000000000000000000000000000000000000000000000000000000000000000000000000000000000000000000000000000000000000000000000000000000000000000000000000000000000000000000000000000000000000000000000000000000000000000000000000000000000000000000000000000000000000000000000000000000000000000000000000000000000000000000000000000000000000000000000000000000000000000000000000000000000000000000000000000000000000000000000000000000000000000000000000000000000000000000000000000000000000000000000000000000000000000000000000000000000000000000000000000000000000000000000000000000000000000000000000000000000000000000000000000000000000000000000000000000000000000000000000000000000000000000000000000000000000000000000000000000000000000000000000000000000000000000000000000000000000000000000000000000000000000000000000000000000000000000000000000000000000000000000000000000000000000000000000000000000000000000000000000000000000000000000000000000000000000000000000000000000000000000000000000000000000000000000000000000000000000000000000000000000000000000000000000000000000000000000000000000000000000000000000000000000000000000000000000000000000000000000000000000000000000000000000000000000000000000000000000000000000000000000000000000000000000000000000000000000000000000000000000000000000000000000000000000000000
