This file was generated by Ched 2.7.0.0.
#TITLE ""
#ARTIST ""
#DESIGNER ""
#DIFFICULTY 0
#PLAYLEVEL
#SONGID ""
#WAVE ""
#WAVEOFFSET 0
#JACKET ""
#REQUEST "ticks_per_beat 480"
#00002: 4
#BPM01: 164
#00008: 01
#TIL00: ""
#VOLUME: ""
#HISPEED 00
#MEASUREHS 00
#0001a:12
#00016:12
#00113:13
#00118:13
#0021a:14
#00214:14
#00312:15
#00319:15
#00315:00130000
#00318:0000001300000000
#00418:0013000000001300
#00415:0000130000000013
#0041b:0000001300000000
#00412:2400000000130000
#00410:41
#0051a:14
#00515:0013000000001300
#00518:0000130000000013
#00512:0000001300000000
#0051b:0000000000130000
#00612:1400000000130000
#0061b:0013000000000000
#00615:0000130000000013
#00618:0000001300001300
#0071a:14
#00712:0013000000001400
#00718:0000130000130000
#00715:0000001300000000
#0081b:13
#00818:00130000
#00815:1313
#00812:00000000000000000000003300000000
#00918:13130000
#00915:0013000000000013
#0091b:0013
#0101b:00000033130033000000000000000000
#01018:13
#01012:00000000000000000000003313003300
#01015:0013
#01118:13
#0111b:0000001300000000
#01115:13
#01112:0000001300000013
#0121b:1300000000130000
#01215:00130000
#01218:0000001300000000
#01315:0013000000001300
#01318:00130000
#01312:0013
#0131b:0013
#01418:13
#01415:0000001300000000
#01412:00000013
#0141b:00000013
#0161b:00130000
#01612:00000013
#01610:41
#0171b:00130000
#01718:0013
#01715:0013
#01812:00130000
#0181b:00000013
#01912:00130000
#01915:0013
#01918:0013
#02016:00140014
#02116:00140000
#0211b:0013
#02112:0013
#02216:00140014
#0231b:13
#02318:0000001300000000
#02312:13
#02315:0000001300000000
#02516:13
#0251b:13
#02518:00000013
#02515:0000000000000013
#02612:13
#0261b:13
#02717:13
#02712:13
#02714:00000013
#02719:00000013
#02815:0000001300000000
#0281a:2414
#02818:00000000130000000000003300003300
#02812:24
#03018:13
#03015:13
#03012:0000000000000024
#0301a:0000000000000024
#03112:0024240013000000
#0311b:0013
#0311a:0024240000000000
#03215:1300000000000013
#03218:13000013
#03219:0013
#03214:0013
#03212:00000000000000000000000000000000240000000000000000000000000000000053000000000000000000000000000000000000000000000000000000000000
#0321a:00240000
#03210:00410000
#0321b:00000000000000000000000000000000000000000000000000000000000000000053000000000000000000000000000000000000000000000000000000000000
#03318:00130000
#03315:0000001300000000
#0331b:0013
#03312:00000013
#03418:1300001300130000
#03415:0013000013000013
#0341b:00130000
#03412:00000013
#03518:14
#03514:0014
#03615:0013000000000000
#0361b:00130000
#03612:0000001300001300
#03616:0014
#03618:23
#03715:00130013
#03718:0000000000000013
#03818:0000001300000000
#03815:0000000013000023
#03812:24000000000000000000001300000000
#0381a:24
#0391b:0013000000000000
#03918:00130000
#03915:0000001300000000
#0391a:0024
#03912:00000024
#04015:0013000000000000
#04012:0000001300000000
#0401b:1300000000130000
#04018:0000240000000013
#04014:00000024
#04112:1400000000130000
#04118:0013000000002400
#0411b:0000001300000000
#04115:0000000000000013
#04114:00240000
#0421a:14
#04212:0013000000000000
#04215:0000001300000000
#0421b:0000000000130000
#04218:0000240000000013
#04214:00000024
#04312:1400000000130000
#0431b:0013000000000000
#04318:0000001300002400
#04314:00240000
#04415:00131300
#04518:0000000000130013
#04515:00000013
#04612:1400000000000013
#04618:0000130000000013
#0471b:00000013000000000000000013000000
#04715:00000013000000000000000000001300
#0481a:14
#04815:00130000
#04912:0000000000130000
#04915:00000013
#04918:0000000000000013
#05012:14000013
#05018:00130000
#0501b:00000013
#05015:0000001300000000
#0521b:00130013
#05212:00130013
#05215:13
#05218:0013
#05210:41
#0531b:00130000
#05318:0013
#05315:1313
#05312:00130000
#05612:00141300
#0561b:13
#05617:00130000
#0561a:00000014
#05616:00000013
#05712:00141300
#0571b:1313
#05717:00130000
#0581a:00140000
#05812:13000014
#05816:00130000
#0581b:0013
#05817:00000013
#0591b:1300000000000013
#05912:1313
#05915:0000000000130000
#05918:00000013
#05412:00130013
#0541b:00130013
#05418:13
#05415:0013
#05512:00130000
#05515:0013
#05518:1313
#0551b:00130000
#0601b:0000131300001313
#06015:0000000013130000
#0601f:11
#06012:26
#06112:0000131300001313
#06118:0000000013130000
#06115:16
#06218:1600000014140014
#06214:0000141400001400
#06312:14
#0631a:0014
#06313:00540000000000000000000000000000
#06314:0054000000000000
#06315:00000054000000000000000000000000
#06316:00540064
#06319:00000000000000000054000000000000
#06318:0000000000540000
#06317:00000000000000000000005400000000
#0641b:0000131300001313
#06415:00000000001300000000000000130000
#06412:2600000013130000
#06418:00000000000000000013000000000000
#06512:0000131300001313
#06518:00000000001300000000000000130000
#0651b:0000000013130000
#06515:16000000000000000013000000000000
#06618:16
#06619:00140014
#06613:00140014
#06612:0026
#0671b:1300001300000000
#06715:0013000000001300
#06718:00130013
#06712:0014
#06815:00000013
#06818:00000023
#06819:0000000000000025
#06812:0000000000000025
#0681f:0000000000000021
#06915:0013000000000000
#06918:00130000
#0691b:0000001300000000
#06912:0014
#0691a:00000014
#07012:14000013
#0701b:0013000000000013
#07018:00131300
#07015:0000001300130000
#07010:41
#07116:0013000000000000
#07117:0000000000130000
#07112:24
#0711a:0024
#07218:0013000000000000
#07215:00130000
#0721b:0000001300001300
#07212:2414
#07318:00130013
#07315:0000000000000013
#07415:0000001300000000
#07418:0013
#0741b:00000000000000000000001300000000
#0741a:24
#07412:24
#07416:0000000000000024
#07512:0014000026000000
#07516:00140000
#0751a:0000001400000000
#07518:00000026
#07618:0000001600002400
#07612:2600000000130000
#07615:0000000000000013
#0771a:14
#07715:0013000000000000
#07712:0000001600000000
#0771b:0000000000130000
#07718:0000240000000013
#07714:00000024
#07812:1400000000130000
#07818:0013001600002400
#07815:0000000000000013
#07814:00240000
#0791a:14
#07915:0013000000000000
#07912:0000001600002400
#07918:0000240000130000
#08117:0012
#08116:24
#0811b:63
#01519:0000000025000025
#01512:00000000000000000000002500000000
#05118:0000000026000026
#05112:00000000000000000000002600000000
#0801b:0023
#08019:0000000000630063
#08017:00000063
#02412:24
#0241a:24
#02410:41
#08214:0068000000000000
#0035b:00000013
#00358:0000006300000000
#0045b:0000001300000000
#00552:0000001300000000
#00658:0000001300000000
#00755:0000001300000000
#00855:0063
#00958:00630000
#0095b:0063
#0105b:00230000
#01058:63
#01052:00000023
#01055:0053
#01158:63
#0115b:0000002300000000
#01155:53
#01152:0000002300000000
#01258:0000006300000000
#0125b:0000000000630000
#01458:63
#01455:0000006300000000
#01452:00000063
#0145b:00000053
#01559:0000000045000045
#01552:00000000000000000000003500000000
#01558:13
#01555:13
#01758:0063
#01755:0063
#01955:0053
#01958:0053
#0215b:0063
#02152:0053
#0235b:63000043
#02358:0000002300000000
#02352:53000033
#02355:0000002300000000
#02556:63
#0255b:63
#02757:53
#02752:53
#0285a:0064
#03058:63
#03055:53
#03152:0053
#03155:00000013
#0315b:0063
#03158:00000013
#03252:00140000
#03255:6300000000000063
#03258:53
#0325a:00140000
#0335b:0013
#03352:00000013
#0355b:00130000
#03552:00000013
#03558:64
#03554:0054
#03656:0014
#03855:0000000063000013
#03852:00000000000000000000006300000000
#0395a:0044
#03952:00000034
#04052:0000001300000000
#0415b:0000001300000000
#04255:0000001300000000
#04358:0000001300000000
#04458:14
#04652:1400000000000063
#04658:0000000000000063
#0475b:00000023000000000000000000000000
#04755:00000023000000000000000000000000
#0485a:14
#05052:14000063
#0505b:00000053
#05055:0000006300000000
#05158:1300000046000046
#05155:13
#05152:00000000000000000000003600000000
#05358:0063
#05355:6363
#05352:00230000
#0575b:6363
#05752:0053
#05757:00230000
#0595b:63
#05952:53
#05255:63
#05252:00230000
#05258:0053
#0525b:00000023
#05555:0053
#05558:5353
#0555b:00230000
#05458:53
#0545b:00230000
#05455:0063
#05452:00000023
#0565b:63
#05657:00230000
#05652:0053
#05656:00000023
#05852:63
#05856:00230000
#0585b:0063
#05857:00000023
#06052:16
#06356:00140014
#06452:16
#06658:66
#06652:0066
#06659:00240000
#06653:00000024
#06758:00000063
#06755:00000063
#06752:0064
#06852:1400000000000035
#0685a:14
#06859:0000000000000045
#06952:0034
#0695a:00000044
#07152:64340000
#07156:0023000000000000
#07157:0000000000230000
#0715a:00005444
#07252:0014
#07456:0000000000000014
#07458:0063
#0745b:00000000000000000000006300000000
#07552:0036
#07558:00000046
#07652:00160000
#07658:0000001600000000
#07752:0000001600000000
#07858:0000001600000000
#07952:0000001600006400
#08055:16
#08157:0022
#08156:64
#000360:0000001200002200
#0003a1:0000001200002200
#001331:0000001300002300
#001380:0000001300002300
#0023a0:0000001400002400
#002341:0000001400002400
#003381:0000001300000000
#0033b1:0000000000332300
#008351:0013
#008321:00000000000000000000003300002300
#009381:00130023
#0093b1:0033
#010381:1323
#0103b1:00000033530033000000000000000000
#010350:0013
#010320:00000000000000000000003353003300
#011350:33000023
#011320:0000005300000000
#011381:13000023
#0113b1:0000005300000000
#012381:0000001300000023
#0123b1:0000000000330000
#014381:13
#0143b1:0053003300003300
#015381:23
#014350:0000001300000000
#014320:00005333
#015350:23
#016350:1323
#016381:0013
#017381:23
#017350:1333
#017320:00000023
#017381:0013
#0173b1:00000023
#018381:1323
#018350:0013
#019350:23
#019381:1333
#0193b1:00000023
#019350:0013
#019320:00000023
#0203b0:1323
#020321:0013
#021321:23
#0213b0:1333
#021380:00000023
#021321:0013
#021351:00000023
#022321:1323
#0223b0:0013
#0233b0:33000023
#023380:0000005300000000
#023321:13000023
#023351:0000005300000000
#0243b1:0000001300000000
#0253b1:33
#025371:0023
#024360:00000013
#025360:33
#025320:0023
#026320:0000001300000000
#027320:33
#027360:0023
#026371:00000013
#027371:33
#0273b1:0023
#0283a1:0014
#028381:00000000000000000000003300003300
#029381:23
#029350:13230000
#0293b1:00132300
#029320:00001323
#029381:00000013
#030381:33
#0303b1:0023
#030350:13
#030320:0023
#031320:0013
#031350:00000023
#0313b1:0013
#031381:00000023
#032351:13
#032321:00540000240000000000000000000000
#032380:13
#0323a0:00540000240000000000000000000000
#032350:0000000000000013
#033320:0023000000000000
#035380:14
#0353b0:00230000
#035340:0014
#035320:00000023
#036380:0000000000000013
#037380:0023000000000000
#0373b0:0000001300230000
#038350:0000000013000023
#038320:00000000000000000000003300000000
#043380:00000014
#044380:24
#0443b0:0000000000130023
#044351:0000000000000013
#045351:0023000000000000
#045380:0013002300000000
#045321:0000001300230000
#046351:0000001300230000
#046380:0000000000130033
#0473b0:00000053000000000000000000000000
#047380:0023
#046321:0000000000000013
#047351:00000053000000000000000000000000
#047321:0023
#048381:0000001300230000
#048320:0000000000130023
#0483b1:0000000000000013
#0493b1:0023000000000000
#049350:0013002300000000
#049381:0000001300230000
#050351:0000001300000000
#050321:00000033
#051351:23
#0503b0:00000013
#051380:23
#052350:1323
#052320:00530000
#052381:0013
#0523b1:00000053
#053381:23
#053350:1333
#053320:00530023
#053381:0013
#0533b1:00000023
#054381:1323
#0543b1:00530000
#054350:0013
#054320:00000053
#055350:23
#055381:1333
#0553b1:00530023
#055350:0013
#055320:00000023
#0563b0:1323
#056370:00530000
#056321:0013
#056361:00000053
#057321:23
#0573b0:1333
#057370:00530000
#057380:00000023
#057321:0013
#057351:00000023
#058321:1323
#058361:00530000
#0583b0:0013
#058370:00000053
#0593b0:33
#059380:00230000
#059321:13
#059351:00230000
#066381:1626
#066391:00540000
#066320:0016
#066330:00000054
#067320:26
#067320:0014
#067350:00000033
#068320:24
#067381:00000013
#0683a1:24
#071321:14240000
#071361:0053000000000000
#0713a1:00001424
#071371:0000000000530000
#072351:0000000000000013
#073351:0023000000000000
#073321:0000001300230000
#074381:0013
#0743b1:00000000000000000000003300000000
#074361:0000000000000024
#076321:16260000
#079321:00000014
#080351:26
#081361:14
#081371:0052
#082341:0028000000000000
#032990:0013
#0329b0:000000000000000000000000000000000000000000000000000000000000000000000000000000000000000000000000000000000000000000000000000000000000000000000000000000000000000000000000000000000000000000000000000000000000000000000000000000000000000000000000000000000000000000000000000000000000000000000000000000000000000000000000000000000000000000000000000000000000000000000000000000000000000000000000000000000000000000000000000000000000000000000000000000000000000000000000000000000000000000000000000000000000000000000000000000000000000000000000000000000000000000000000000000000000000000000000000000000000000000000000000000000000000000000000000000000000000000000000000000000000000000000000000000000000000000000000000000000000000000000000000000000000000000000000000000000000000000000000000000000000000000000000000000000000000000000000000000000000000000000000000000000000000000000000000000000000000000000000000000000000000000000000000000000000000000000000000000000000000000000000000000000000000000000000000000000000000000000000000000000000000000000000000000000000000000000000000000000000000000000000000000000000000000000000000000000000000000000000000000000000000000000000000000000000000000000000000000000000000000000000000000000000000000000000000000000000000000000000000000000000000000000000000000000000000000000000000000000000000000000000000000000000000000000000000000000000000000000000000000000000000000000000000000000000000000000000000000000000000000000000000000000000000000000000000000000000000000000000000000000000000000000000000000000000000000000000000000000000000000000000000000000000000000000000000000000000000000000000000000000000000000000000000000000000000000000000000000000000000000000000000000000000000000000000000000000000000000000000000000000000000000000000000000000000000000000000000000000000000000000000000000000000000000000000000000000000000000000000000000000000000000000000000000000000000000000000000000000000000000000000000000000000000000000000000000000000000000000000000000000053230000000000000000000000000000000000000000000000000000000000000000000000000000000000000000000000000000000000000000000000000000000000000000000000000000000000000000000000000000000000000000000000000000000000000000000000000000000000000000000000000000000000000000000000000000000000000000000000000000000000000000000000000000000000000000000000000000000000000000000000000000000000000000000000000000000000000000000000000000000000000000000000000000000000000000000000000000000000000000000000000000000000000000000000000000000000000000000000000000000000000000000000000000000000000000000000000000000000000000000000000000000000000000000000000000000000000000000000000000000000000000000000000000000000000000000000000000000000000000000000000000000000000000000000000000000000000000000000000000000000000000000000000000000000000000000000000000000000000000000000000000000000000000000000000000000000000000000000000000000000000000000000000000000000000000000000000000000000000000000000000000000000000000000000000000000000000000000000000000000000000000000000000000000000000000000000000000000000000000000000000000000000000000000000000000000000000000000000000000000000000000000000000000000000000000000000000000000000000000000000000000000000000000000000000000000000000000000000000000000000000000000000000000000000000000000000000000000000000000000000000000000000000000000000000000000000000000000000000000000000000000000000000000000000000000000000000000000000000000000000000000000000000000000000000000000000000000000000000000000000000000000000000000000000000000000000000000000000000000000000000000000000000000000000000000000000000000000000000000000000000000000000000000000000000000000000000000000000000000000000000000000000000000000000000000000000000000000000000000000000000000000000000000000000000000000000000000000000000000000000000000000000000000000000000000000000000000000000000000000000
#032941:0013
#032921:000000000000000000000000000000000000000000000000000000000000000000000000000000000000000000000000000000000000000000000000000000000000000000000000000000000000000000000000000000000000000000000000000000000000000000000000000000000000000000000000000000000000000000000000000000000000000000000000000000000000000000000000000000000000000000000000000000000000000000000000000000000000000000000000000000000000000000000000000000000000000000000000000000000000000000000000000000000000000000000000000000000000000000000000000000000000000000000000000000000000000000000000000000000000000000000000000000000000000000000000000000000000000000000000000000000000000000000000000000000000000000000000000000000000000000000000000000000000000000000000000000000000000000000000000000000000000000000000000000000000000000000000000000000000000000000000000000000000000000000000000000000000000000000000000000000000000000000000000000000000000000000000000000000000000000000000000000000000000000000000000000000000000000000000000000000000000000000000000000000000000000000000000000000000000000000000000000000000000000000000000000000000000000000000000000000000000000000000000000000000000000000000000000000000000000000000000000000000000000000000000000000000000000000000000000000000000000000000000000000000000000000000000000000000000000000000000000000000000000000000000000000000000000000000000000000000000000000000000000000000000000000000000000000000000000000000000000000000000000000000000000000000000000000000000000000000000000000000000000000000000000000000000000000000000000000000000000000000000000000000000000000000000000000000000000000000000000000000000000000000000000000000000000000000000000000000000000000000000000000000000000000000000000000000000000000000000000000000000000000000000000000000000000000000000000000000000000000000000000000000000000000000000000000000000000000000000000000000000000000000000000000000000000000000000000000000000000000000000000000000000000000000000000000000000000000000000000000000000000000053230000000000000000000000000000000000000000000000000000000000000000000000000000000000000000000000000000000000000000000000000000000000000000000000000000000000000000000000000000000000000000000000000000000000000000000000000000000000000000000000000000000000000000000000000000000000000000000000000000000000000000000000000000000000000000000000000000000000000000000000000000000000000000000000000000000000000000000000000000000000000000000000000000000000000000000000000000000000000000000000000000000000000000000000000000000000000000000000000000000000000000000000000000000000000000000000000000000000000000000000000000000000000000000000000000000000000000000000000000000000000000000000000000000000000000000000000000000000000000000000000000000000000000000000000000000000000000000000000000000000000000000000000000000000000000000000000000000000000000000000000000000000000000000000000000000000000000000000000000000000000000000000000000000000000000000000000000000000000000000000000000000000000000000000000000000000000000000000000000000000000000000000000000000000000000000000000000000000000000000000000000000000000000000000000000000000000000000000000000000000000000000000000000000000000000000000000000000000000000000000000000000000000000000000000000000000000000000000000000000000000000000000000000000000000000000000000000000000000000000000000000000000000000000000000000000000000000000000000000000000000000000000000000000000000000000000000000000000000000000000000000000000000000000000000000000000000000000000000000000000000000000000000000000000000000000000000000000000000000000000000000000000000000000000000000000000000000000000000000000000000000000000000000000000000000000000000000000000000000000000000000000000000000000000000000000000000000000000000000000000000000000000000000000000000000000000000000000000000000000000000000000000000000000000000000000000000000000000000000000000
#063921:14
#063961:000000000000000000000000000000000000000000000000000000000000000000000000000000000000000000000000000000000000000000000000000000000000000000000000000000000000000000000000000000000000000000000000000000000000000000000000000000000000000000000000000000000000000000000000000000000000000000000000000000000000000000000000000000000000000000000000000000000000000000000000000000000000000000000000000000000000000000000000000000000000000000000000000000000000000000000000000000000000000000000000000000000000000000000000000000000000000000000000000000000000000000000000000000000000000000000000000000000000000000000000000000000000000000000000000000000000000000000000000000000000000000000000000000000000000000000000000000000000000000000000000000000000000000000000000000000000000000000000000000000000000000000000000000000000000000000000000000000000000000000000000000000000000000000000000000000000000000000000000000000000000000000000000000000000000000000000000000000000000000000054240000000000000000000000000000000000000000000000000000000000000000000000000000000000000000000000000000000000000000000000000000000000000000000000000000000000000000000000000000000000000000000000000000000000000000000000000000000000000000000000000000000000000000000000000000000000000000000000000000000000000000000000000000000000000000000000000000000000000000000000000000000000000000000000000000000000000000000000000000000000000000000000000000000000000000000000000000000000000000000000000000000000000000000000000000000000000000000000000000000000000000000000000000000000000000000000000000000000000000000000000000000000000000000000000000000000000000000000000000000000000000000000000000000000000000000000000000000000000000000000000000000000000000000000000000000000000000000000000000000000000000000000000000000000000000000000000000000000000000000000000000000000000000000000000000000000000000000000000000000000000000000000000000000000000000000000000000000000000000000000000000000000000000000000000000000000000000000000000000000000000000000000000000000000000000000000000000000000000000000000000000000000000000000000000000000000000000000000000000000000000000000000000000000000000000000000000000000000000000000000000000000000000000000000000000000000000000000000000000000000000000000000000000000000000000000000000000000000000000000000000000000000000000000000000000000000000000000000000000000000000000000000000000000000000000000000000000000000000000000000000000000000000000000000000000000000000000000000000000000000000000000000000000000000000000000000000000000000000000000000000000000000000000000000000000000000000000000000000000000000000000000000000000000000000000000000000000000000000000000000000000000000000000000000000000000000000000000000000000000000000000000000000000000000000000000000000000000000000000000000000000000000000000000000000000000000000000000000000000000000000000000000000000000000000000000000000000000000000000000000000000000000000000000000000000000000000000000000000000000000000000000000000000000000000000000000000000000000000000000000000000000000000000000000000000000000000000000000000000000000000000000000000000000000000000000000000000000000000000000000000000000000000000000000000000000000000000000000000000000000000000000000000000000000000000000000000000000000000000000000000000000000000000000000000000000000000000000000000000000000000000000000000000000000000000000000000000000000000000000000000000000000000000000000000000000000000000000000000000000000000000000000000000000000000000000000000000000000000000000000000000000000000000000000000000000000000000000000000000000000000000000000000000000000000000000000000000000000000000000000000000000000000000000000000000000000000000000000000000000000000000000000000000000000000000000000000000000000000000000000000000000000000000000000000000000000000000000000000000000000000000000000000000000000000000000000000000000000000000000000
#0639a1:0014
#063961:000000000000000000000000000000000000000000000000000000000000000000000000000000000000000000000000000000000000000000000000000000000000000000000000000000000000000000000000000000000000000000000000000000000000000000000000000000000000000000000000000000000000000000000000000000000000000000000000000000000000000000000000000000000000000000000000000000000000000000000000000000000000000000000000000000000000000000000000000000000000000000000000000000000000000000000000000000000000000000000000000000000000000000000000000000000000000000000000000000000000000000000000000000000000000000000000000000000000000000000000000000000000000000000000000000000000000000000000000000000000000000000000000000000000000000000000000000000000000000000000000000000000000000000000000000000000000000000000000000000000000000000000000000000000000000000000000000000000000000000000000000000000000000000000000000000000000000000000000000000000000000000000000000000000000000000000000000000000000000000000000000000000000000000000000000000000000000000000000000000000000000000000000000000000000000000000000000000000000000000000000000000000000000000000000000000000000000000000000000000000000000000000000000000000000000000000000000000000000000000000000000000000000000000000000000000000000000000000000000000000000000000000000000000000000000000000000000000000000000000000000000000000000000000000000000000000000000000000000000000000000000000000000000000000000000000000000000000000000000000000000000000000000000000000000000000000000000000000000000000000000000000000000000000000000000000000000000000000000000000000000000000000000000000000000000000000000000000000000000000000000000000000000000000000000000000000000000000000000000000000000000000000000000000000000000000000000000000000000000000000000000000000000000000000000000000000000000000000000000000000000000000000000000000000000000000000000000000000000000000000000000000000000000000000000000000000000000000000000000000000000000000000000000000000000000000000000000000000000000000000000000000000000000000000000000000000000000000000000000000000000000000000000000000000000000000000000000000000000000000000000000000000000000000000000000000000000000000000000000000000000000000000000000000000000000000000000000000000000000000000000000000000000000000000000000000000000000000000000000000000000000000000000000000000000000000000000000000000000000000000000000000000000000000000000000000000000000000000000000000000000000000000000000000000000000000000000000000000000000000000000000000000000000000000000000000000000000000000000000000000000000000000000000000000000000000000000000000000000000000000000000000000000000000000000000000000000000000000000000000000000000000000000000000000000000000000000000000000000000000000000000000000000000000000000000000000000000000000000000000000000000000000000000000000000000000000000000000000000000000000000000000000000000000000000000000000000000000000000000000054240000000000000000000000000000000000000000000000000000000000000000000000000000000000000000000000000000000000000000000000000000000000000000000000000000000000000000000000000000000000000000000000000000000000000000000000000000000000000000000000000000000000000000000000000000000000000000000000000000000000000000000000000000000000000000000000000000000000000000000000000000000000000000000000000000000000000000000000000000000000000000000000000000000000000000000000000000000000000000000000000000000000000000000000000000000000000000000000000000000000000000000000000000000000000000000000000000000000000000000000000000000000000000000000000000000000000000000000000000000000000000000000000000000000000000000000000000000000000000000000000000000000000000000000000000000000000000000000000000000000000000000000000000000000000000000000000000000000000000000000000000000000000000000000000000000000000000000000000000000000000000000000000000000000000000000000000000000000000000000000
#0809b1:000000000000000000000000000000000000000000000000000000000000000000000000000000000000000000000000000000000000000000000000000000000000000000000000000000000000000000000000000000000000000000000000000000000000000000000000000000000000000000000000000000000000000000000000000000000000000000000000000000000000000000000000000000000000000000000000000000000000000000000000000000000000000000000000000000000000000000000000000000000000000000000000000000000000000000000000000000000000000000000000000000000000000000000000000000000000000000000000000000000000000000000000000000000000000000000000000000000000000000000000000000000000000000000000000000000000000000000000000000000000000000000000000000000000000000000000000000000000000000000000000000000000000000000000000000000000000000000000000000000000000000000000000000000000000000000000000000000000000000000000000000000000000000000000000000000000000000000000000000000000000000000000000000000000000000000000000000000000000000000000000000000000000000000000000000000000000000000000000000000000000000000000000000000000000000000000000000000000000000000000000000000000000000000000000000000000000000000000000000000000000000000000000000000000000000000000000000000000000000000000000000000000000000000000000000000000000000000000000000000000000000000000000000000000000000000000000000000000000000000000000000000000000000000000000000000000000000000000000000000000000000000000000000000000000000000000000000000000000000000000000000000000000000000000000000000000000000000000000000000000000000000000000000000000000000000000000000000000000000000000000000000000000000000000000000000000000000000000000000000000000000000000000000000000000000000000000000000000000000000000000000000000000000000000000000000000000000000000000000000000000000000000000000000000000000000000000000000000000000000000000000000000000000000000000000000000000000000000000000000000000000000000000000000000000000000000000000000000000000000000130000000000000000000000000000000000000000000000000000000000000000000000000000000000000000000000000000000000000000000000000000000000000000000000000000000000000000000000000000000000000000000000000000000000000000000000000000000000000000000000000000000000000000000000000000000000000000000000000000000000000000000000000000000000000000000000000000000000000000000000000000000000000000000000000000000000000000000000000000000000000000000000000000000000000000000000000000000000000000000000000000000000000000000000000000000000000000000000000000000000000000000000000000000000000000000000000000000000000000000000000000000000000000000000000000000000000000000000000000000000000000000000000000000000000000000000000000000000000000000000000000000000000000000000000000000000000000000000000000000000000000000000000000000000000000000000000000000000000000000000000000000000000000000000000000000000000000000000000000000000000000000000000000000000000000000000000000000000000000000000000000000000000000000000000000000000000000000000000000000000000000000000000000000000000000000000000000000000000000000000000000000000000000000000000000000000000000000000000000000000000000000000000000000000000000000000000000000000000000000000000000000000000000000000000000000000000000000000000000000000000000000000000000000000000000000000000000000000000000000000000000000000000000000000000000000000000000000000000000000000000000000000000000000000000000000000000000000000000000000000000000000000000000000000000000000000000000000000000000000000000000000000000000000000000000000000000000000000000000000000000000000000000000000000000000000000000000000000000000000000000000000000000000000000000000000000000000000000000000000000000000000000000000000000000000000000000000000000000000000000000000000000000000000000000000000000000000000000000000000000000000000000000000000000000000000000000000000000000000000000000000000000000000000000000000000000000000000000000000535353
#080971:00000053
#0819b1:23
