This file was generated by Ched 2.7.0.0.
#TITLE ""
#ARTIST ""
#DESIGNER ""
#DIFFICULTY 0
#PLAYLEVEL
#SONGID ""
#WAVE ""
#WAVEOFFSET 0
#JACKET ""
#REQUEST "ticks_per_beat 480"
#00002: 4
#BPM01: 164
#00008: 01
#TIL00: ""
#VOLUME: ""
#HISPEED 00
#MEASUREHS 00
#0041a:1414
#00410:41
#00514:1414
#00618:1414
#00712:1414
#0081a:14
#00814:0014
#00918:1414
#00912:00140000
#01012:14
#01018:0014
#01114:1414
#0111a:00140000
#01218:1414
#01312:14
#01316:00140000
#0131a:0014
#01412:1414
#01612:14
#01618:00140000
#0161a:00000014
#01614:0014
#01610:41
#0181a:14
#01814:00140000
#01812:00000014
#01818:0014
#02012:14
#02018:00140000
#02014:0014
#0201a:00000014
#0221a:14
#02214:00140000
#02218:0014
#02212:00000014
#0231a:14
#02317:0014
#02414:0014
#02410:41
#02518:14
#02612:14
#02618:0014
#02714:14
#0281a:1414
#02912:1414
#03118:0014
#03114:00000014
#03218:1626
#03212:00260000
#03210:00410000
#0341a:14
#03414:00140000
#03418:0014
#03412:00000014
#0361a:14
#03614:00140000
#03618:0014
#03612:00000014
#0371a:14
#03714:00140000
#03312:14
#03318:00140000
#03812:14
#03818:00140000
#03814:0014
#0381a:00000014
#03912:14
#0401a:1414
#04114:1414
#04218:1414
#04312:1414
#04514:0014
#0471a:0014
#04912:0014
#05212:1414
#05218:00140000
#05210:41
#0531a:1414
#05314:00140000
#05614:14
#05618:00140000
#05612:0014
#05718:14
#05714:00140000
#0571a:0014
#05812:14
#05818:00140000
#05814:0014
#0591a:14
#05914:00140000
#06012:00140000
#06016:0014
#0601a:00000014
#0601f:11
#06114:14
#0611a:00140000
#06116:0014
#06112:00000014
#06218:14
#06212:00140000
#06216:0014
#0621a:00000014
#0641a:00140000
#06412:2614
#06416:00000014
#0651a:1414
#06512:00140000
#06516:00000014
#06612:14
#0671a:14
#06819:1400000000000025
#06813:14
#06812:0000000000000025
#0681f:0000000000000021
#0691a:00140000
#06914:0014
#06918:00000014
#07012:14140000
#0701a:00001414
#07010:41
#07212:14
#07218:00140000
#07214:0014
#0721a:00000014
#07312:14
#07316:00140014
#0731a:0014
#07518:00140014
#07514:0014
#07612:14
#07614:0014
#07618:00260014
#07712:14
#0771a:00140000
#07714:0014
#07718:00000014
#07812:14
#0781a:00140000
#07814:0014
#07818:00000014
#07912:14
#07916:00140014
#0791a:0014
#0351a:24240000
#03512:00002424
#05118:0026
#07112:26260000
#07118:00002626
#03013:24
#03019:24
#08012:24
#08212:0063000000000000
#01558:0014
#01752:0014
#0195a:0014
#02152:0014
#0245a:14
#0235a:64
#02357:0024
#02558:64
#02652:14
#02754:64
#03053:0000000000000014
#03059:0000000000000014
#03354:00000014
#03758:00000014
#03955:0014
#03952:64
#05154:14
#06058:14
#06258:14
#06154:14
#0655a:14
#06654:0014
#06652:64
#06758:0014
#0675a:64
#06452:16
#06859:2400000000000015
#06853:24
#06852:0000000000000015
#07252:14
#07452:0000000000000014
#08052:64
#03258:0016
#000380:1400003400000000
#0003a0:00000024
#001340:1400003400000000
#001320:00000024
#002380:1400003400000000
#0023a0:00000024
#003340:1400003400000000
#003320:00000024
#015380:1424
#017320:1424
#0193a0:1424
#021320:1424
#0233a0:14
#023370:0054
#0243a0:24
#025380:14
#0253a0:0024
#027340:14
#027320:0024
#030330:1400000000000024
#030391:1400000000000024
#033341:00001424
#037381:00001424
#039321:14
#039351:0024
#044381:14
#0453a1:24
#046341:14
#047321:24
#0483a1:14
#049381:24
#050321:14
#051341:24
#054321:1424
#0553a1:1424
#059381:0014
#060381:24
#063321:16260000
#063381:00001626
#066321:14
#066341:0024
#0673a1:14
#067381:0024
#068391:1400000000000025
#068330:14
#068320:0000000000000025
#074320:1400000034000024
#080320:14
#082320:0023000000000000
