This file was generated by Ched 2.7.0.0.
#TITLE ""
#ARTIST ""
#DESIGNER ""
#DIFFICULTY 0
#PLAYLEVEL
#SONGID ""
#WAVE ""
#WAVEOFFSET 0
#JACKET ""
#REQUEST "ticks_per_beat 480"
#00002: 4
#BPM01: 174
#00008: 01
#TIL00: "87'1440:1, 87'1438:10000"
#VOLUME: ""
#HISPEED 00
#MEASUREHS 00
#03718:00140000
#04314:0000000000140000
#04318:0014000000000000
#03214:00140000
#03218:00000014
#03418:00140000
#03414:00000014
#0351a:00140014
#03612:00140014
#00818:14
#00918:14
#00914:0000000000000024
#0121a:14
#01312:14
#0131a:0000000000000024
#01310:0000000000000041
#01614:14
#01714:14
#01718:0000000000000024
#02012:14
#0211a:14
#02114:0000000000000024
#02110:0000000000000041
#02418:14
#02518:14
#02512:0000000000000024
#0281a:14
#02914:14
#0291f:0000000000000011
#0291a:0000000000000024
#06018:0000000000160000
#06010:41
#06112:0016000000000000
#06118:0000000000160000
#06212:0016000000000000
#06218:0000000000160000
#06318:0016000000000000
#06312:0000000000160000
#06412:0016000000000000
#07118:0000000000140000
#07212:0000000000140000
#07512:0000000000140000
#07618:0000000000140000
#0791a:0000000000140000
#08014:0000000000140000
#08314:0000000000140000
#04612:0000000000160000
#04818:0016000000000000
#04812:0000000000160000
#04712:0016000000000000
#04718:0000000000160000
#05012:0000000000160000
#05018:0016000000000000
#04912:0000000000160000
#04918:0016000000000000
#05418:0000000000160000
#05612:0016000000000000
#05618:0000000000160000
#05518:0016000000000000
#05512:0000000000160000
#05818:0000000000160000
#05812:0016000000000000
#05718:0000000000160000
#05712:0016000000000000
#00512:0000000000000024
#00510:0000000000000041
#06912:0024
#06910:0041
#07318:0024
#07714:0024
#0811a:0024
#0441f:0021
#04418:0026
#05212:0026
#04014:0034
#03914:00000034
#03812:00340034
#04114:00340000
#0311a:00340000
#0301a:00340034
#04510:0041
#0013a0:1434
#002380:34
#003380:0000000000240000
#005320:0000000000000014
#007320:24
#009340:0000000000000014
#010340:0000000000000024
#0133a0:0000000000000014
#0153a0:24
#017380:0000000000000014
#018380:0000000000000024
#021340:0000000000000014
#023340:24
#025320:0000000000000014
#026320:0000000000000024
#0293a0:0000000000000014
#0303a0:00340034
#0313a0:00340000
#031380:00000024
#033320:00140024
#037320:0000000000000014
#038320:00340034
#039340:34000034
#040340:0034
#041340:00340000
#041320:0000000000000038
#042320:0024
#044380:0016
#045380:0036000000360000
#046380:0026000000000000
#051380:0016000000260000
#052320:0016
#053320:0036000000360000
#054320:0026000000000000
#059320:0016000000260000
#064380:0000000000160000
#065390:0000003500000000
#0663a0:0034000000340000
#067390:0000003500000000
#068380:0036000000260000
#069320:0014
#070320:0000000000240000
#073380:0014
#074380:0024
#077340:0014
#078340:0000000000240000
#0813a0:0014
#0823a0:0024
#0843a0:0000000000140000
#0853a0:0024
#0879d0:000000000000000000000000000000000000000000000000000000000000000000000000000000000000000000000000000000000000000000000000000000000000000000000000000000000000000000000000000000000000000000000000000000000000000000000000000000000000000000000000000000000000000000000000000000000000000000000000000000000000000000000000000000000000000000000000000000000000000000000000000000000000000000000000000000000000000000000000000000000000000000000000000000000000000000000000000000000000000000000000000000000000000000000000000000000000000000000000000000000000000000000000000000000000000000000000000000000000000000000000000000000000000000000000000000000000000000000000000000000000000000000000000000000000000000000000000000000000000000000000000000000000000000000000000000000000000000000000000000000000000000000000000000000000000000000000000000000000000000000000000000000000000000000000000000000000000000000000000000000000000000000000000000000000000000000000000000000000000000000000000000000000000000000000000000000000000000000000000000000000000000000000000000000000000000000000000000000000000000000000000000000000000000000000000000000000000000000000000000000000000000000000000000000000000000000000000000000000000000000000000000000000000000000000000000000000000000000000000000000000000000000000000000000000000000000000000000000000000000000000000000000000000000000000000000000000000000000000000000000000000000000000000000000000000000000000000000000000000000000000000000000000000000000000000000000000000000000000000000000000000000000000000000000000000000000000000000000000000000000000000000000000000000000000000000000000000000000000000000000000000000000000000000000000000000000000000000000000000000000000000000000000000000000000000000000000000000000000000000000000000000000000000000000000000000000000000000000000000000000000000000000000000000000000000000000000000000000000000000000000000000000000000000000000000000000000000000000000000000000000000000000000000000000000000000000000000000000000000000000000000000000000000000000000000000000000000000000000000000000000000000000000000000000000000000000000000000000000000000000000000000000000000000000000000000000000000000000000000000000000000000000000000000000000000000000000000000000000000000000000000000000000000000000000000000000000000000000000000000000000000000000000000000000000000000000000000000000000000000000000000000000000000000000000000000000000000000000000000000000000000000000000000000000000000000000000000000000000000000000000000000000000000000000000000000000000000000000000000000000000000000000000000000000000000000000000000000000000000000000000000000000000000000000000000000000000000000000000000000000000000000000000000000000000000000000000000000000000000000000000000000000000000000000000000000000000000000000000000000000000000000000000000000000000000000000000000000000000000000000000000000000000000000000000000000000000000000000000000000000000112100000000000000000000000000000000000000000000000000000000000000000000000000000000000000000000000000000000000000000000000000000000000000000000000000000000000000000000000000000000000000000000000000000000000000000000000000000000000000000000000000000000000000000000000000000000000000000000000000000000000000000000000000000000000000000000000000000000000000000000000000000000000000000000000000000000000000000000000000000000000000000000000000000000000000000000000000000000000000000000000000000000000000000000000000000000000000000000000000000000000000000000000000000000000000000000000000000000000000000000000000000000000000000000000000000000000000000000000000000000000000000000000000000000000000000000000000000000000000000000000000000000000000000000000000000000000000000000000000000000000000000000000000000000000000000000000000000000000000000000000000000000000000000000000000000000000000000000000000000000000000000000000000000000000000000000000000000000000000000000
