This file was generated by Ched 2.7.0.0.
#TITLE ""
#ARTIST ""
#DESIGNER ""
#DIFFICULTY 0
#PLAYLEVEL
#SONGID ""
#WAVE ""
#WAVEOFFSET 0
#JACKET ""
#REQUEST "ticks_per_beat 480"
#00002: 4
#BPM01: 174
#00008: 01
#TIL00: "87'1440:1, 87'1438:10000"
#VOLUME: ""
#HISPEED 00
#MEASUREHS 00
#00618:00000013
#00612:00130000
#00615:0000000013000013
#00818:0000130000000013
#00815:0013
#00812:00000013
#0081b:13
#00912:1300000000000026
#00915:00130000
#0091b:00000013
#00918:0013
#06418:0000000000000013
#06415:00000013
#06412:0013
#0641b:0000000000230000
#04515:00000013
#04518:0000140000000013
#04512:0014000000130000
#0451a:1414
#04514:0000001400000000
#04510:0041
#0351b:0000000000000013
#03518:0014
#03512:0000000000000013
#03514:2400000000140000
#0461b:13
#04615:0000130000000013
#04618:0000001300000000
#04818:0000001300000000
#04815:0013
#04812:0000000000003313
#05112:00000000000000000000000000130000
#05115:0013001300130000
#05118:13131300
#07012:0013001300000000
#0701b:00130000
#07015:0000000000130013
#07018:00001313
#06915:00000013
#06918:0000000026000013
#06910:0041
#07318:0000001300001300
#0731b:0013000000000000
#07315:0000130000000013
#07312:0026
#08518:00161600
#08512:0016001600000000
#00718:1313
#00715:0000130000000013
#0071b:00000013
#01015:00000013
#0101b:00130000
#01018:0000000013000026
#01215:0000130000000013
#01218:0013
#0121b:00000013
#0131b:13
#01318:0000130000000026
#01312:00000013
#01315:0013
#01310:0000000000000041
#01418:00001313
#01415:0000130000130013
#01518:13
#01512:00130000
#01515:0000000000130013
#0151b:00001313
#0161b:13
#01615:00130000
#01618:00001313
#01612:0000000000130013
#01712:0000130000130026
#0171b:00001313
#01718:13
#01818:00130013
#01812:0000000026000026
#0191b:00130000
#01918:0000000000130013
#01912:00001313
#02012:13
#02018:00130000
#02015:00001313
#0201b:0000000000130013
#0211b:0000130000130000
#02112:00001313
#02115:13
#02118:0000000000000026
#02110:0000000000000041
#02219:00000013
#02212:0000130000130000
#02217:0013
#02214:0000000000000013
#0231b:1313
#02315:00130000
#02319:00000013
#02312:0000000000000013
#02314:0000000000130000
#02412:00130000
#02417:1313
#02419:00000013
#02416:0000000000000013
#02414:0000000000130000
#02615:00000013
#02618:0000130000130026
#02612:0013
#02715:00130013
#02718:0000000026000026
#0251b:1313
#02515:0000130000130000
#02518:00000013
#02512:0000000000000026
#0281b:00130000
#02814:00000013
#02816:0013
#02817:0000000000000013
#02819:0000000000130000
#02912:1313
#02918:0000130000130026
#02915:00000013
#0291f:0000000000000011
#03014:0014001400000000
#03018:00140000
#0301a:00001414
#03012:0000000000140014
#03118:1414
#03114:0014000000140000
#0311a:0000140000000014
#03112:0000001400000000
#03314:0014
#03312:0000000000000014
#03318:2400000000140000
#03615:00130000
#03618:0013001300130000
#03612:00001313
#0361b:0000000000000013
#03712:0000130000000026
#03715:1313
#0371b:0013000000130000
#03718:0000001300000000
#03818:0014001400000000
#03814:00140000
#03812:00001414
#0381a:0000000000140014
#03912:13
#0391b:00000013
#03915:00000033000023000000000000000000
#03918:00000000000000000000000000000033
#04012:0014
#04018:0023000000000000
#04016:0000000000000024
#04014:00000000000000000000003400000000
#0411a:00140000
#04116:0000000000240000
#04118:00000000000000340000000000000000
#04212:0014
#0421a:0014
#04218:00000013
#04215:0000000000000013
#04318:13
#04312:0013001300000000
#0431b:00131300
#04418:00000014
#04414:0000000000000014
#0441a:0024
#04412:0024
#0441f:0021
#04718:0000001300000000
#04715:0000000000000023
#04918:0013
#0491b:0000000000003313
#05012:0013
#0501b:0013
#05018:00000013
#05015:0000000000000013
#05215:13
#05212:0024
#05217:00000024
#05214:0000000000000024
#05314:00000014
#05318:2400000000000014
#05313:0024000000000000
#05319:00240000
#05312:0000002400000000
#0531a:0024
#05414:14
#05418:0000130000000013
#05415:0000001300000000
#05615:0000001300000000
#05618:0013
#0561b:0000000000003313
#05515:0000001300000000
#05518:0000000000000023
#05715:0013
#05712:0000000000003313
#0591b:00000000000000000000000000130000
#05918:0013001300130000
#05915:13131300
#0581b:0013
#05812:0013
#05815:00000013
#05818:0000000000000013
#06018:13
#06012:0000000000000014
#0601a:0000000000240000
#06010:41
#0611a:0000001400000014
#06112:00001414
#06116:0000000000140000
#06216:1400001400000000
#0621a:0014000014000000
#06212:0000140000000023
#06318:0000230000000013
#06315:0000002300000000
#0631b:0023
#06518:0014000000000000
#06514:00141500
#06517:0000000000150000
#06516:0000000000000016
#06519:0000002500000000
#06512:24000026
#06614:16
#06615:0000000000000013
#06618:0026000000001300
#06612:0000000000230000
#06714:0014000000150016
#06718:00140026
#06717:0015
#06712:0000002500000000
#0671a:24
#06816:16
#06812:0026001600000000
#07715:0000001300001300
#07712:0013000000000000
#07718:0000130026000013
#07518:0000130026000013
#07515:0000001300001300
#07512:0013000000000000
#07812:0013000000000013
#07818:0000130000130000
#07815:0000001300001300
#0781b:0013
#07918:0000001300001300
#0791b:0013000000000013
#07915:0000130000130000
#07912:0013
#0711b:0013001300000000
#07112:00130000
#07118:0000000000130013
#07115:00001313
#07212:0013001300000000
#0721b:00130000
#07215:0000000000130013
#07218:00001313
#0741b:0013001300000000
#07412:00130000
#07418:0000000000130013
#07415:00001313
#07615:0000001300001300
#07618:0000130026000013
#07612:0026000000000000
#08015:00130013
#08012:0013000000000013
#08018:0000001300130000
#0801b:0013
#08118:0000001300001300
#0811b:0013000000000000
#08115:0000130000000013
#08112:0026
#0821b:0013000000000013
#08215:0000130000130000
#08218:0000001300001300
#08212:0013
#08315:0000001300001300
#08312:0013000000000013
#08318:0000130000130000
#0831b:0013
#08418:00130013
#0841b:0013000000000013
#08415:0000001300130000
#08412:0013
#01115:00130013
#01118:0000000026000026
#00118:24242400
#00114:0024002400000000
#00215:00230000
#00218:2400002300000000
#00314:00240000
#00318:0000002400000000
#00315:0000000000260000
#00518:0000000000000026
#00510:0000000000000041
#00258:14
#00355:0000000000160000
#00558:0000000000000016
#03955:0000001300000000
#03952:53
#0395b:00000063
#05152:00000000000000000000000000530000
#05155:0000000000630000
#06855:0000000000160000
#06852:0000005600000000
#00952:0000000000000016
#06958:0016
#07352:0016
#08558:0016
#01358:0000000000000016
#01752:0000000000000016
#02158:0000000000000016
#02552:0000000000000016
#01852:0000000016000016
#02658:0000000000000016
#02758:0000000016000016
#02958:0000000000000016
#03154:0000000000140000
#0315a:0000000000000064
#03358:1400000000140000
#03352:0000000000000054
#03554:1400000000140000
#03752:0000000000000016
#04058:0013000000000000
#04052:0054
#04056:0000000000000014
#0415a:00640000
#04156:0000000000140000
#0445a:0014
#04452:0014
#04655:0000000000000063
#04752:0013000000000000
#04758:0000005300000000
#0475b:0000000000130000
#04755:0000000000000063
#04852:0013000000000053
#04855:0063
#04955:0013000000000000
#04958:0053
#0495b:0000000000000063
#05058:0013000000000000
#05252:0014
#05255:63
#05458:0000000000000053
#05555:0000006300000000
#0555b:0013000000000000
#05552:0000000000130000
#05558:0000000000000053
#05658:0053
#0565b:0013000000000063
#05755:0063
#05752:0000000000000053
#05758:0013000000000000
#05855:0013000000000000
#0595b:00000000000000000000000000630000
#05958:0000000000530000
#06058:53
#0605a:0000000000140000
#06052:0000000000000054
#06252:0000000000000053
#06358:0000000000000053
#0635b:0063
#06658:0000001600000000
#07558:0016
#07652:0016000000000000
#07658:0016
#07758:0016
#08152:0016
#01058:0000000000000016
#01158:0000000016000016
#0535a:0014
#0645b:0013000000000000
#001380:00000000000000001434343434343434
#002380:24
#0313a0:0000000000000014
#032360:0034003400340034
#032380:00343434
#033380:24
#033320:0000000000000014
#034360:0034003400340034
#034340:00343434
#035340:24
#039320:13
#039350:00000033000023000000000000000000
#0393b0:00000013
#039380:00000000000000000000000000000033
#040380:0023000000000000
#040320:0014
#040340:00000000000000000000003400000000
#040360:0000000000000024
#0413a0:00140000
#041380:00000000000000340000000000000000
#041360:0000000000240000
#046350:0000000013000033
#047320:0023000000000000
#047380:0000001300000000
#0473b0:0000000000230000
#047350:0000000000000013
#048320:0023000000000000
#048350:0013
#048320:0000000000003333
#049350:0023000000000000
#049380:0013
#0493b0:0000000000003333
#050380:0023000000000000
#051350:0000000000130000
#051320:00000000000000000000000000330000
#052350:33
#052320:0024
#054380:0000000013000033
#0553b0:0023000000000000
#055350:0000001300000000
#055320:0000000000230000
#055380:0000000000000013
#0563b0:0023000000000000
#056380:0013
#0563b0:0000000000003333
#057380:0023000000000000
#057350:0013
#057320:0000000000003333
#058350:0023000000000000
#059380:0000000000130000
#0593b0:00000000000000000000000000330000
#060380:33
#0603a0:0000000000240000
#060320:0000000000000014
#061360:00240000
#062320:0000000000000013
#063350:0023000000000000
#0633b0:0013
#063380:0000000000003333
#0643b0:0023000000000000
#066380:0016002600000000
#068320:0016003600000000
#068350:0000000000260000
#0879d0:000000000000000000000000000000000000000000000000000000000000000000000000000000000000000000000000000000000000000000000000000000000000000000000000000000000000000000000000000000000000000000000000000000000000000000000000000000000000000000000000000000000000000000000000000000000000000000000000000000000000000000000000000000000000000000000000000000000000000000000000000000000000000000000000000000000000000000000000000000000000000000000000000000000000000000000000000000000000000000000000000000000000000000000000000000000000000000000000000000000000000000000000000000000000000000000000000000000000000000000000000000000000000000000000000000000000000000000000000000000000000000000000000000000000000000000000000000000000000000000000000000000000000000000000000000000000000000000000000000000000000000000000000000000000000000000000000000000000000000000000000000000000000000000000000000000000000000000000000000000000000000000000000000000000000000000000000000000000000000000000000000000000000000000000000000000000000000000000000000000000000000000000000000000000000000000000000000000000000000000000000000000000000000000000000000000000000000000000000000000000000000000000000000000000000000000000000000000000000000000000000000000000000000000000000000000000000000000000000000000000000000000000000000000000000000000000000000000000000000000000000000000000000000000000000000000000000000000000000000000000000000000000000000000000000000000000000000000000000000000000000000000000000000000000000000000000000000000000000000000000000000000000000000000000000000000000000000000000000000000000000000000000000000000000000000000000000000000000000000000000000000000000000000000000000000000000000000000000000000000000000000000000000000000000000000000000000000000000000000000000000000000000000000000000000000000000000000000000000000000000000000000000000000000000000000000000000000000000000000000000000000000000000000000000000000000000000000000000000000000000000000000000000000000000000000000000000000000000000000000000000000000000000000000000000000000000000000000000000000000000000000000000000000000000000000000000000000000000000000000000000000000000000000000000000000000000000000000000000000000000000000000000000000000000000000000000000000000000000000000000000000000000000000000000000000000000000000000000000000000000000000000000000000000000000000000000000000000000000000000000000000000000000000000000000000000000000000000000000000000000000000000000000000000000000000000000000000000000000000000000000000000000000000000000000000000000000000000000000000000000000000000000000000000000000000000000000000000000000000000000000000000000000000000000000000000000000000000000000000000000000000000000000000000000000000000000000000000000000000000000000000000000000000000000000000000000000000000000000000000000000000000000000000000000000000000000000000000000000000000000000000000000000000000000000000000000000000000000000000000000112100000000000000000000000000000000000000000000000000000000000000000000000000000000000000000000000000000000000000000000000000000000000000000000000000000000000000000000000000000000000000000000000000000000000000000000000000000000000000000000000000000000000000000000000000000000000000000000000000000000000000000000000000000000000000000000000000000000000000000000000000000000000000000000000000000000000000000000000000000000000000000000000000000000000000000000000000000000000000000000000000000000000000000000000000000000000000000000000000000000000000000000000000000000000000000000000000000000000000000000000000000000000000000000000000000000000000000000000000000000000000000000000000000000000000000000000000000000000000000000000000000000000000000000000000000000000000000000000000000000000000000000000000000000000000000000000000000000000000000000000000000000000000000000000000000000000000000000000000000000000000000000000000000000000000000000000000000000000000000000
