This file was generated by Ched 2.7.0.0.
#TITLE ""
#ARTIST ""
#DESIGNER ""
#DIFFICULTY 0
#PLAYLEVEL
#SONGID ""
#WAVE ""
#WAVEOFFSET 0
#JACKET ""
#REQUEST "ticks_per_beat 480"
#00002: 4
#BPM01: 174
#00008: 01
#TIL00: "87'1440:1, 87'1438:10000"
#VOLUME: ""
#HISPEED 00
#MEASUREHS 00
#03018:00140014
#03014:0014
#03114:1400000000000014
#03118:00140000
#0361a:00140000
#03612:0014
#03618:00000014
#03812:00140000
#03818:0014
#03814:00000014
#04213:0014
#04219:0014
#0421a:0000000000000014
#04414:0000000000000014
#0441a:0024
#0441f:0021
#04516:0000000000140000
#04512:0000001400000000
#04518:0014000000000000
#0451a:0000000000000014
#04510:0041
#0611a:0014000000000000
#06112:0000001400000000
#06118:0000000000140000
#06114:0000000000000014
#0621a:0014000000000014
#06216:0000001400000000
#06212:0000000000140000
#01814:00140014
#01912:00140014
#01912:00140014
#02018:00140014
#0211a:00140014
#02110:0000000000000041
#02212:00140014
#02218:0014
#02614:00140014
#02618:0014
#0291a:00140000
#0291f:0000000000000011
#02912:0000000000000024
#0271a:00140014
#0271a:00140014
#02712:0014
#02814:00140014
#02818:0014
#00612:00140014
#00712:00140014
#00712:00140014
#0081a:00140014
#0091a:00140014
#01014:00140014
#01114:00140014
#01114:00140014
#01412:00140014
#01514:00140014
#01514:00140014
#01218:00140014
#01318:00140014
#01318:00140014
#01310:0000000000000041
#01718:00140014
#0161a:00140014
#0231a:00140014
#02314:0014
#02412:00140014
#02418:0014
#0251a:00140014
#02514:0014
#03318:0000000000000014
#03312:24
#03514:0014
#0351a:24
#03714:14
#0371a:0000140000000024
#03712:0014
#04312:0000001400000000
#04316:0014000000000000
#04612:0014000000000000
#04618:0000001400000000
#04614:0000000000140000
#0461a:0000000000000014
#04716:0014000000000000
#05218:0000000000000014
#05212:0024
#05316:0000000000140000
#0531a:0000001400000000
#05314:0014000000000000
#05312:0000000000000014
#0541a:0014000000000000
#05414:0000001400000000
#05418:0000000000140000
#05412:0000000000000014
#05516:0014000000000000
#06012:0000000000000014
#0601a:0000000000240000
#06010:41
#06312:0014000000000000
#06318:0000001400000000
#06314:0000000000140000
#0631a:0000000000000014
#06918:0000000000000014
#06912:0024
#06910:0041
#07012:0014000000000000
#0701a:0000000000000014
#07019:0000001400000000
#07013:0000000000140000
#07114:0014000000140000
#0711a:0000001400000000
#07119:0000000000000014
#07213:0014000000000000
#07218:0000001400000000
#07216:0000000000000014
#07212:0000000000140000
#07314:0000000000000014
#0731a:0024
#0741a:0014000000000000
#07412:0000000000000014
#07413:0000001400000000
#07419:0000000000140000
#07518:0014000000140000
#07512:0000001400000000
#07513:0000000000000014
#07619:0014000000000000
#07614:0000001400000000
#07616:0000000000000014
#0761a:0000000000140000
#0771a:0000000000000014
#07712:0024
#07816:0014000000000000
#07812:0000001400000000
#07814:0000000000000014
#07818:0000000000140000
#07912:0000000000140000
#07918:0000000000000014
#0791a:0014000000000000
#07916:0000001400000000
#08014:0014000000000000
#0801a:0000001400000000
#08016:0000000000000014
#08012:0000000000140000
#08112:0000000000000014
#0811a:0024
#08216:0014000000000000
#0821a:0000001400000000
#08218:0000000000000014
#08214:0000000000140000
#0831a:0000000000140000
#08314:0000000000000014
#08312:0014000000000000
#08316:0000001400000000
#08418:0014000000000000
#08412:0000001400000000
#08416:0000000000000014
#0841a:0000000000140000
#06514:15000017
#06512:0000001600000000
#06717:15
#06718:0000001600000000
#06715:00000017
#06816:0000001800000000
#04016:0000000000000016
#04018:0016
#04017:0015000000000000
#04117:00170000
#03919:00000015
#0391a:14
#03918:0000001400000000
#0011a:14
#00112:00140000
#04812:0000000000140000
#04816:0000000000000014
#0491a:0014000000140000
#04912:0000001400000000
#04916:0000000000000014
#05012:0014000000000000
#0501a:0000001400000000
#05013:0000000000140000
#05019:0000000000000014
#05114:0014000000000000
#05118:0000001400000000
#05113:0000000000140000
#05119:0000000000000014
#0561a:0000000000140000
#05616:0000000000000014
#05712:0014000000140000
#0571a:0000001400000000
#05716:0000000000000014
#0581a:0014000000000000
#05812:0000001400000000
#05819:0000000000140000
#05813:0000000000000014
#05918:0014000000000000
#05914:0000001400000000
#05919:0000000000140000
#05913:0000000000000014
#00518:0000000000000024
#00510:0000000000000041
#06412:0000000000240000
#0661a:0000000000240000
#00558:0000000000000014
#06952:0014
#03154:0000000000000064
#03352:14
#03358:0000000000000054
#0375a:0000000000000014
#0445a:0014
#04752:0000000000140000
#0485a:0014000000000000
#02952:0000000000000014
#0355a:14
#03552:0000000000000014
#03554:0064
#04155:0000000000170000
#04157:00670000
#05252:0014
#0555a:0000000000140000
#05652:0014000000000000
#0635a:0000000000000064
#06652:0000001800000000
#0665a:0000000000640000
#06855:0000000000160000
#06856:0000006800000000
#0735a:0014
#07752:0014
#0815a:0014
#08552:0014
#06554:65000067
#06552:0000005600000000
#06452:0000000000540000
#06757:55
#06758:0000006600000000
#06755:00000057
#04056:0000000000000056
#04058:0066
#04057:0055000000000000
#03959:00000065
#0395a:64
#03958:0000005400000000
#0035a:0000000000140000
#0605a:0000000000140000
#0013a0:0014
#002380:34340000
#003380:00340000
#0033a0:0000000000240000
#029320:0000000014000024
#031340:0000000014000034
#032320:00343434
#033320:24
#033380:0000000014000034
#0343a0:00343434
#0353a0:24
#035340:0014
#035320:0000000000000024
#0393a0:14
#039380:0000003400000000
#039390:00000035
#040370:0035000000000000
#040380:0036
#040360:0000000000000036
#041370:00370000
#041350:0000000000270000
#047320:0000001400240000
#0473a0:0000000000000014
#0483a0:0024000000000000
#052320:0014000024000000
#0553a0:0000001400240000
#055320:0000000000000014
#056320:0024000000000000
#0603a0:0014000000240000
#0633a0:0000000000000014
#064380:0000002400000000
#064320:0000000000140000
#065340:35000037
#065320:0000003600000000
#066320:0038002800000000
#0663a0:0000000000140000
#067370:35
#067380:0000003600000000
#067350:00000037
#068360:0038003800000000
#068350:0000000000260000
#0733a0:0014000024000000
#077320:0014000024000000
#0813a0:0014000024000000
#085320:0014000024000000
#0879d0:000000000000000000000000000000000000000000000000000000000000000000000000000000000000000000000000000000000000000000000000000000000000000000000000000000000000000000000000000000000000000000000000000000000000000000000000000000000000000000000000000000000000000000000000000000000000000000000000000000000000000000000000000000000000000000000000000000000000000000000000000000000000000000000000000000000000000000000000000000000000000000000000000000000000000000000000000000000000000000000000000000000000000000000000000000000000000000000000000000000000000000000000000000000000000000000000000000000000000000000000000000000000000000000000000000000000000000000000000000000000000000000000000000000000000000000000000000000000000000000000000000000000000000000000000000000000000000000000000000000000000000000000000000000000000000000000000000000000000000000000000000000000000000000000000000000000000000000000000000000000000000000000000000000000000000000000000000000000000000000000000000000000000000000000000000000000000000000000000000000000000000000000000000000000000000000000000000000000000000000000000000000000000000000000000000000000000000000000000000000000000000000000000000000000000000000000000000000000000000000000000000000000000000000000000000000000000000000000000000000000000000000000000000000000000000000000000000000000000000000000000000000000000000000000000000000000000000000000000000000000000000000000000000000000000000000000000000000000000000000000000000000000000000000000000000000000000000000000000000000000000000000000000000000000000000000000000000000000000000000000000000000000000000000000000000000000000000000000000000000000000000000000000000000000000000000000000000000000000000000000000000000000000000000000000000000000000000000000000000000000000000000000000000000000000000000000000000000000000000000000000000000000000000000000000000000000000000000000000000000000000000000000000000000000000000000000000000000000000000000000000000000000000000000000000000000000000000000000000000000000000000000000000000000000000000000000000000000000000000000000000000000000000000000000000000000000000000000000000000000000000000000000000000000000000000000000000000000000000000000000000000000000000000000000000000000000000000000000000000000000000000000000000000000000000000000000000000000000000000000000000000000000000000000000000000000000000000000000000000000000000000000000000000000000000000000000000000000000000000000000000000000000000000000000000000000000000000000000000000000000000000000000000000000000000000000000000000000000000000000000000000000000000000000000000000000000000000000000000000000000000000000000000000000000000000000000000000000000000000000000000000000000000000000000000000000000000000000000000000000000000000000000000000000000000000000000000000000000000000000000000000000000000000000000000000000000000000000000000000000000000000000000000000000000000000000000000000000000000000000000112100000000000000000000000000000000000000000000000000000000000000000000000000000000000000000000000000000000000000000000000000000000000000000000000000000000000000000000000000000000000000000000000000000000000000000000000000000000000000000000000000000000000000000000000000000000000000000000000000000000000000000000000000000000000000000000000000000000000000000000000000000000000000000000000000000000000000000000000000000000000000000000000000000000000000000000000000000000000000000000000000000000000000000000000000000000000000000000000000000000000000000000000000000000000000000000000000000000000000000000000000000000000000000000000000000000000000000000000000000000000000000000000000000000000000000000000000000000000000000000000000000000000000000000000000000000000000000000000000000000000000000000000000000000000000000000000000000000000000000000000000000000000000000000000000000000000000000000000000000000000000000000000000000000000000000000000000000000000000000000
