This file was generated by Ched 2.7.0.0.
#TITLE ""
#ARTIST ""
#DESIGNER ""
#DIFFICULTY 0
#PLAYLEVEL
#SONGID ""
#WAVE ""
#WAVEOFFSET 0
#JACKET ""
#REQUEST "ticks_per_beat 480"
#00002: 4
#BPM01: 108
#00008: 01
#TIL00: ""
#VOLUME: ""
#HISPEED 00
#MEASUREHS 00
#00113:14
#00219:14
#0051a:14
#00510:41
#0061a:14
#00714:14
#00814:14
#00918:14
#01018:14
#01112:14
#01212:14
#01718:14
#0171a:0014
#01914:14
#01912:0014
#02112:0016
#02118:26
#02110:41
#02218:16
#02212:0016
#02518:1616
#02612:1616
#03314:0014
#03318:00000014
#0331a:24
#03412:14
#03418:0014
#03414:00000014
#02914:0014
#0291a:24
#02910:41
#03018:14
#03012:0014
#0311a:14
#03114:0014
#03218:14
#03212:0014
#04813:14
#05014:0014
#05018:26000014
#0501f:21
#05112:14
#05118:0014
#05114:00000014
#05110:41
#05318:0014
#05314:00000014
#05312:26
#0541a:14
#05414:0014
#05418:00000014
#0431f:11
#02812:26363600
#04612:26
#04618:0026
#04712:26
#05512:24
#01310:41
#03710:41
#01758:64
#0175a:0024
#01954:64
#01952:0024
#04853:24
#04752:66
#003330:14
#004320:26
#013380:14
#0143a0:24
#015340:14
#016320:24
#017380:14
#0173a0:0054
#018380:24
#019340:14
#019320:0054
#020340:24
#023380:1626
#024320:1626
#027380:1626
#028320:16363600
#028330:00000024
#0353a0:14
#037380:26
#039320:14
#040340:34
#041320:34
#042340:24
#0433a0:14
#044380:3424
#047320:16
#048330:54
#049320:26
#0523a0:1424
#055320:14
#056320:3636360000000000
#057320:26
