This file was generated by Ched 2.7.0.0.
#TITLE ""
#ARTIST ""
#DESIGNER ""
#DIFFICULTY 0
#PLAYLEVEL
#SONGID ""
#WAVE ""
#WAVEOFFSET 0
#JACKET ""
#REQUEST "ticks_per_beat 480"
#00002: 4
#BPM01: 108
#00008: 01
#TIL00: ""
#VOLUME: ""
#HISPEED 00
#MEASUREHS 00
#0011b:0000000000130000
#00115:000000000013000000000000000000130000000000000000
#0011a:24000013
#00114:00000013
#00113:0000000000000013
#00119:0000000000000013
#00118:00130000
#00112:24
#00212:1300000000130000
#00218:130000000013000000000000000000130000000000000000
#00213:00000013
#00219:00000013
#0021a:0000000000000013
#00214:0000000000000013
#00215:00130000
#00315:13
#00318:00130000
#0031b:000000000000000000000013000000130000000000000000
#00316:0013
#00312:0000000000130000
#00313:00000013
#0031a:00000013
#00319:0000000000000013
#00314:0000000000000013
#00418:1300220000262300
#00415:230000000000000000000000000000000013000000000000
#00416:00620000
#00516:14
#0051b:000000000013000000000000000000000000000000000000
#00510:41
#00612:000000000013000000000000000000000000000000000000
#0071b:000000000013000000000000000000000000000000000000
#00818:000000130000240000150000000000000013000000130000
#00814:000000000000140000000000000000000000005300000000
#00815:0023000000131300
#00813:000000000000000000250000000000000000000053000000
#00812:0000000000000053
#00819:000000000000000000000053
#0081a:000000000000000000000000000000000000000000000053
#00919:000000000013000000000000000000000000000000000000
#00916:24
#0091b:53
#01014:000000000013000000000000000000000000000000000000
#01119:000000000013000000000000000000000000000000000000
#01215:0013230053000000
#01218:0023132363000000
#01212:0000000000130013
#01217:000000000000000000000000000000000013000000000013
#01214:00000013
#01219:000000000013
#01314:000000120000000000000000000000000000000013000000
#0131b:0000000000130013
#01316:000000000000000000000000000000000013000000000013
#01319:00000013
#01312:0016
#01313:24
#01310:41
#01318:0000005300000000
#0131a:00000000000000000000000000000000000000000000000000530000000000000000000000000000000000000000000000000000000000000000000000000000
#01419:140000000023
#01415:0013001300000000
#01418:00161600
#01412:0000000000230023
#01417:000000000000000000000000000000000023000000000023
#01414:00000023
#01413:00000000000000000053000000000000000000000000000000530000000000000000000000000000000000000000000000000000000000000000000000000000
#01518:000000130000000000000000000000000000000013000000
#01512:00160013
#01515:0000000000000013
#0151b:000000000000000000000000000000000000000000000013
#01513:24
#0151a:00000000000000000053000000000000000000000000000000000000000000000000000000000000000000000000000000000000000000000000000000000000
#01612:00130014
#0161b:00130000
#01618:0013
#01615:0013
#0161a:00000014
#01712:0013000000002300
#01715:230000000000130000000013000000000000000000000000
#01718:230000000000000000000013000000000000000000000000
#0171b:00230013
#01714:0000000000000013
#01719:0000000000000013
#01815:130000000000000000000000000000000013000013000000
#01818:1300000000001313
#01814:000000000013000000000000000000000000000000000000
#01819:000000000013000000000000000000000000000000000000
#01816:000000000000001300000000000000000000000000000000
#01817:00000000000000000000000000000000000000000000000000000000000000000000000000000000000000000000000000000000000000000000000000000000000000000000000000000000000000000000000000000000000000000000000000000000000000000000000000000000000000000000000000000000000000000000000000000000000000000000000000000000000000000000000000000000000000000000000000000000000000000000000000000000000000130000000000000000000000000000000000000000000000000000000000000000000000000000000000000000000000000000000000000000000000000000000000000000000000000000000000000000000000000000000000000000000000000000000000000000000000000000000000000000000000000000000000000000000000000000000000000000000000000000000000000000000000000000000000000000000000000000000000000000000000000000000000000000000000000000000000000000000000000000000000000000000000000000000000000000000000000000000000000000000000000000000000000000000000000000000000000000000000000000000000000000000000000000000000000000000000000000000000000000000000000000000000000000000000000000000000000000000000000000000000000000000000000000000000000000000000000000000000000000000000000000000000000000000000000000000000000000000000000000000000000000000000000000000000000000000000000000000000000000000000000000000000000000000000000000000000000000000000000000000000000000
#0181b:0000000000130000
#01812:0000002400130000
#0181a:0000002400000000
#0191c:0000001200000000
#01912:0000001200000000
#02014:140000000000000000000000000000000000000000000000000000000000005300530053005300530053005300530053
#02018:140000000000000000000000000000626363636363636363
#02016:0000000000520000
#02015:000000000000000000000000000000005353535353535353
#02019:000000000000000000000000000000000000000000000000000000000000006300630063006300630063006300630063
#02115:000000000000000000130000000000000000000013000000
#0211a:00000014
#02118:6600000000000013
#02112:56250000
#02119:00250000
#02110:41
#02218:240000000000000000130000000000000000000013000000
#02212:00250014
#02215:0000000000000013
#02219:00250000
#02214:24
#02315:000000000000000000130000000000000000000013000000
#0231a:00000014
#02318:240000000000000000000000000000000000000000130013
#02314:24
#02319:00250000
#02312:00250000
#02416:0013000000000000
#02412:140000000000000000000053000000530053000000530000
#0241b:000013000000000000000000000000000000000000530000
#02419:000000000013000000000000530053000000530053000000
#02414:000000130000535300535300
#02417:000000000000000000000053000000530053000000000000
#02512:24250014
#02518:000000000000000000130000000000000000000013000000
#0251a:2414
#02515:0000000000000013
#02519:00250000
#02615:000000000000000000130000000000000000000013000000
#0261a:24000014
#02612:24251400
#02618:0000000000000013
#02619:00250000
#02718:000000000000000000130000000000000000000000000013
#02715:000000000000000000000013000000000000000000000000
#02716:00000014
#02712:0000250000000013
#02719:00250000
#0281a:0014000000000000
#02818:000000000000000013000000230000230000000000000000
#02812:0000001400000000
#02815:230000000000230000000000000013000013000000000000
#0281c:00000022
#02912:00120000
#0291c:0012
#02914:0000000000130000
#02919:0000000000130000
#02915:26262626
#02910:41
#0301c:00120000
#03012:0012
#03019:0000000000130000
#03014:0000000000130000
#03015:00262626
#03112:00120012
#0311c:0012
#03114:0000000000130013
#03119:0000000000130013
#03115:00262626
#0321c:12
#03218:000000000000000000000000130000000000000000000000000000000000000000000000006400000000000000000000
#03215:2600001326000000
#03212:00000013
#03213:000000000000000000000000000000000000000000000000000000000000000000000000000000000000000000000000000000000000000000000000000000000000000000000000005300000000000000000000000000000000000000000000
#03214:000000000000000000000000000000000000000000000000000000000000000000000000005400000000000000000000
#0321b:00000063
#0321a:000000000000000000000000000000000000000000000000000000000000000000000000000000000000000000000000000000000000000000000000000000000000000000000000006300000000000000000000000000000000000000000000
#03312:2313231313001300
#03317:1300130023132313
#0341b:1300130023132313
#03416:2313231313001300
#03515:0013000000150016
#03517:0000001400000000
#0351b:23
#03512:23242526
#0351a:00240000
#03519:0025
#03518:00000026
#03618:160000260000160000260000160000260000002300230023
#03612:2616261626160000
#03615:000000000000000000232323
#03917:12
#0391a:0012
#03913:0012
#04018:12
#04015:12
#04012:0012
#0401b:0052
#04017:00000052
#04117:12
#04114:0012
#0411b:0012
#04216:12
#04219:12
#0421c:0012
#04213:0052
#04315:00120000
#04313:1252
#04319:00000012
#0431b:0012
#0431f:11
#04317:52620062
#04415:00120000
#04413:1212
#0441b:5212
#04417:00620000
#04614:00120000
#0461a:00000012
#04618:2626
#04612:26
#04712:1413
#04714:0013000000001300
#04715:0000130000000013
#04716:0000001300000000
#04717:0013
#04718:2600000000130000
#04719:00000013
#0471a:0000000000000013
#04713:0000000000130000
#0481b:130000000013000000230000002300000000000000000000
#04818:000013000000002300000023000000000000000000000000
#04812:230000230023002300000000
#04815:000000230000000023000000230000000000000000000000
#04816:000000000000000000000000000000246464646464646464
#04814:000000000000000000000000000000000000000000000000000000000000006800680068006800680068006800680068
#05015:00130000000013000000000000001300
#05012:24250014
#05018:000000130000000000000000000000001300000000001300000000000000000000000000000000001300000000000000
#05019:00250000
#0501a:24
#0501f:21
#0511a:24000014
#05115:000000130000000000000000000000000000000000001300000000000000000000000000000000001300000000001300
#05118:00130000000000000000000000001300
#05119:0000251300000000
#05114:0000001300000000
#05112:24250000
#05110:41
#05217:0013000000000000
#05212:000013000000000000000000000000000000000000530000
#05214:000000000013000000000000530053000000530053000000
#05219:000000130000535300535300
#0521a:14
#0521b:000000000000000000000053000000530053000000530000
#05216:000000000000000000000053000000530053000000000000
#05312:24250014
#05318:000000130000000000000000000000000000000000001300000000000000000000000000000000001300000000000000
#05315:00130000000000000000000000001300
#05314:0000001300000000
#05319:0000251300000000
#0531a:24
#0541a:24000014
#05415:000000130000000000000000000000000000000000001300000000000000000000000000000000001300000000000000
#05418:00130000000000000000000000001300
#05419:0000251300000000
#05414:0000001300000000
#05412:24250000
#05518:1600360036003612
#05512:26363636
#05616:12
#05614:0000001200001200
#05618:000000000000000000000012000000000000000000000000
#0561a:00000012
#05619:24
#05615:00260000
#04912:6c000025
#04919:00000025
#03710:41
#00016:54545400
#00014:00000058
#00017:0072007200720000
#00056:64646400
#00057:0022002200220000
#0015b:000000000000000000000013000000000000000000000000
#00152:000000000000000000000013000000000000000000000000
#00155:000000000063000000000000000000000000000000000000
#00158:00630000
#00258:000000000053000000000000000000000000000000000000
#00255:00530000
#00252:000000000000000000000013000000000000000000000000
#0025b:000000000000000000000013000000000000000000000000
#0035b:0013000000000000
#00352:0000001300000000
#00458:13000063
#00556:14
#00656:13
#00659:13
#00757:13
#00754:13
#0085b:13
#00852:13
#00853:0000001500000000
#00858:0000001500000000
#01056:13
#01059:13
#01157:13
#01154:13
#0125b:13
#01252:13
#01352:00160000
#01353:64
#01354:0022000000000000
#01459:14
#01553:14
#0155b:0000000000130000
#01556:0000000000130000
#01656:0014000000000000
#0165a:0000000000445400
#01658:0023
#01652:0000000000346400
#01655:0023
#01758:130000000000000000000063000000000000000000000000
#01755:130000000000000000000063000000000000000000000000
#01855:33
#01858:4300000000000063
#01852:0000003400000000
#01854:000000000063000000000000000000000000000000000000
#01859:000000000053000000000000000000000000000000000000
#0185a:0000004400000000
#01856:000000000000002300000000000000000000000000000000
#01857:00000000000000000000000000000000000000000000000000000000000000000000000000000000000000000000000000000000000000000000000000000000000000000000000000000000000000000000000000000000000000000000000000000000000000000000000000000000000000000000000000000000000000000000000000000000000000000000000000000000000000000000000000000000000000000000000000000000000000000000000000000000000000230000000000000000000000000000000000000000000000000000000000000000000000000000000000000000000000000000000000000000000000000000000000000000000000000000000000000000000000000000000000000000000000000000000000000000000000000000000000000000000000000000000000000000000000000000000000000000000000000000000000000000000000000000000000000000000000000000000000000000000000000000000000000000000000000000000000000000000000000000000000000000000000000000000000000000000000000000000000000000000000000000000000000000000000000000000000000000000000000000000000000000000000000000000000000000000000000000000000000000000000000000000000000000000000000000000000000000000000000000000000000000000000000000000000000000000000000000000000000000000000000000000000000000000000000000000000000000000000000000000000000000000000000000000000000000000000000000000000000000000000000000000000000000000000000000000000000000000000000000000000000000
#0195c:0000002200000000
#01952:0000002200000000
#02054:64
#02058:64
#02158:16
#02152:16
#0215a:00000014
#0225a:0014000000000000
#02258:64
#02254:54
#02252:0014000000001400
#02358:64
#02354:54
#0235a:0014000000001400
#02352:0014000000000000
#02452:1400000000000033
#0245b:0000000000000043
#02552:64000014
#0255a:54
#02554:0014000000000000
#02558:0014000000000000
#02652:64
#0265a:54000014
#02654:0014000000000000
#02658:0014000000000000
#02752:0014000000000000
#0275a:0014000000000000
#02756:00000014
#0285a:0014000000000000
#02852:0000001400000000
#02955:16160000
#0295c:12
#02952:00120000
#03055:16160000
#03052:12
#0305c:00120000
#0315c:12
#03155:16160000
#03152:00120000
#0325c:12
#03255:6600005356000000
#03258:00630000
#03252:0013
#03357:13130000
#03352:00001313
#0345b:13130000
#03456:00001313
#0355b:13
#03552:00140016
#03559:0015
#03957:62
#0395a:0062
#03953:0062
#04058:62
#04055:62
#04052:0062
#04157:52
#04154:0052
#0415b:0062
#04256:52
#04259:62
#0425c:0062
#04353:62
#04355:00220000
#04359:00000022
#0435b:0052
#04455:00220000
#04453:6262
#0445b:0062
#04558:00000012
#04556:00000012
#04658:1666
#04652:6616
#04654:00220000
#0465a:00000022
#04758:16
#04952:1c
#05052:6435000000001400
#05058:00230000000000000000000000000000
#05055:00230000000000000000000000000000
#0505a:54
#05059:0045000000000000
#0515a:54000014
#05158:00230000000000000000000000000000
#05155:00230000000000000000000000000000
#05152:6435000000000000
#05159:0045000000000000
#0525b:0000000000000043
#05252:0000000000000033
#0525a:14
#0535a:54
#05352:6435000000001400
#05359:0045000000000000
#05358:00230000000000000000000000000000
#05355:00230000000000000000000000000000
#0545a:54000014
#05458:00230000000000000000000000000000
#05455:00230000000000000000000000000000
#05452:6435000000000000
#05459:0045000000000000
#05558:6600000000000022
#05552:66
#05659:44
#05652:0035000000000000
#05656:220000000000000000000000000000000000000000000012
#05655:00160000
#05658:000000000000000000000000000000000000000000000012
#05654:00000062
#0565a:00000062
#00956:14
#001350:000000000013000000000000000000000000000000000000
#001320:000000000000000053000023000000000000000000000000
#001381:00130000
#0013b1:000000000000000000530023000000000000000000000000
#002381:000000000013000000000000000000000000000000000000
#0023b1:000000000000000053000023000000000000000000000000
#002350:00130000
#002320:000000000000000000530023000000000000000000000000
#0033b0:1323000000000000
#003320:0000132300000000
#004350:13
#004360:005200000000220000000000000000000000000000000000
#004380:00000013
#0053b0:23
#005360:000000000000130000000000000000330000000000005300
#005340:000000000000000000000000000000005300000000330000
#006360:23
#005391:000000000000000000000013000000000000330000005300
#0053b1:000000000000000000000000000000000000005300330000
#006391:23
#006371:000000000000130000000000000000330000000000005300
#006391:000000000000000000000000000000005300000000330000
#007371:23
#006340:000000000000000000000013000000000000330000005300
#006320:000000000000000000000000000000000000005300330000
#007340:23
#007360:0000130000330000
#007340:000000000000000000000000000000005300000000330000
#007320:000000000000000000000053
#008320:23
#0073b1:000000000000000000000013000000000000330000005300
#007391:000000000000000000000000000000000000005300330000
#0083b1:23
#009341:000000000000130000000000000000330000005300330000
#009361:000000000000000053330053
#010361:23
#0093b0:000000000000000000000013000000330000005300330000
#009390:000000000000000053330053
#010390:23
#010390:000000000000130000000000000000330000005300330000
#010370:000000000000000053330053
#011370:23
#010321:000000000000000000000013000000330000005300330000
#010341:000000000000000053330053
#011341:23
#011341:000000000000130000000000000000330000005300330000
#011321:000000000000000053330053
#012321:23
#011390:000000000000000000000013000000330000005300330000
#0113b0:000000000000000053330053
#0123b0:23
#012380:0000001323000000
#012351:0000001323000000
#013331:14
#013341:0052000000000000
#013321:00260000
#013380:0000132300000000
#015360:0000001300230000
#0153b1:0000001300230000
#016361:1454545424000000000000000000000000000000000000000000000000000000
#016371:00520052005200520000000000000000000000000000000000000000000000000000000000000000000000000000000000000000000000000000000000000000
#016381:0000001353000000
#0163a1:0000000000240000
#016350:0000001353000000
#016320:0000000000240000
#0163a0:00000014
#017380:23
#016321:00000014
#017351:23
#017381:000000000000000000130033000000000000000000000000
#0173b1:0000000000230000
#017350:000000000000000000000013000000000000000000000000
#017320:0000000000230000
#018340:000000000013000000000000000000000000000000000000
#018360:000000000000005300000000000000000000000000000000
#018320:0000002400000000
#018391:000000000013000000000000000000000000000000000000
#018371:00000000000000000000000000000000000000000000000000000000000000000000000000000000000000000000000000000000000000000000000000000000000000000000000000000000000000000000000000000000000000000000000000000000000000000000000000000000000000000000000000000000000000000000000000000000000000000000000000000000000000000000000000000000000000000000000000000000000000000000000000000000000000530000000000000000000000000000000000000000000000000000000000000000000000000000000000000000000000000000000000000000000000000000000000000000000000000000000000000000000000000000000000000000000000000000000000000000000000000000000000000000000000000000000000000000000000000000000000000000000000000000000000000000000000000000000000000000000000000000000000000000000000000000000000000000000000000000000000000000000000000000000000000000000000000000000000000000000000000000000000000000000000000000000000000000000000000000000000000000000000000000000000000000000000000000000000000000000000000000000000000000000000000000000000000000000000000000000000000000000000000000000000000000000000000000000000000000000000000000000000000000000000000000000000000000000000000000000000000000000000000000000000000000000000000000000000000000000000000000000000000000000000000000000000000000000000000000000000000000000000000000000000000000
#0183a1:0000002400000000
#018381:0000000000000013
#0193c1:0000005200000000
#020381:5400000000220000
#019320:0000001200000000
#020340:54
#020360:0000000000220000
#021380:0000000013230000
#021351:0000000000132300
#022381:14
#0223a1:00542400000000000000000000000000
#022340:14
#022320:00542400000000000000000000000000
#022350:0000000013230000
#022381:0000000000132300
#023381:14
#0233a1:00542400000000000000000000000000
#023340:14
#023320:00542400000000000000000000000000
#023380:0000000013230000
#023351:0000000000132300
#024371:000000000000000013000023000000000000000000000000
#024320:000000000000000000130023000000000000000000000000
#025320:14
#025340:00542400000000000000000000000000
#0253a1:14
#025381:00542400000000000000000000000000
#025351:0000000013230000
#025380:0000000000132300
#026320:14
#026340:00542400000000000000000000000000
#0263a1:14
#026381:00542400000000000000000000000000
#026381:0000000013230000
#026350:0000000000132300
#027320:1424000000000000
#0273a1:1424000000000000
#027381:0013
#0273b1:000000000000000000000000005300230000000000000000
#027350:0000000000130000
#027320:000000000000000053230000
#0283c0:00000012
#0293c0:22
#029320:00000012
#030320:22
#029351:00000016
#030351:26
#0303c1:00000012
#0313c1:22
#030350:00000016
#031350:26
#032350:16
#032320:00230000
#032381:00130000
#0323b1:0000002300000000
#032350:0000001300000000
#032320:0023
#032351:0016
#0323b1:00000023
#037321:160000530000000053000000005300000000000000000000000000000000000000000000000000000053000000005300000000530000000053000000000000000000000000000000000000000000000000000000530000000053000000005300
#037331:005400000054000000540000000000540000005400000000005400000054000000000000000000000000000000000000000000000000000000000000000000000000000000000000000000000000000000540000005400000000005400000054000000000054000000540000000000540000005400000000000000000000000000000000000000000000000000000000000000000000000000000000000000000000000000000053000000530000000000530000005300000000005300000053
#037351:000000005300000000530000000053000000000000000000000000000000000000000000000000000000530000000053000000005300000000530000000000000000000000000000000000000000000000000000000000000000000000000000
#037341:000000000000000000000000000000000000000000000000000000000000000000000000000000000000000000000000000000000000000000000000000000000000000000000000000000000000000000000000005300000000530000000053
#038331:000000000053000000530000000000000000000000000000000000000000000000000000000000000000000000000000000000000000000000000000000052000000520000000000520000005200000000005200000052000000000052000000520000000000000000000000000000000000000000000000000000000000000000000000000000000000000000000000000000005200005200000000000052000000520000000000520000005200000000005200000052000000000000000000
#038321:000000000000530000000000000000000000000000000000000000000000000000000000000000000000000000000000000000000000000000000000000000520000000000000000005200000000000000000052000000000000000000520000000000000000000000000000000000000000000000000000000000000000000000000000000000000000000000000000000000000052000000000000000000520000000000000000005200000000000000000052000000000000000000000000
#038341:000000000000000053000000000000000000000000000000000000000000000000000000000000000000000000000000000000000000000000000000000000000052000000000000000000520000000000000000005200000000000000000052000000000000000000000000000000000000000000000000000000000000000000000000000000000000000000000000000000000000520000000000000000000052000000000000000000520000000000000000005200000000000000000000
#039331:3252
#040351:52
#040321:0052
#040371:00000022
#039370:12
#0393a0:0052
#040380:52
#0403b0:0022
#0403b0:00000012
#0413b0:3252
#042390:52
#0423c0:0052
#042370:00000032
#043370:22
#041371:12
#041341:0052
#042361:52
#042331:0022
#042331:00000012
#043331:5222
#043351:00520000
#0433b0:0012
#043390:00000052
#0443b0:22
#044331:1252
#044351:00520000
#045361:00000022
#0443b0:0012
#045380:00000022
#046320:1626
#046340:00320000
#046381:0016
#0463a1:00000032
#047381:26
#0503a1:14
#050381:00530000000000000000000000000000
#050391:0025000000000000
#050320:1425000000000000
#050350:00530000000000000000000000000000
#050350:0000000013230000
#050381:0000000000132300
#0513a1:14
#051381:00530000000000000000000000000000
#051391:0025000000000000
#051320:1425000000000000
#051350:00530000000000000000000000000000
#051380:0000000013230000
#051351:0000000000132300
#052361:000000000000000013000023000000000000000000000000
#0523b0:000000000000000000130023000000000000000000000000
#0533a0:14
#053380:00530000000000000000000000000000
#053390:0025000000000000
#053321:1425000000000000
#053351:00530000000000000000000000000000
#053351:0000000013230000
#053380:0000000000132300
#0543a0:14
#054380:00530000000000000000000000000000
#054390:0025000000000000
#054321:1425000000000000
#054351:00530000000000000000000000000000
#054381:0000000013230000
#054350:0000000000132300
#055320:16363636
#056360:52
#056320:0025000000000000
#055381:1600360036003652
#056391:24
#056360:0000000012220000
#0563a1:0000000000123200
#056381:000000000000000000000000000000000000000000320022
#056340:00000012
#056360:000000000000000000000000000000000000000000320022
#000960:14545400
#000970:0052005200520000
#000940:00000028
#008950:00000013
#008920:000000000000000000000000000000000000000000000000000000000000000000000000000000000000000000000000000000000000000000000000000000000000000000000000000000000000000000000000000000000000000000000000000000000000000000000000000000000000000000000000000000000000000000000000000000000000000000000000000000000000000000000000000000000000000000000000000000000000000000000000000000000000000000000000000000000000000000000000000000000000000000000000000000000000000000000000000000000000000000000000000000000000000000000000000000000000000000000000000000000000000000000000000000000000000000000000000000000000000000000000000000000000000000000000000000000000000000000000000000000000000000000000000000000000000000000000000000000000000000000000000000000000000000000000000000000000000000000000000000000000000000000000000000000000000000000000000000000000000000000000000000000000000000000000000000000000000000000000000000000000000000000000000000000000000000000000000000000000000000000000000000000000000000000000000000000000000000000000000000000000000000000000000000000000000000000000000000000000000000000000000000000000000000000000000000000000000000000000000000000000000000000000000000000000000000000000000000000000000000000000000000000000000000000000000000000000000000000000000000000000000000000000000000000000000000000000000000000000000000000000000000000000000000000000000000000000000000000000000000000000000000000000000000000000000000000000000000000000000000000000000000000000000000000000000000000000000000000000000000000000000000000000000000000000000000000000000000000000000000000000000000000000000000000000000000000000000000000000000000000000000000000000000000000000000000000000000000000000000000000000000000000000000000000000000000000000000000000000000000000000000000000000000000000000000000000000000000000000000000000000000000000000000000000000000000000000000000000000000000000000000000000000000000000000000000000000000000000000000000000000000000000000000000000000000000000000000000000000000000000000000000000000000000000000000000000000000000000000000000000000000000000000000000000000000000000000000000000000000000000000000000000000000000000000000000000000000000000000000000000000000000000000000000000000000000000000000000000000000000000000000000000000000000000000000000000000000000000000000000000000000000000000000000000000000000000000000000000000000000000000000000000000000000000000000000000000000000000000000000000000000000000000000000000000000000000000000000000000000000000000000000000000000000000000000000000000000000000000000000000000000000000000000000000000000000000000000000000000000000000000000000000000000000000000000000000000000000000000000000000000000000000000000000000000000000000000000000000000000000000000000000000000000000000000000000000000000000000000000000000000000000000000000000000000000000000000000000000000000000000000000000000000000000000000000000000000000000000000000000000000000000000000000000000000000000000000000000000000000000000000000000000000000000000000000000000000000000000000000000000000000000000000000000000000000000000000000000000000000000000000000000000000000000000000000000000000000000000000000000000000000000000000000000000000000000000000000000000000000000000000000000000000000000000000000000000000000000000000000000000000000000000000000000000000000000000000000000000000000000000000000000000000000000000000000000000000000000000000000000000053230000000000000000000000000000000000000000000000000000000000000000000000000000000000000000000000000000000000000000000000000000000000000000000000000000000000000000000000000000000000000000000000000000000000000000000000000000000000000000000000000000000000000000000000000000000000000000000000000000000000000000000000000000000000000000000000000000000000000000000000000000000000000000000000000000000000000000000000000000000000000000000000000000000000000000000000000000000000000000000000
#008981:0000000000000013
#0089b1:000000000000000000000000000000000000000000000000000000000000000000000000000000000000000000000000000000000000000000000000000000000000000000000000000000000000000000000000000000000000000000000000000000000000000000000000000000000000000000000000000000000000000000000000000000000000000000000000000000000000000000000000000000000000000000000000000000000000000000000000000000000000000000000000000000000000000000000000000000000000000000000000000000000000000000000000000000000000000000000000000000000000000000000000000000000000000000000000000000000000000000000000000000000000000000000000000000000000000000000000000000000000000000000000000000000000000000000000000000000000000000000000000000000000000000000000000000000000000000000000000000000000000000000000000000000000000000000000000000000000000000000000000000000000000000000000000000000000000000000000000000000000000000000000000000000000000000000000000000000000000000000000000000000000000000000000000000000000000000000000000000000000000000000000000000000000000000000000000000000000000000000000000000000000000000000000000000000000000000000000000000000000000000000000000000000000000000000000000000000000000000000000000000000000000000000000000000000000000000000000000000000000000000000000000000000000000000000000000000000000000000000000000000000000000000000000000000000000000000000000000000000000000000000000000000000000000000000000000000000000000000000000000000000000000000000000000000000000000000000000000000000000000000000000000000000000000000000000000000000000000000000000000000000000000000000000000000000000000000000000000000000000000000000000000000000000000000000000000000000000000000000000000000000000000000000000000000000000000000000000000000000000000000000000000000000000000000000000000000000000000000000000000000000000000000000000000000000000000000000000000000000000000000000000000000000000000000000000000000000000000000000000000000000000000000000000000000000000000000000000000000000000000000000000000000000000000000000000000000000000000000000000000000000000000000000000000000000000000000000000000000000000000000000000000000000000000000000000000000000000000000000000000000000000000000000000000000000000000000000000000000000000000000000000000000000000000000000000000000000000000000000000000000000000000000000000000000000000000000000000000000000000000000000000000000000000000000000000000000000000000000000000000000000000000000000000000000000000000000000000000000000000000000000000000000000000000000000000000000000000000000000000000000000000000000000000000000000000000000000000000000000000000000000000000000000000000000000000000000000000000000000000000000000000000000000000000000000000000000000000000000000000000000000000000000000000000000000000000000000000000000000000000000000000000000000000000000000000000000000000000000000000000000000000000000000000000000000000000000000000000000000000000000000000000000000000000000000000000000000000000000000000000000000000000000000000000000000000000000000000000000000000000000000000000000000000000000000000000000000000000000000000000000000000000000000000000000000000000000000000000000000000000000000000000000000000000000000000000000000000000000000000000000000000000000000000000000000000000000000000000000000000000000000000000000000000000000000000000000000000000000000000000000000000000000000000000000000000000000000000000000000000000000000000000000000000000000000000000000000000000000000000000000000000000000000000000000000000000000000000000000000000000000000000000000000000000000000000000000000000000000000000000000000000000000000000000000000000000000000000000000000000000000000000000000000000000000000000000000000000000000000000000000000000000000000000000000000000000000000000000000000000000000000000000000000000000000000000000000000000000000000000000000000000000000000000000000000000000000000000000000000000000000000000000000000000000000000000000000000053
#0099b1:23
#013981:0000001300000000
#0139a1:00000000000000000000000000000000000000000000000000230000000000000000000000000000000000000000000000000000000000000000000000000000
#014951:0013000000000000
#014931:00000000000000000023000000000000000000000000000000000000000000000000000000000000000000000000000000000000000000000000000000000000
#014951:0000001300000000
#014931:00000000000000000000000000000000000000000000000000230000000000000000000000000000000000000000000000000000000000000000000000000000
#015981:0013000000000000
#0159a1:00000000000000000023000000000000000000000000000000000000000000000000000000000000000000000000000000000000000000000000000000000000
#020981:000000000000000000000000000000000000000000000000000000000000000000000000000000000000000000000000000000000000000000000000000000000000000000000000000000000000000000000000000000000000000000000000000000000000000000000000000000000000000000000000000000000000000000000000000000000000000000000000000000000000000000000000000000000000000000000000000000000000000000000000000000000000000000000000000000000000000000000000000000000000000000000000000000000000000000000000000000000000000000000000000000000000000000000000000000000000000000000000000000000000000000000000000000000000000000000000000000000000000000000000000000000000000000000000000000000000000000000000000000000000000000000000000000000000000000000000000000000000000000000000000000000000000000000000000000000000000000000000000000000000000000000000000000000000000000000000000000000000000000000000000000000000000000000000000000000000000000000000000000000000000000000000000000000000000000000000000000000000000000000000000000000000000000000000000000000000000000000000000000000000000000000000000000000000000000000000000000000000000000000000000000000000000000000000000000000000000000000000000000000000000000000000000000000000000000000000000000000000000000000000000000000000000000000000000000000000000000000000000000000000000000000000000000000000000000000000000000000000000000000000000000000000000000000000000000000000000000000000000000000000000000000000000000000000000000000000000000000000000000000000000000000000000000000000000000000000000000000000000000000000000000000000000000000000000000000000000000000000000000000000000000000000000000000000000000000000000000000000000000000000000000000000000000000000000000000000000000000000000000000000000000000000000000000000000000000000000000000000000000000000000000000000000000000000000000000000000000000000000000000000000000000000000000000000000000000000000000000000000000000000000000000000000000000000000000000000000000000000000000000000000000000000000000000000000000000000000000000000000000000000000000000000000000000000000000000000000000000000000000000000000000000000000000000000000000000000000000000000000000000000000000000000000000000000000000000000000000000000000000000000000000000000000000000000000000000000000000000000000000000000000000000000000000000000000000000000000000000000000000000000000000000000000000000000000000000000000000000000000000000000000000000000000000000000000000000000000000000000000000000000120000000000000000000000000000000000000000000000000000000000000000000000000000000000000000000000000000000000000000000000000000000000000000000000000000000000000053000000000000000000000000000000000000000000000000000000000000000000000000000000000000000000000000000000000000000000000000000000000000000000000000000000000000005300000000000000000000000000000000000000000000000000000000000000000000000000000000000000000000000000000000000000000000000000000000000000000000000000000000000000530000000000000000000000000000000000000000000000000000000000000000000000000000000000000000000000000000000000000000000000000000000000000000000000000000000000000053000000000000000000000000000000000000000000000000000000000000000000000000000000000000000000000000000000000000000000000000000000000000000000000000000000000000005300000000000000000000000000000000000000000000000000000000000000000000000000000000000000000000000000000000000000000000000000000000000000000000000000000000000000530000000000000000000000000000000000000000000000000000000000000000000000000000000000000000000000000000000000000000000000000000000000000000000000000000000000000053000000000000000000000000000000000000000000000000000000000000000000000000000000000000000000000000000000000000000000000000000000000000000000000000000000000000005300000000000000000000000000000000000000000000000000000000000000000000000000000000000000000000000000000000000000000000000000000000000000000056565656565656565656
#020991:000000000000000000000000000000000000000000000000000000000000005300530053005300530053005300530053
#021981:26
#020960:0000000000120000
#020940:000000000000000000000000000000000000000000000000000000000000005300530053005300530053005300530053
#020950:000000000000000000000000000000005353535353535353
#020920:000000000000000000000000000000000000000000000000000000000000000000000000000000000000000000000000000000000000000000000000000000000000000000000000000000000000000000000000000000000000000000000000000000000000000000000000000000000000000000000000000000000000000000000000000000000000000000000000000000000000000000000000000000000000000000000000000000000000000000000000000000000000000000000000000000000000000000000000000000000000000000000000000000000000000000000000000000000000000000000000000000000000000000000000000000000000000000000000000000000000000000000000000000000000000000000000000000000000000000000000000000000000000000000000000000000000000000000000000000000000000000000000000000000000000000000000000000000000000000000000000000000000000000000000000000000000000000000000000000000000000000000000000000000000000000000000000000000000000000000000000000000000000000000000000000000000000000000000000000000000000000000000000000000000000000000000000000000000000000000000000000000000000000000000000000000000000000000000000000000000000000000000000000000000000000000000000000000000000000000000000000000000000000000000000000000000000000000000000000000000000000000000000000000000000000000000000000000000000000000000000000000000000000000000000000000000000000000000000000000000000000000000000000000000000000000000000000000000000000000000000000000000000000000000000000000000000000000000000000000000000000000000000000000000000000000000000000000000000000000000000000000000000000000000000000000000000000000000000000000000000000000000000000000000000000000000000000000000000000000000000000000000000000000000000000000000000000000000000000000000000000000000000000000000000000000000000000000000000000000000000000000000000000000000000000000000000000000000000000000000000000000000000000000000000000000000000000000000000000000000000000000000000000000000000000000000000000000000000000000000000000000000000000000000000000000000000000000000000000000000000000000000000000000000000000000000000000000000000000000000000000000000000000000000000000000000000000000000000000000000000000000000000000000000000000000000000000000000000000000000000000000000000000000000000000000000000000000000000000000000000000000000000000000000000000000000000000000000000000000000000000000000000000000000000000000000000000000000000000000000000000000000000000000000000000000000000000000000000000000000000000000000000000000000000000000000000000000000000000000000000000000000000000000000000000000000000000000000000000000000000000000000000000000000000000000000000000000000000000000000000000000000000000000000000000000000000000000000000000000000000000000000000000000000000000000000000000000000000000000000000000000000000000000000000000000000000000000000000000000000000000000000000000000000000000000000000000000000000000000000000000000000000000000000000000000000000000000000000000000000000000000000000000000000000000000000000000000000000000000000000000000000000000000000000000000000000000000000000000000000000000000000000000000000000000000000000000000000000000000000000000000000000000000000000000000000000000000000000000000000000000000000000000000000000000000000000000000000000000000000000000000000000000000000000000000000000000000000000000000000000000000000000000000000000000000000000000000000000000000000000000000000000000000000000000000000000000000000000000000000000000000000000000000000000000000000000000000000000000000000000000000000000000000000000000000000000000000000000000000000000000000000000000000000000000000000000000000000000000000000000000000000000000000000000000000000000000000000000000000000000000000000000000000000000000000000000000000000000000000000000000000000000000000000000000000000000000000000000000000000000000000000000000000000000000000000000000000000000000000000000000000000000000000000000000000000000000000000000000000000000000000000000000000000000000000000000056565656565656565656
#021920:26
#024970:000000000000000000000013000000530053000000000000
#024990:000000000000535300535300
#0249b0:000000000000000000000000000000000000000000000000000000000000000000000000000000000000000000000000000000000000000000000000000000000000000000000000000000000000000000000000000000000000000000000000000000000000000000000000000000000000000000000000000000000000000000000000000000000000000000000000000000000000000000000000000000000000000000000000000000000000000000000000000000000000000000000000000000000000000000000000000000000000000000000000000000000000000000000000000000000000000000000000000000000000000000000000000000000000000000000000000000000000000000000000000000000000000000000000000000000000000000000000000000000000000000000000000000000000000000000000000000000000000000000000000000000000000000000000000000000000000000000000000000000000000000000000000000000000000000000000000000000000000000000000000000000000000000000000000000000000000000000000000000000000000000000000000000000000000000000000000000000000000000000000000000000000000000000000000000000000000000000000000000000000000000000000000000000000000000000000000000000000000000000000000000000000000000000000000000000000000000000000000000000000000000000000000000000000000000000000000000000000000000000000000000000000000000000000000000000000000000000000000000000000000000000000000000000000000000000000000000000000000000000000000000000000000000000000000000000000000000000000000000000000000000000000000000000000000000000000000000000000000000000000000000000000000000000000000000000000000000000000000000000000000000000000000000000000000000000000000000000000000000000000000000000000000000000000000000000000000000000000000000000000000000000000000000000000000000000000000000000000000000000000000000000000000000000000000000000000000000000000000000000000000000000000000000000000000000000000000000000000000000000000000000000000000000000000000000000000000000000000000000000000000000000000000000000000000000000000000000000000000000000000000000000000000000000000000000000000000000000000000000000000000000000000000000000000000000000000000000000000000000000000000000000000000000000000000000000000000000000000000000000000000000000000000000000000000000000000000000000000000000000000000000000000000000000000000000000000000000000000000000000000000000000000000000000000000000000000000000000000000000000000000000000000000000000000000000000000000000000000000000000000000000000000000000000000000000000000000000000000000000000000000000000000000000000000000000000000000000000000000000000000000000000000000000000000000000000000000000000000000000000000000000000000000000000000000000000000000000000000000000000000000000000000000000000000000000000000000000000000000000000000000000000000000000000000000000000000000000000000000000000000000000000000000000000000000000000000000000000000000000000000000000000000000000000000000000000000000000000000000000000000000000000000000000000000000000000000000000000000000000000000000000000000000000000000000000000000000000000000000000000000000000000000000000000000000000000000000000000000000000000000000000000000000000000000000000000000000000000000000000000000000000000000000000000000000000000000000000000000000000000000000000000000000000000000000000000000000000000000000000000000000000000000000000000000000000000000000000000000000000000000000000000000000000000000000000000000000000000000000000000000000000000000000000000000000000000000000000000000000000000000000000000000000000000000000000005353535353535353230000000000000000000000000000000000000000000000000000000000000000000000000000000000000000000000000000000000000000000000000000000000000000000000000000000000000000000000000000000000000000000000000000000000000000000000000000000000000000000000000000000000000000000000000000000000000000000000000000000000000000000000000000000000000000000000000000000000000000000000000000000000000000000000000000000000000000000000000000000000000000000000000000000000000000000000000000000000000000000000
#024921:000000000000000000000000000000000000000000000000000000000000000000000000000000000000000000000000000000000000000000000000000000000000000000000000000000000000000000000000000000000000000000000000000000000000000000000000000000000000000000000000000000000000000000000000000000000000000000000000000000000000000000000000000000000000000000000000000000000000000000000000000000000000000000000000000000000000000000000000000000000000000000000000000000000000000000000000000000000000000000000000000000000000000000000000000000000000000000000000000000000000000000000000000000000000000000000000000000000000000000000000000000000000000000000000000000000000000000000000000000000000000000000000000000000000000000000000000000000000000000000000000000000000000000000000000000000000000000000000000000000000000000000000000000000000000000000000000000000000000000000000000000000000000000000000000000000000000000000000000000000000000000000000000000000000000000000000000000000000000000000000000000000000000000000000000000000000000000000000000000000000000000000000000000000000000000000000000000000000000000000000000000000000000000000000000000000000000000000000000000000000000000000000000000000000000000000000000000000000000000000000000000000000000000000000000000000000000000000000000000000000000000000000000000000000000000000000000000000000000000000000000000000000000000000000000000000000000000000000000000000000000000000000000000000000000000000000000000000000000000000000000000000000000000000000000000000000000000000000000000000000000000000000000000000000000000000000000000000000000000000000000000000000000000000000000000000000000000000000000000000000000000000000000000000000000000000000000000000000000000000000000000000000000000000000000000000000000000000000000000000000000000000000000000001300000000000000000000000000000000000000000000000000000000000000000000000000000000000000000000000000000000000000000000000000000000000000000000000000000000000000000000000000000000000000000000000000000000000000000000000000000000000000000000000000000000000000000000000000000000000000000000000000000000000000000000000000000000000000000000000000000000000000000000000000000000000000000000000000000000000000000000000000000000000000000000000000000000000000000000000000000000000000000000000000000000000000000000000000000000000000000000000000000000000000000000000000000000000000000000000000000000000000000000000000000000000000000000000000000000000000530000000000000000000000000000000000000000000000000000000000000000000000000000000000000000000000000000000000000000000000000000000000000000000000000000000000000000000000000000000000000000000000000000000000000000000000000000000000000000000000000000000000000000000000000000000000000000000000000000000000000000000000000000005300000000000000000000000000000000000000000000000000000000000000000000000000000000000000000000000000000000000000000000000000000000000000000000000000000000000000000000000000000000000000000000000000000000000000000000000000000000000000000000000000000000000000000000000000000000000000000000000000000000000000000000000000000000000000000000000000000000000000000000000000000000000000000000000000000000000000000000000000000000000000000000000000000000000000000000000000000000000000000000000000000000000000000000000000000000000000000000000000000000000000000000000000000000000000000000000000000000000000000000000000000000000000000000005353535353535353230000000000000000000000000000000000000000000000000000000000000000000000000000000000000000000000000000000000000000000000000000000000000000000000000000000000000000000000000000000000000000000000000000000000000000000000000000000000000000000000000000000000000000000000000000000000000000000000000000000000000000000000000000000000000000000000000000000000000000000000000000000000000000000000000000000000000000000000000000000000000000000000000000000000000000000000000000000000000000000000
#024941:000000000000535300535300
#0329b1:00000013
#0329a1:000000000000000000000000000000000000000000000000000000000000000000000000000000000000000000000000000000000000000000000000000000000000000000000000005300000000000000000000000000000000000000000000
#032981:000000000000000000000000000000000000000000000000000000000000000000000000002400000000000000000000
#032920:00000013
#032930:000000000000000000000000000000000000000000000000000000000000000000000000000000000000000000000000000000000000000000000000000000000000000000000000005300000000000000000000000000000000000000000000
#032940:000000000000000000000000000000000000000000000000000000000000000000000000002400000000000000000000
#048960:000000000000000000000000000000145454545454545454
#048940:000000000000000000000000000000000000000000000000000000000000005800580058005800580058005800580058
#048920:0000000000000000000000000000000000000000000000000000000000000000000000000000000000000000000000000000000000000000000000000000000000000000000000000000000000000000000000000000000000000000000000000000000000000000000000000000000000000000000000000000000000000000000000000000000000000000000000000000000000000000000000000000000000000000000000000000000000000000000000000000000000000000000000000000000000000000000000000000000000000000000000000000000000000000000000000000000000000000000000000000000000000000000000000000000000000000000000000000000000000000000000000000000000000000000000000000000000000000000000000000000000000000000000000000000000000000000000000000000000000000000000000000000000000000000000000000000000000000000000000000000000000000000000000000000000000000000000000000000000000000000000000000000000000000000000000000000000000000000000000000000000000000000000000000000000000000000000000000000000000000000000000000000000000000000000000000000000000000000000000000000000000000000000000000000000000000000000000000000000000000000000000000000000000000000000000000000000000000000000000000000000000000000000000000000000000000000000000000000000000000000000000000000000000000000000000000000000000000000000000000000000000000000000000000000000000000000000000000000000000000000000000000000000000000000000000000000000000000000000000000000000000000000000000000000000000000000000000000000000000000000000000000000000000000000000000000000000000000000000000000000000000000000000000000000000000000000000000000000000000000000000000000000000000000000000000000000000000000000000000000000000000000000000000000000000000000000000000000000000000000000000000000000000000000000000000000000000000000000000000000000000000000000000000000000000000000000000000000000000000000000000000000000000000000000000000000000000000000000000000000000000000000000000000000000000000000000000000000000000000000000000000000000000000000000000000000000000000000000000000000000000000000000000000000000000000000000000000000000000000000000000000000000000000000000000000000000000000000000000000000000000000000000000000000000000000000000000000000000000000000000000000000000000000000000000000000000000000000000000000000000000000000000000000000000000000000000000000000000000000000000000000000000000000000000000000000000000000000000000000000000000000000000000000000000000000000000000000000000000000000000000000000000000000000000000000000000000000000000000000000000000000000000000000000000000000000000000000000000000000000000000000000000000000000000000000000000000000000000000000000000000000000000000000000000000000000000000000000000000000000000000000000000000000000000000000000000000000000000000000000000000000000000000000000000000000000000000000000000000000000000000000000000000000000000000000000000000000000000000000000000000000000000000000000000000000000000000000000000000000000000000000000000000000000000000000000000000000000000000000000000000000000000000000000000000000000000000000000000000000000000000000000000000000000000000000000000000000000000000000000000000000000000000000000000000000000000000000000000000000000000000000000000000000000000000000000000000000000000000000000000000000000000000000000000000000000000000000000000000000000000000000000000000000000000000000000000000000000000000000000000000000000000000000000000000000000000000000000000000000000000000000000000000000000000000000000000000000000000000000000000000000000000000000000000000000000000000000000000000000000000000000000000000000000000000000000000000000000000000000000000000000000000000000000000000000000000000000000000000000000000000000000000000000000000000000000000000000000000000000000000000000000000000000000000000000000000000000000000000000000000000000000000000000000000000000000000000000000000000000000000000000000000000000000000000000000000000000000000000000000000000000000000000000000000000000000005c5c5c5c5c5c5c5c5c
#049920:2c
#052960:000000000000000000000013000000530053000000000000
#052940:000000000000535300535300
#052920:000000000000000000000000000000000000000000000000000000000000000000000000000000000000000000000000000000000000000000000000000000000000000000000000000000000000000000000000000000000000000000000000000000000000000000000000000000000000000000000000000000000000000000000000000000000000000000000000000000000000000000000000000000000000000000000000000000000000000000000000000000000000000000000000000000000000000000000000000000000000000000000000000000000000000000000000000000000000000000000000000000000000000000000000000000000000000000000000000000000000000000000000000000000000000000000000000000000000000000000000000000000000000000000000000000000000000000000000000000000000000000000000000000000000000000000000000000000000000000000000000000000000000000000000000000000000000000000000000000000000000000000000000000000000000000000000000000000000000000000000000000000000000000000000000000000000000000000000000000000000000000000000000000000000000000000000000000000000000000000000000000000000000000000000000000000000000000000000000000000000000000000000000000000000000000000000000000000000000000000000000000000000000000000000000000000000000000000000000000000000000000000000000000000000000000000000000000000000000000000000000000000000000000000000000000000000000000000000000000000000000000000000000000000000000000000000000000000000000000000000000000000000000000000000000000000000000000000000000000000000000000000000000000000000000000000000000000000000000000000000000000000000000000000000000000000000000000000000000000000000000000000000000000000000000000000000000000000000000000000000000000000000000000000000000000000000000000000000000000000000000000000000000000000000000000000000000000000000000000000000000000000000000000000000000000000000000000000000000000000000000000000000000000000000000000000000000000000000000000000000000000000000000000000000000000000000000000000000000000000000000000000000000000000000000000000000000000000000000000000000000000000000000000000000000000000000000000000000000000000000000000000000000000000000000000000000000000000000000000000000000000000000000000000000000000000000000000000000000000000000000000000000000000000000000000000000000000000000000000000000000000000000000000000000000000000000000000000000000000000000000000000000000000000000000000000000000000000000000000000000000000000000000000000000000000000000000000000000000000000000000000000000000000000000000000000000000000000000000000000000000000000000000000000000000000000000000000000000000000000000000000000000000000000000000000000000000000000000000000000000000000000000000000000000000000000000000000000000000000000000000000000000000000000000000000000000000000000000000000000000000000000000000000000000000000000000000000000000000000000000000000000000000000000000000000000000000000000000000000000000000000000000000000000000000000000000000000000000000000000000000000000000000000000000000000000000000000000000000000000000000000000000000000000000000000000000000000000000000000000000000000000000000000000000000000000000000000000000000000000000000000000000000000000000000000000000000000000000000000000000000000000000000000000000000000000000000000000000000000000000000000000000000000000000000000000000000000000000000000000000000000000000000000000000000000000000000000000000000000000000000000000000000000000000000000000000000000000000000000000000000000000000000000000000000000000000000000005353535353535353230000000000000000000000000000000000000000000000000000000000000000000000000000000000000000000000000000000000000000000000000000000000000000000000000000000000000000000000000000000000000000000000000000000000000000000000000000000000000000000000000000000000000000000000000000000000000000000000000000000000000000000000000000000000000000000000000000000000000000000000000000000000000000000000000000000000000000000000000000000000000000000000000000000000000000000000000000000000000000000000
#0529b1:000000000000000000000000000000000000000000000000000000000000000000000000000000000000000000000000000000000000000000000000000000000000000000000000000000000000000000000000000000000000000000000000000000000000000000000000000000000000000000000000000000000000000000000000000000000000000000000000000000000000000000000000000000000000000000000000000000000000000000000000000000000000000000000000000000000000000000000000000000000000000000000000000000000000000000000000000000000000000000000000000000000000000000000000000000000000000000000000000000000000000000000000000000000000000000000000000000000000000000000000000000000000000000000000000000000000000000000000000000000000000000000000000000000000000000000000000000000000000000000000000000000000000000000000000000000000000000000000000000000000000000000000000000000000000000000000000000000000000000000000000000000000000000000000000000000000000000000000000000000000000000000000000000000000000000000000000000000000000000000000000000000000000000000000000000000000000000000000000000000000000000000000000000000000000000000000000000000000000000000000000000000000000000000000000000000000000000000000000000000000000000000000000000000000000000000000000000000000000000000000000000000000000000000000000000000000000000000000000000000000000000000000000000000000000000000000000000000000000000000000000000000000000000000000000000000000000000000000000000000000000000000000000000000000000000000000000000000000000000000000000000000000000000000000000000000000000000000000000000000000000000000000000000000000000000000000000000000000000000000000000000000000000000000000000000000000000000000000000000000000000000000000000000000000000000000000000000000000000000000000000000000000000000000000000000000000000000000000000000000000000000000000000000001300000000000000000000000000000000000000000000000000000000000000000000000000000000000000000000000000000000000000000000000000000000000000000000000000000000000000000000000000000000000000000000000000000000000000000000000000000000000000000000000000000000000000000000000000000000000000000000000000000000000000000000000000000000000000000000000000000000000000000000000000000000000000000000000000000000000000000000000000000000000000000000000000000000000000000000000000000000000000000000000000000000000000000000000000000000000000000000000000000000000000000000000000000000000000000000000000000000000000000000000000000000000000000000000000000000000000530000000000000000000000000000000000000000000000000000000000000000000000000000000000000000000000000000000000000000000000000000000000000000000000000000000000000000000000000000000000000000000000000000000000000000000000000000000000000000000000000000000000000000000000000000000000000000000000000000000000000000000000000000005300000000000000000000000000000000000000000000000000000000000000000000000000000000000000000000000000000000000000000000000000000000000000000000000000000000000000000000000000000000000000000000000000000000000000000000000000000000000000000000000000000000000000000000000000000000000000000000000000000000000000000000000000000000000000000000000000000000000000000000000000000000000000000000000000000000000000000000000000000000000000000000000000000000000000000000000000000000000000000000000000000000000000000000000000000000000000000000000000000000000000000000000000000000000000000000000000000000000000000000000000000000000000000000005353535353535353230000000000000000000000000000000000000000000000000000000000000000000000000000000000000000000000000000000000000000000000000000000000000000000000000000000000000000000000000000000000000000000000000000000000000000000000000000000000000000000000000000000000000000000000000000000000000000000000000000000000000000000000000000000000000000000000000000000000000000000000000000000000000000000000000000000000000000000000000000000000000000000000000000000000000000000000000000000000000000000000
#052991:000000000000535300535300
