This file was generated by Ched 2.7.0.0.
#TITLE ""
#ARTIST ""
#DESIGNER ""
#DIFFICULTY 0
#PLAYLEVEL
#SONGID ""
#WAVE ""
#WAVEOFFSET 0
#JACKET ""
#REQUEST "ticks_per_beat 480"
#00002: 4
#BPM01: 108
#00008: 01
#TIL00: ""
#VOLUME: ""
#HISPEED 00
#MEASUREHS 00
#00018:13131313
#0001b:0000000000000013
#0001a:0012001200120000
#0011b:00130023
#00115:0013
#00118:2400000000130000
#00112:00230013
#00214:13
#00219:13
#0021b:00130023
#00218:0013
#00215:0000000000130000
#00212:00230013
#00315:0013
#00318:0000000000130000
#00312:00000013
#0031b:00000023
#00416:14
#00417:00000000000000000000000000140000
#0041a:0000000000240000
#00518:0000000000130000
#00515:00000013
#00512:0000000000000013
#00510:41
#00615:0013000000130000
#0061a:14
#00618:00000013
#0061b:0000000000000013
#00712:14
#00715:0000000000130000
#00718:00000013
#0071b:0000000000000013
#00812:1400000000240000
#00818:0013000000000000
#00815:00000000130000000000000000140000
#0081a:0000002400000000
#00912:0000000000130000
#00915:00000013
#00918:0000000000000013
#01017:0014000000000000
#01012:14
#0101b:0000000000130000
#01018:00000013
#01015:0000000000000013
#0121a:14000000000000000000000000000000000000000000000000530000000000000000000000000000000000000000000000000000000000000000000000000000
#01215:0000005300131300
#01218:000000000000000000530000000000000013000000000000
#01212:000000000000000000000000000000000000000033330033
#01213:00000000000000000000000000000000000000000000000000530000000000000000000000000000000000000000000000000000000000000000000000000000
#0111a:14
#0111b:0000000000130000
#01118:00000013
#01115:0000000000000013
#01312:0013
#01318:0000000000131300
#01315:000000000000240000000000000000000013000000000000
#0131a:00240000
#0131b:000000000000000000000000000000000000000033330033
#01310:41
#0141b:0013
#01412:000000000000240000000000000000000000000033330033
#01417:00240000
#01415:0000000000232300
#01418:000000000000000000000000000000000023000000000000
#0151b:00000013
#01515:00240013
#01512:000000000000000000130000000000000000000033330033
#01518:000000000000000000130000000000000000000033330033
#0151a:00240000
#0161b:0000001300001300
#01618:0000000000130013
#01715:0013000000000013
#01718:00130013
#01712:0000001300000000
#0171a:24
#01815:0000000000131300
#01818:240000000000000000240000000000000013000000000000
#01812:000000000000000000000000000000000000000000000000000000000000000000000000000000000000006400000000000000000000000000000000000000000000000000000000000000000000000000000000000000000000000000000000000000000000000000000000000000000000000000000000000000000000000000000000000000000000000000000000000000000000000000000000000000000000000000000000130000000000000000000000000000000000000000000000
#01814:000000000024000000000000000000000000000000000000
#0181b:0000000000000023
#0181a:00640000000000000000000000000000000000000000000000640000000000000000000000000000000000000000000000000000000000000000000000000000
#02115:0000001300130000
#02118:0013
#02112:14000024
#0211a:0014000000002400
#02110:41
#02412:1313
#02418:000013000000000000130000000000230000000000230000
#02415:000000130000000013000000000000000000230000000000
#0241b:00130000
#0251b:0000001300000000
#02515:0013
#02518:0000000000130000
#02512:14000024
#0251a:0014000000002400
#02516:00240000
#02714:14
#02718:0014000000130013
#0271a:0000001400000000
#02715:00001313
#02712:00240000
#02812:14140000
#0281a:14140024
#02818:0024
#02814:0000000000240000
#02918:00001313
#02915:0000000000130000
#02912:00240000
#02910:41
#03015:00001313
#03018:0000000000130000
#03012:24
#0301a:00240000
#03118:00001313
#03115:0000000000130000
#0311a:24
#03112:00240000
#03218:0013
#03215:0013
#03212:24
#0321a:00240000
#03318:00001313
#03315:0000000000130000
#03312:24240000
#0331a:24240000
#03415:00001313
#03418:0000000000130000
#0341a:24240000
#03412:24240000
#03512:0014000000000000
#03513:0000001400000000
#03514:0000000000140014
#0351a:24
#03519:00240000
#03518:00002424
#03612:0014
#03619:0000000000140000
#03614:0024002400001400
#03618:2400240000002413
#03613:0000000000240000
#0361a:0024
#03615:0000000000000023
#03914:12
#0401a:12
#04116:12
#04114:00120000
#04218:12
#0421a:00120000
#04318:0012
#04314:12
#0431f:11
#04414:0012
#04416:12
#0441a:0022
#04712:15001313
#04718:0013001300000000
#04715:00130000
#0471b:0000000000130013
#04815:13
#04818:23
#04812:000033330033333333333333333333000000000000000000
#0481b:000033330033333333333333333333000000000000000000
#02218:0000001300130000
#02215:0013
#0221a:14000024
#02212:0014000000002400
#02315:0000001300130000
#02318:0013
#02312:14000024
#0231a:0014000000002400
#02612:0014001300002400
#02618:0013
#02615:0000000000130000
#0261a:14000024
#02616:00240000
#05018:0026001300130000
#05015:0013
#05012:26240024
#0501a:00000024
#0501f:21
#05115:0000001300130000
#05118:2613
#05112:0026000000002400
#0511a:00240024
#05110:41
#05212:13
#0521b:0023
#05215:000033330033330033000000000000000000000000000000
#05218:000000000000000000000000000033330033330033000000
#05318:0026001300130000
#05315:0013
#05312:26240024
#0531a:00000024
#05415:0000001300130000
#05418:2613
#05412:0026000000002400
#0541a:00240024
#05519:15
#05512:25
#03712:2c
#03710:41
#04619:2525
#04612:25
#05619:2525250000000000
#05612:2525250000000000
#05613:000000000000000000000000000000000000000000000063
#0561a:000000000000000000000000000000000000000000000063
#00058:63636363
#0005b:0000000000000023
#0005a:0022002200220000
#00158:14
#00352:0013000000000000
#0035b:0000001300000000
#00457:00000000120000000000000000240000
#00456:64
#0045a:0000000000640000
#0055a:14
#00552:00000000000000130000000000000000
#0065b:00000000000000130000000000000000
#00752:14
#0075b:00000000000000130000000000000000
#00858:0013000000000000
#00855:00000000130000000000000000240000
#0085a:0000001400000000
#00852:0000000000540000
#00952:14
#00958:00000000000000130000000000000000
#01055:00000000000000130000000000000000
#0115a:14
#01155:00000000000000130000000000000000
#01352:13
#01358:00000053
#01255:00000063
#0145b:13
#01455:00000063
#01552:1300005300000000
#0155b:00000063
#01555:00000063
#01558:0000005300000000
#01658:1300000000630063
#01652:13
#0165b:0000006300006300
#0175a:14
#01752:0000006300000000
#01755:0000000000130013
#01758:00000013
#01852:0000000000000053
#0185b:0000000000000063
#0295a:14
#02952:00140000
#03052:14
#0305a:00140000
#0315a:14
#03152:00140000
#03252:14000013
#0325a:00140000
#0325b:00000013
#03258:0063
#03255:0053
#03352:14140000
#0335a:14140000
#0345a:14140000
#03452:14140000
#03752:1c
#03954:62
#0405a:52
#04156:62
#04154:00220000
#04258:52
#0425a:00220000
#04358:0062
#04354:62
#0445a:0062
#04454:0062
#04456:62
#04556:00000012
#04558:00000012
#04852:0000000000130000
#0485b:0000000000130000
#04858:63
#04855:63
#04953:0000001a
#02052:0000000000160000
#02058:0000000000160000
#02152:14
#0215a:0014000000000000
#0225a:14
#02252:0014000000000000
#02352:14
#0235a:0014000000000000
#02552:14
#0255a:0014000000000000
#0265a:14
#02652:0014000000000000
#02754:14
#02758:0014000000000000
#05052:16
#05058:0016000000000000
#05158:16
#05152:0016000000000000
#05252:63
#0525b:0063
#05352:16
#05358:0016000000000000
#05458:16
#05452:0016000000000000
#05559:65
#05552:65
#05558:00000013
#05555:00000013
#000380:13333333
#0003a0:0052005200520000
#0003b0:0000000000000053
#001380:24
#003350:13
#003320:00532300000000000000000000000000
#003380:00130000
#0033b0:00000000005323000000000000000000
#004360:14
#004370:00220000
#0043a0:0000000000140000
#004370:00000000000000000000000000540000
#0053a0:24
#005350:00130000
#005320:00000000005300230000000000000000
#006380:00130000
#0063b0:00000000005300230000000000000000
#007380:00130000
#0073b0:00000000005300230000000000000000
#008320:0000000000140000
#008350:00000000000000000000000000540000
#009320:24
#0093b0:00130000
#009380:00000000005300230000000000000000
#010320:00130000
#010350:00000000005300230000000000000000
#011320:00130000
#011350:00000000005300230000000000000000
#012350:0013002300000000
#012381:0000132300000000
#012351:00000013
#012321:000000000000000000000000000000000000000033330033
#013321:23
#013381:00000013
#0133b1:000000000000000000000000000000000000000033330033
#0143b1:23
#014351:00000013
#014321:000000000000000000000000000000000000000033330033
#015321:23
#015321:0000001300000000
#015351:0000000000230000
#015380:0000001300000000
#0153b0:0000000000230000
#0153b0:00000013
#015380:000000000000000000000000000000000000000033330033
#016380:23
#015351:00000013
#015321:000000000000000000000000000000000000000033330033
#016321:23
#0163b1:0000001300003300
#016381:0000000000330033
#0173a1:24
#017321:0000001300000000
#017351:000000000000000000000033000000230000000000000000
#0183b1:0000000000000013
#019381:0000003200000000
#020381:0000000000260000
#018320:0000000000000013
#019360:0000003200000000
#020320:0000000000260000
#0283a0:00000014
#0293a0:24
#032380:0013
#0323b0:00000023
#032351:0013
#032321:00000023
#039341:12
#039361:0022
#0403a1:12
#040381:0022
#041361:1222
#041341:00520000
#042381:1222
#0423a1:00520000
#043341:12
#043361:0022
#043380:0012
#0443a0:22
#044361:12
#044341:0032
#045361:00000022
#0443a0:0012
#045380:00000022
#046320:1525
#046391:0015
#047391:25
#048351:13
#048321:000033330033333333333333333333230000000000000000
#048380:13
#0483b0:000033330033333333333333333333230000000000000000
#049330:1a00002a
#052320:13
#052350:000033330033330033230000000000000000000000000000
#0523b0:0013
#052380:000000000000000000000000000033330033330033230000
#055320:15
#055350:00000023
#055391:15
#055381:00000023
#056391:000000000000000000000000150000000055000000000000000000000000000000000000000000000000000000000000
#0563a1:000000000000000000530000000000000000000000000023
#056320:000000000000000000000000150000000055000000000000000000000000000000000000000000000000000000000000
#056330:000000000000000000530000000000000000000000000023
#012980:0000001300000000
#0129a0:00000000000000000000000000000000000000000000000000230000000000000000000000000000000000000000000000000000000000000000000000000000
#012951:0000001300000000
#012931:00000000000000000000000000000000000000000000000000230000000000000000000000000000000000000000000000000000000000000000000000000000
#018981:14
#0189a1:00240000000000000000000000000000000000000000000000000000000000000000000000000000000000000000000000000000000000000000000000000000
#018941:000000000014000000000000000000000000000000000000
#018921:000000000000000000000000000000000000000000000000000000000000000000000000000000000000002400000000000000000000000000000000000000000000000000000000000000000000000000000000000000000000000000000000000000000000000000000000000000000000000000000000000000000000000000000000000000000000000000000000000000000000000000000000000000000000000000000000000000000000000000000000000000000000000000000000
#018981:0000001400000000
#0189a1:00000000000000000000000000000000000000000000000000240000000000000000000000000000000000000000000000000000000000000000000000000000
