This file was generated by Ched 2.7.0.0.
#TITLE ""
#ARTIST ""
#DESIGNER ""
#DIFFICULTY 0
#PLAYLEVEL
#SONGID ""
#WAVE ""
#WAVEOFFSET 0
#JACKET ""
#REQUEST "ticks_per_beat 480"
#00002: 4
#BPM01: 112
#00008: 01
#TIL00: ""
#VOLUME: ""
#HISPEED 00
#MEASUREHS 00
#0241b:000000000000130000000000000013000000000000130000
#02415:000000000000000013000013000000000000000000000000
#02412:000000130000000000001300
#02418:000000000000000000000000000000000013000000000000
#0251b:00000013
#02518:000000000013
#02515:2600000000000013
#02512:000000000000000000000000000000000000130000000014
#0251a:000000000000000000000000000000000000000000000024
#02618:000014000000130000000013000000000000000000000013
#02615:000000000013000013000013000000000000000000000000
#0261b:000000000013
#02614:002400000000000000000000
#02718:000000130000000000000000130000140000000000000013
#02715:000000000000000000000013000000000000000000000000
#02712:00000014
#02719:0000000000000013
#02714:0000000000240013
#0271a:00000024
#03712:1313
#03715:00130013
#0371b:1300002300000023
#03718:0023000000230000
#0161a:001400000000000000240000
#01618:000000000000000012000014000000240000000000130000
#01612:0014000000002400
#01619:000000000013000000000000000000000000000000000000
#01614:00132400
#01616:0000001200000000
#01615:000000000000000000000000000000000000000013000013
#01015:00130013
#01018:000000000013000000000000000000000000000000130000
#01012:001500000000000000000000
#0101b:000013130000
#01019:002500000000000000000000
#0011a:1212000000001200
#00114:1212
#00116:000000000000120000120000000000000000000012000000
#00118:000000000000000012000000000000120000000000120000
#00615:000013000000000000130000000000130000000013000000
#00618:000000130000000013000000130000000000000000130000
#00612:000000000013000000000000000000000000000000000000
#0061b:00000013
#00515:0000001313000013
#00518:000000000000000013000000000000130000000013000000
#0051b:230000000000130000000000000000000000000000000013
#00512:2313000000001300
#0531b:0000130000000013
#05315:0000001300001300
#05312:260000130000001300000000
#05318:260000000000000000000013000000000000130000000000
#0511b:13130000
#05118:000000000000000000130000000000000000000024000000
#05112:000000130000000000000024000000000000000000000000
#05116:000000000000000000000000000000000024000000000013
#05115:001300
#05114:000000000000002400000000
#0511a:000000000000000000000000000000000000000000000024
#05217:000000000000130000130013000000000000000000000000
#0521b:0000000000000013
#05212:000000000000000000130013000000000000130000000000
#0501b:000000000000000000000013000000000000000000130000
#05016:000000000024000000000000000000000000000013000013
#05012:000000000000000000000024000013000000000000000000
#05017:0000000000130000
#05018:002400000000000000000000
#05014:002400
#04915:2600000000000013
#04918:00160000
#04912:00160000
#0491a:000000000000000000000000000000000000000000000024
#04910:41
#00919:000000000000000000000000000000000000000000000015
#00915:000000000013000000000000000053000013000000000000
#00912:000000000000000000130000000000000000000000000025
#00918:260000000000130000000013000000000000000053000000
#00910:41
#00913:0000000000000000000000000000000000000053000000000000000000000000
#0091a:0000000000000000000000000000000000000000000000000000005300000000
#01112:140000000000000000000016000000000000000000000000
#0111a:0014000000000000
#01118:000000000000130000000026000015000024000013000022
#01114:000000000000000013000000000000000014000000000000
#01119:0000001300000000
#01115:000000000013000000000000000000000000000023000000
#01116:000000000000000000000000000000000000000000000012
#01113:000000000000002500000000
#02015:0013000000130013
#0201b:001300130000000000130000
#02018:000000000000000000000000000013000000000013000013
#02012:00130013
#0171b:00130000
#01715:001300001300000000000000
#01718:260000000000000000130000000013000000000013000013
#01712:00000013
#01710:41
#01818:000013000000130000000000000000000013000000000013
#0181b:000000130013
#01812:00000013
#01815:0013000000000000
#01918:000000000000130000000000000000000000000000000013
#01915:000000000000000000130000000000000013000000000000
#01912:0013000000000000
#0191b:0013
#0081b:000000130013000000000000000000000000130000000000
#00815:130000000000000013000000000000000000000000000013
#00812:000000000013000000000000130000000000130000000000
#00818:0000001300000013
#00718:000013000000000053000000000000000000000000130013
#0071b:000000000013000000000000000000000013000000000000
#00712:000000000000000000000013000000000000130000000000
#00715:000000130000000000000000000053000000000000000000
#0071a:00530000
#00719:000000000000005300000000000000000000000000000000
#00717:0000005300000000
#00713:0053
#00714:000000000000000000000000005300000000000000000000
#00716:0000000000530000
#01315:000000130000000000131300
#01318:000000000013000000000000000000000013000000130000
#01314:000000000000131300000000
#01319:000000000000000000000000130013000000000000000025
#0131b:0000001300000000
#01312:260000000000000000000000000000000000000000000015
#01418:000000000000130013000000000000000000000000130000
#01415:000000000013000000130000000000000000000013000000
#01412:002500000000000000130000
#01419:001500000000131300000000
#0141b:00000013
#01414:000000000000131300000000
#0151a:0000000000130000
#01513:0000000000130000
#01514:00000013
#01519:00000013
#02812:000000000000000000000000000013000000000000130000
#0281b:000000000000000000003333000013000000000000130013
#02818:000000000000003300000000000000000000000000000000
#02819:003300
#0281a:0000003300000000
#03319:00130013
#03317:0013
#03312:1413
#0331f:11
#03414:00130013
#03416:0013
#0341a:14
#0341b:0013
#03517:00130000
#03516:00000013
#03512:14130000
#0351a:0014
#0351b:00000013
#0361b:0000001300000000
#03612:1413000000000000
#03619:00150000
#04812:000000000000130000000000000013000000000000130000
#04818:000000000000000013000013000000000000000000000000
#0481b:000000130000000000001300
#04815:000000000000000000000000000000000013000000000000
#04112:260000000000130000000000000000000000000013000013
#04118:261300
#04115:0000001300000000
#0411b:00130013
#04116:000000000000001300000000
#0411f:21
#04218:000013000000000000130000000000000000000000130000
#04215:000000130000000000130000000000000013000000000000
#04212:000000000000130000000000000000000000000013000013
#0421b:00130013
#04210:41
#04418:00130000
#04412:000000130000000000131300
#04419:0000000000000013
#04415:001300000000001300000000
#0441b:0013000000130000
#04414:000000000000000000000000000000000000000000000013
#00314:0012000012000012
#0031a:00120012
#00318:000000000000000000120000000012000000000000000000
#00316:000000000000000012000000000000120000000000000000
#00216:0000000000001212
#00218:000000000000000000000000000000000000000000000012
#00418:0012000026000000
#00416:001200000000000000000000
#0041c:0000000000120000
#00412:0000000026120000
#0121b:001300000000000000000000
#01212:0013000000000000
#01218:000000000000000000000000000000000000001300130000
#01215:000000000000000000131300
#02112:26130000
#02118:001300001300000000000000
#02115:000000000000000000130000000013000000000013000013
#0211b:00000013
#0431b:000000130000000000130000000000000013000000000000
#04315:0000001300001300
#04312:000000000000000000000000000000000000000000000013
#0451b:000000000000130000000000000000000000000013000013
#04515:001300
#04518:0000001300000000
#04512:00000013
#04516:001300000000000000000000
#04517:000000000000001300000000
#0451a:24
#04615:000013000000000000130000000000000000000000130000
#04618:000000130000000000130000000000000013000000000013
#04612:00130013
#0461b:000000130000000000001300
#05418:000000000000230023000000000000000000000013000013
#05415:230023000000000000000000000000000000000000130000
#05412:000000000000230000000023000063000000000000000000
#0541b:230000000000000000000023000000000000000000000000
#05414:000000000000000000000000000000000000000000000000000000000063000000000000000000000000000000000000
#05416:0000000000630000
#05512:000000000000130000000000130000000000000000000014
#05518:000000130000000000000000000013000000000000000000
#0551a:000000000000000000000000000000000014000000000000
#05516:000000000014
#05515:1300001300130000
#0551b:00131300
#05618:000000000000000013000013000000000000130000000000
#0561a:00140000
#05615:000000000000000000000013000000000013000000000000
#02215:000013000000130000000000000000000013000000000013
#02218:0013000000000013
#02212:000000130013
#0221b:00000013
#0391b:13130013
#03915:000000130000000013000000000000130000000013000013
#03918:000013000000000000130000000013000000000000130000
#03912:0013
#04018:13
#04012:0013000000000000
#03018:000000000033000000000000000000000000130000000000
#03015:000000000000000000000000000000000013000013000000
#0301b:0000000000130000
#03017:000000000000333333333300000000000000000000000000
#0301a:0033000000000000
#03019:003300000000
#03112:13
#03113:000000000000003300000000000000000000000000000000
#03114:003300
#03115:000000000000000000333333000000000000000000000000
#02912:0013
#02915:26130000
#0291b:00000013
#02910:41
#03818:00130013
#0381b:0013
#03812:1300002300000023
#03815:0023000000230000
#0571b:13
#05712:13
#05718:00530000
#05715:00530000
#02312:0013000000000000
#0231b:0000001300000000
#02318:131313000000130000000000000000000000000000000000
#02319:001300000013000000000000000000000000000000000000130000000000130000000000000000001300000000000000
#02317:00130000000000000000000000000000
#02315:000000000000131313000000000000000000000000000000
#02314:000000000000000000000000001300000013000000000000000000000000000000001300000000001300000000000000
#02316:00000000001300000000000000000000
#02310:41
#0471b:000000130000000000000000000000000013000013000000
#04712:0000001313000000
#04715:131313000000130000000000000000130000000013000000
#04714:001300000013000000000000000000000000000000000000000000000000000000000000000000000000000000000000
#04716:00130000000000000000000000000000
#04718:000000000000131313000000130000000000000000000000
#04719:000000000000000000000000001300000013000000000000000000000000000000000000000000000000000000000000
#04717:00000000001300000000000000000000
#02455:000000000000000000000013000000000000000000000000
#02458:000000000000000000000013000000000053000000000000
#0245b:0000000000000063
#05352:16
#05358:160000000000000000000053000000000000000000000000
#05355:00000063
#0505b:000000000000000000000063000000000000000000000000
#05057:0000000000530000
#05257:000000000000000000000053000000000000000000000000
#00958:16530000
#01352:16
#01355:00630000
#01152:14
#01156:000000000000000000000000000000000000000000000062
#00555:0063
#00552:0053000000000000
#00558:0000000000530000
#0055b:000000000000000000000000000000000000000000000063
#00458:00005616
#00452:0000000066221600
#0045c:0000000000220000
#0015a:0062000000000000
#00154:0052
#00652:000000000053000000000000000000000000000000000000
#00658:0053
#00655:0000000000630000
#00855:63
#0085b:000000000063000000000000130000000000000000000000
#00852:0013
#00858:0000005300000000
#0105b:0063
#01558:000000000000000000000000160000000000000000000013
#01552:0016
#01555:000000000000000000000000000000000000000000000013
#01755:000063000000000000000000000013000000000000000013
#01758:160000000000005300000000
#01752:00000053
#02152:16
#02158:000053000000000000000000000013000000000000000013
#02155:000000000000006300000000
#0215b:00000063
#02555:16
#02852:000000000000005300000000
#0285b:000000000000006300000000
#02855:00000013
#02858:00000013
#03659:00550015
#03652:5423000000001500
#0365b:0000002300000000
#04858:000000000000000000000013000000000000000000000000
#04852:0000000000000053
#04855:000000000000000000000013000000000063000000000000
#04152:160000000000000000000000000000000000000000000053
#0415b:000000000000001300000000
#04158:160000000000000000000000000000000000000000000013
#04156:000000000000006300000000
#0455a:14
#04552:000000000000001300000000
#04555:000000000000000000000000000000000000000000000013
#04556:006300000000000000000000
#04557:000000000000005300000000
#0455b:000000000000000000000000000000000000000000000063
#04955:16
#04952:00660013
#0495b:00000013
#04958:00560000
#0425b:0013
#04252:000000000000530000000000130000000000000000000053
#04255:0000006300000000
#04258:0000005300000000
#00258:000000000000000000000000000000000000000000000052
#00757:0000001300000000
#00756:0000000000130000
#0195b:0013
#01952:000000000000000000000000000000000000000000000013
#04355:0000006300006300
#0435b:0000006300000000
#04352:0013
#04358:000000000000000000000000130000000000000000000013
#04652:0013
#0465b:00631300
#04655:0000006300000000
#04658:0000005300000000
#0515b:63
#05152:0053000000000000
#05156:000000000000000000000000000000000000000000000063
#05658:000000000000000000000053000000000000000000000000
#05655:000000000000000000000063000000000000000000000000
#05652:000000000000001300000000
#0565b:000000000000001300000000
#05552:000000000000000000000000000000000000000000000054
#02655:000000000000000000000063000000000000000000000000
#02658:000000000000000000000053000000000000000000000000
#01858:000000000000530000000000000000000000000000000053
#0185b:0013
#01852:0013
#02252:0013
#02255:00630000
#0225b:0013
#03352:6423
#0335a:14
#0345a:54
#0345b:0023
#03552:64230000
#0355a:0054
#0355b:00000023
#03958:0000001300000000
#03955:0013000000130000
#0405b:00000013
#04052:00000013
#02955:16
#0445b:0000000000630000
#0575b:63
#05752:53
#02358:536353000000000000000000000000000000000000000000
#02359:002300000023000000000000000000000000000000000000000000000000000000000000000000005300000000000000
#02357:00230000000000000000000000000000
#02355:000000000000635363000000000000000000000000000000
#02354:000000000000000000000000002300000023000000000000000000000000000000000000000000006300000000000000
#02356:00000000002300000000000000000000
#0235b:000000000000000000000000000000000000000000000013
#02352:000000000000000000000000000000000000000000000013
#04755:635363000000000000000000000000000000000063000000
#04754:002300000023000000000000000000000000000000000000000000000000000000000000000000000000000000000000
#04756:00230000000000000000000000000000
#04758:000000000000536353000000530000000000000000000013
#04759:000000000000000000000000002300000023000000000000000000000000000000000000000000000000000000000000
#04757:00000000002300000000000000000000
#0475b:000000000063
#04752:000000000000000000000000000000000000000000000013
#0013a0:0012000000000000
#001380:00220000
#001340:0012
#001360:0000000000220000
#001340:000000000000000000000000000000000000000000000012
#002340:0022000000000000
#0023a1:0012220000000000
#002350:0000122200000000
#002391:0000001222000000
#002360:0000000012220000
#002381:0000000000122200
#002381:000000000000000000000000000000000000000000000012
#0033a1:0022000000000000
#003381:000000000000000000000000000000000000000000000012
#004381:002200000000000000000000
#004321:0000000016522600
#004380:00001626
#0043c0:0000000000520000
#005320:0013000000000000
#005350:00230000
#005350:0013
#005320:0000000000230000
#005381:0000000000130000
#0053b1:00000023
#0053b1:000000000000000000000000000000000000000000000013
#006381:002300000000000000000000
#006321:000000000013000000000000000000000000000000000000
#006351:002300
#006381:0013
#0063b1:0000000000230000
#006350:0000000000130000
#006320:00000023
#006320:000000000000000000000000000000000000000000000013
#007320:002300000000000000000000
#008350:13
#008320:0023000000000000
#0083b0:000000000013000000000000000000000000000000000000
#008380:002300
#008380:0000001300000000
#0083b0:0023
#009380:00130000
#0093b0:0000002300000000
#009350:000000000000132300000000
#009380:000000000000000000132300
#010320:0000001323000000
#0103b1:0013
#010381:00000023
#011361:000000000000000000000000000000000000000000000012
#012321:002300000000000000000000
#012381:000000000000135353230000000000000000000000000000
#012391:000000000000000000000000005300530053000000000000000000000000000000000000000000000000000000000000
#012350:000000000000000000135353230000000000000000000000
#012340:000000000000000000000000000000000000005300530053000000000000000000000000000000000000000000000000
#0123b1:000000000000000000000000135353535353230000000000
#0123a1:000000000000000000000000000000000000000000000000005300530053005300530053000000000000000000000000
#013351:00130000
#013321:0000002300000000
#0153b1:13330000
#015381:000000000000000000000000000000000000000000000000000000000000000000000000000000000000000000000000000000000000000000000000000000000000000000000000000000000000000000000000000000000000000000000000000000000000000000000000000000000000000000000000000000000000000000000000000000000000000000000000000000000000000000000000000000000000000000000000000000000000000000000000000000000000000000000000000000000000000000000000000000000000000000000000000000000000000000000000000000000000000000000000000000000000000000000000000000000000000000000000000000000000000000000000000000000000000000000000000000000000000000000000000000000000000000000000000000000000000000000000000000000000000000000000000000000000000000000000000000000000000000000000000000000000000000000000000000000000000000000000000000000000000000000000000000000000000000000000000000000000000000000000000000000000000000000000000000000000000000000000000000000000000000000000000000000000000000000000000000000000000000000000005600000000000000000000000000000000000000000000000000000000000000000000000000000000000000000000000000000000000000000000000000000000000000000000000000000000000000000000000000000000000000000000000000000000000000000000000000000000000000000000000000000000000000000000000000000000000000000000000000000000000000000000000000000000000000000000000000000000000000000000000000000000000000000000000000000000000000000000000000000000000000000000000000000000000000000000000000000000000000000000000000000000000000000000000000000000000000000000000000000000000000000000000000000000000000000000000000000000000000000000000000000000000000000000000000000000000000000000000000000000000000000000000000000000000000000000000000000000000000000000000000000000000000000000000000000000000000000000000000000000000000000000000000000000000000000000000000000000000000000000000000000000000000000000000000000000000000000000000000000000000000000000000000000000000000000000000000000000000000000000260000000000000000000000000000000000000000000000000000000000000000000000000000000000000000000000000000000000000000000000000000000000000000000000000000000000000000000000000000000000000000000000000000000000000000000000000000000000000000000000000000000000000000000000000000000000000000000000000000000000000000000000000000000000000000000000000000000000000000000000000000000000000000000000000000000000000000000000000000000000000000000000000000000000000000000000000000000000000000000000000000000000000000000000000000000000000000000000000000000000000000000000000000000000000000000000000000000000000000000000000000000000000000000000000000000000000000000000000000000000000000000000000000000000000000000000000000000000000000000000000000000000000000000000000000000000000000000000000000000000000000000000000000000000000000000000000000000000000000000000000000000000000000000000000000000000000000000000000000000000000000000000000000000000000000000000000000000000000000000000000000000000000000000000000000000000000000000000000000000000000000000000000000000000000000000000000000000000000000000000000000000000000000000000000000000000000000000000000000000000000000000000000000000000000000000000000000000000000000000000000000000000000000000000000000000000000000000000000000000000000000000000000000000000000000000000000000000000000000000000000000000000000000000000000000000000000000000000000000000000000000000000000000000000000000000000000000000000000000000000000000000000000000000000000000000000000000000000000000000000000000000000000000000000000000000000000000000000000000000000000000000000000000000000000000000000000000000000000000000000000000000000000000000000000000000000000000000000000000000000000000000000000000000000000000000000000000000000000000000000000000000000000000000000000000000000000000000000000000000000000000000000000000000000000000000000000000000000000000000000000000000000000000000000000000000000000000000000000000000000
#015320:130000000000000000000000000000000000000000000000000000000000000000000000000000000000000000000000000000000000000000000000000000000000000000000000000000000000000000000000000000000000000000000000000000000000000000000000000000000000000000000000000000000000000000000000000000000000000000000000000000000000000000000000000000000000000000000000000000000000000000000000000000000000000000000000000000000000000000000000000000000000000000000000000000000000000000000000000000000000000000000000000000000000000000000000000000000000000000000000000000000000000000000000000000000000000000000000000000000000000000000000000000000000000000000000000000000000000000000000000000000000000000000000000000000000000000000000000000000000000000000000000000000000000000000000000000000000000000000000000000000000000000000000000000000000000000000000000000000000000000000000000000000000000000000000000000000000000000000000000000000000000000000000000000000000000000000000000000000000000000000000335600000000000000000000000000000000000000000000000000000000000000000000000000000000000000000000000000000000000000000000000000000000000000000000000000000000000000000000000000000000000000000000000000000000000000000000000000000000000000000000000000000000000000000000000000000000000000000000000000000000000000000000000000000000000000000000000000000000000000000000000000000000000000000000000000000000000000000000000000000000000000000000000000000000000000000000000000000000000000000000000000000000000000000000000000000000000000000000000000000000000000000000000000000000000000000000000000000000000000000000000000000000000000000000000000000000000000000000000000000000000000000000000000000000000000000000000000000000000000000000000000000000000000000000000000000000000000000000000000000000000000000000000000000000000000000000000000000000000000000000000000000000000000000000000000000000000000000000000000000000000000000000000000000000000000000000000000000000000000000000260000000000000000000000000000000000000000000000000000000000000000000000000000000000000000000000000000000000000000000000000000000000000000000000000000000000000000000000000000000000000000000000000000000000000000000000000000000000000000000000000000000000000000000000000000000000000000000000000000000000000000000000000000000000000000000000000000000000000000000000000000000000000000000000000000000000000000000000000000000000000000000000000000000000000000000000000000000000000000000000000000000000000000000000000000000000000000000000000000000000000000000000000000000000000000000000000000000000000000000000000000000000000000000000000000000000000000000000000000000000000000000000000000000000000000000000000000000000000000000000000000000000000000000000000000000000000000000000000000000000000000000000000000000000000000000000000000000000000000000000000000000000000000000000000000000000000000000000000000000000000000000000000000000000000000000000000000000000000000000000000000000000000000000000000000000000000000000000000000000000000000000000000000000000000000000000000000000000000000000000000000000000000000000000000000000000000000000000000000000000000000000000000000000000000000000000000000000000000000000000000000000000000000000000000000000000000000000000000000000000000000000000000000000000000000000000000000000000000000000000000000000000000000000000000000000000000000000000000000000000000000000000000000000000000000000000000000000000000000000000000000000000000000000000000000000000000000000000000000000000000000000000000000000000000000000000000000000000000000000000000000000000000000000000000000000000000000000000000000000000000000000000000000000000000000000000000000000000000000000000000000000000000000000000000000000000000000000000000000000000000000000000000000000000000000000000000000000000000000000000000000000000000000000000000000000000000000000000000000000000000000000000000000000000000000000000000000000000000000000000
#015350:000000000000000000000000000000000000000000130023
#015381:000000000000000000000000000000000000000000130023
#017351:001300000000000000000000
#017321:00230000
#017351:000000000000000000000013000023000000000000000000
#017380:000000000000001300000000
#0173b0:00000023
#017321:00000013
#017351:000000000023
#017351:000000000000000000000000000000000000000000130023
#018381:00130000
#0183b1:0000002300000000
#018320:0000001323000000
#018350:000000000000000000000000000000000000000000130023
#018381:000000000000000000000000000000000000000000000013
#0193b1:0023000000000000
#019381:0000000000001323
#019320:000000000000000000000000000000000000000000130023
#020380:000000000000000000130023000000000000000000000000
#020351:000000000000000000000013000023000000000000000000
#021381:001300000000000000000000
#0213b1:00230000
#021381:000000000000000000000013000023000000000000000000
#021350:000000000000001300000000
#021320:00000023
#0213b1:00000013
#021381:000000000023
#021381:000000000000000000000000000000000000000000130023
#022351:00130000
#022321:0000002300000000
#0223b0:0000001323000000
#023380:135353230000000000000000000000000000000000000000
#023390:005300000053000000000000000000000000000000000000000000000000000000000000000000000000000000000000
#023370:00530000000000000000000000000000
#023350:000000000000135353230000000000000000000000000000
#023340:000000000000000000000000005300000053000000000000000000000000000000000000000000000000000000000000
#023360:00000000005300000000000000000000
#023340:0000000013230000
#023390:000000000000000000000000000000000013000033000000
#0233b0:000000000000000000000000000000000000000000000023
#023341:000000000013
#023321:000000000000000000000000000000000000000000000023
#024381:000000000000000000130023000000000000000000000000
#024321:000000000000000000000000000000130023000000000000
#024380:000000000000000000000000000000000013000000000000
#0243b0:000000000023
#0243b0:0000000000000013
#025350:26
#025330:0000140000240000
#025340:000000000000000000000000005400540054005400540054005400540054000000000000000000000000000000000000
#025320:000000000000005454545454545454000000000000000000
#025391:0000140000240000
#025381:000000000000000000000000005400540054005400540054005400540054000000000000000000000000000000000000
#0253a1:000000000000005454545454545454000000000000000000
#026381:000000000000000000130033000000000000000000000000
#0263b1:00000023
#026350:000000000000000000000013000000000000000000000000
#026320:00000023
#026350:000000000000000000000000000000000000000000130023
#027320:135353535353230000000000000000000000000000000000
#027330:005300530053005300530053000000000000000000000000000000000000000000000000000000000000000000000000
#0273b1:000000000000135353535323000000000000000000000000
#0273a1:000000000000000000000000005300530053005300530000000000000000000000000000000000000000000000000000
#027351:000000000000000000000000000000000000000000000013
#027341:000000000000000000000000000000000000000000000000000000000000000000000000000000000000000000000053
#028351:535323000000000000000000000000000000000000000000
#028341:005300530000000000000000000000000000000000000000000000000000000000000000000000000000000000000000
#0283b0:000013000000000000003333330033000000000000000000
#0283a0:0033003300000000
#028390:003333000000
#028380:000000000033003300000000000000000000230000000000
#028370:00330000
#028321:000000000000133300000000
#028351:00000023
#0293b1:0013230000000000
#029381:0000001323000000
#029351:0000000000132300
#029321:000000000000000000000000000000000000000000130033
#029331:000000000000000000000000000000000000000000000000000000000000000000000000000000000000000000000053
#030321:535323000000000000000000000000000000000000000000
#030331:005300530000000000000000000000000000000000000000000000000000000000000000000000000000000000000000
#0303b0:001300000000000000000000
#0303a0:0033000000000000
#030390:003300000000
#030380:000000000033000000000000000000000000000000000000
#030370:000000000000333333333323000000000000000000000000
#030321:000000000000000000000013535353230000000000000000
#030331:000000000000000000000000000000000000000000000053005300530053000000000000000000000000000000000000
#030381:000000000000000000000000000000000000000000135353
#030391:000000000000000000000000000000000000000000000000000000000000000000000000000000000000005300530053
#031381:23
#0313b1:000000135353230000000000000000000000000000000000
#0313a1:000000000000005300530053000000000000000000000000000000000000000000000000000000000000000000000000
#031320:00130000
#031330:000000000000003300000000000000000000000000000000
#031340:003300
#031350:000000000000000000333333230000000000000000000000
#031391:000000000000000000000000135353230000000000000000
#031381:000000000000000000000000000000000000000000000000005300530053000000000000000000000000000000000000
#031340:000000000000000000000000000000135353230000000000
#031350:000000000000000000000000000000000000000000000000000000000000005300530053000000000000000000000000
#0313a1:000000000000000000000000000000000000135353230000
#031391:000000000000000000000000000000000000000000000000000000000000000000000000005300530053000000000000
#031320:0000000000000013
#031330:000000000000000000000033
#031340:000000000000000000000000000000000000000000000033
#032350:23
#0323b1:135353230000000000000000000000000000000000000000
#0323a1:005300530053000000000000000000000000000000000000000000000000000000000000000000000000000000000000
#032350:0013000000000000
#032340:003300000000
#032330:000000000033000000000000000000000000000000000000
#032320:00230000
#0323a1:000000000000145454240000000000000000000000000000
#032391:000000000000000000000000005400540054000000000000000000000000000000000000000000000000000000000000
#032320:000000000000000000145454545454545454545454545454
#032330:000000000000000000000000000000000000005400540054005400540054005400540054005400540054005400540054
#033320:3453
#034320:24
#0323a1:000000000000000000000014545454545454545454545454
#032391:000000000000000000000000000000000000000000000054005400540054005400540054005400540054005400540054
#0333a1:24
#0343a1:14
#0343b1:0053
#0353a1:24
#035320:14532400
#0353a1:0014
#0353b1:00000053
#0363a1:24
#036320:1453250000000000
#036391:00000000150000003555005525000000
#0363b1:0000005300000000
#036371:000000000000000000000000000000000000000000000000000000000000000000000000000000000000000000000000000000000000000000000000000000000000000000000000000000000000000000000000000000000000000000000000000000000000000000000000000000000000000000000000000000000000000000000000000000000000000000000000000000000000000000000000000000000000000000000000000000000000000000000000000000000000000000000000000000000000000000000000000000000000000000000000000000000000000000000000000000000000000000000000000000000000000000000000000000000000000000000000000000000000000000000000000000000000000000000000000000000000000000000000000000000000000000000000000000000000000000000000000000000000000000000000000000000000000000000000000000000000000000000000000000000000000000000000000000000000000000000000000000000000000000000000000000000000000000000000000000000000000000000000000000000000000000000000000000000000000000000000000000000000000000000000000000000000000000000000000000000000000000000000000000000000000000000000000000000000000000000000000000000000000000000000000000000000000000000000000000000000000000000000000000000000000000000000000000000000000000000000000000000000000000000000000000000000000000000000000000000000000000000000000000000000000000000000000000000000000000000000000000000000000000000000000000000000000000000000000000000000000000000000000000000000000000000000000000000000000000000000000000000000000000000000000000000000000000000000000000000000000000000000000000000000000000000000000000000000000000000000000000000000000000000000000000000000000000000000000000000000000000000000000000000000000000000000000000000000000000000000000000000000000000000000000000000000000000000000000000000000000000000000000000000000000000000000000000000000000000000000000000000000000000000000000000000000000000000000000000000000000000000000000000000000000000000000000000000000000000000000000000000000000000000000000000000000000000000000000000000000000000000000000000000000000000000000000000000000000000000000000000000000000000000000000000000000000000000000000000000000000000000000000000000000000000000000000000000000000000000000000000000000000000000000000000000000000000000000000000000000000000000000005700000000000000000000000000000000000000000000000000000000000000000000000000000000000000000000000000000000000000000000000000000000000000000000000000000000000000000000000000000000000000000000000000000000000000000000000000000000000000000000000000000000000000000000000000000000000000000000000000000000000000000000000000000000000000000000000000000000000000000000000000000000000000000000000000000000000000000000000000000000000000000000000000000000000000000000000000000000000000000057000000000000000000000000000000000000000000000000000000000000000000000000000000000000000000000000000000000000000000000000000000000000000000000000000000000000000000000000000000000000000000000000000000000000000000000000000000000000000000000000000000000000000000000000000000000000000000000000000000000000000000000000000000000000000000000000000000000000000000000000000000000000000000000000000000000000000000000000000000000000000000000000000000000000000000000000000000000000000000000000000000000000000000000000000000000000000000000000000000000000000000000000000000000000000000000000000000000000000000000000000000000000000000000000000000000000000000000000000000000000000000000000000000000000000000000000000000000000000000000000000000000000000000000000000000000000000000000000000000000000000000000000000000000000000000000000000000000000000000000000000000000000000000000000000000000000000000000000000000000000000000000000000000000000000000000000000000000000000000000000000000000000000000000000000000000000000000000000000000000000000000000000000000000000000000000000000000000000000000000000000000000000000000000000000000000000000000000000000000000000000000000000000000000000000000000000000000000000000000000000
#036320:000000000000000000000000000000000000000000000000000000000000000000000000000000000000000000000000000000000000000000000000000000000000000000000000000000000000000000000000000000000000000000000000000000000000000000000000000000000000000000000000000000000000000000000000000000000000000000000000000000000000000000000000000000000000000000000000000000000000000000000000000000000000000000000000000000000000000000000000000000000000000000000000000000000000000000000000000000000000000000000000000000000000000000000000000000000000000000000000000000000000000000000000000000000000000000000000000000000000000000000000000000000000000000000000000000000000000000000000000000000000000000000000000000000000000000000000000000000000000000000000000000000000000000000000000000000000000000000000000000000000000000000000000000000000000000000000000000000000000000000000000000000000000000000000000000000000000000000000000000000000000000000000000000000000000000000000000000000000000000000000000000000000000000000000000000000000000000000000000000000000000000000000000000000000000000000000000000000000000000000000000000000000000000000000000000000000000000000000000000000000000000000000000000000000000000000000000000000000000000000000000000000000000000000000000000000000000000000000000000000000000000000000000000000000000000000000000000000000000000000000000000000000000000000000000000000000000000000000000000000000000000000000000000000000000000000000000000000000000000000000000000000000000000000000000000000000000000000000000000000000000000000000000000000000000000000000000000000000000000000000000000000000000000000000000000000000000000000000000000000000000000000000000000000000000000000000000000000000000000000000000000000000000000000000000000000000000000000000000000000000000000000000000000000000000000000000000000000000000000000000000000000000000000000000000000000000000000000000000000000000000000000000000000000000000000000000000000000000000000000000150000000000000000000000000000000000000000000000000000000000000000000000000000000000000000000000000000000000000000000000000000000000000000000000000000000000000000000000000000000000000000000000000000000000000000000000000000000000000000000000000000000000000000000000000000000000000000000000000000000000000000000000000000005553000000000000000000000000000000000000000000000000000000000000000000000000000000000000000000000000000000000000000000000000000000000000000000000000000000000000000000000000000000000000000000000000000000000000000000000000000000000000000000000000000000000000000000000000000000000000000000000000000000000000000000000000005355000000000000000000000000000000000000000000000000000000000000000000000000000000000000000000000000000000000000000000000000000000000000000000000000000000000000000000000000000000000000000000000000000000000000000000000000000000000000000000000000000000000000000000000000000000000000000000000000000000000000000000000000000000250000000000000000000000000000000000000000000000000000000000000000000000000000000000000000000000000000000000000000000000000000000000000000000000000000000000000000000000000000000000000000000000000000000000000000000000000000000000000000000000000000000000000000000000000000000000000000000000000000000000000000000000000000000000000000000000000000000000000000000000000000000000000000000000000000000000000000000000000000000000000000000000000000000000000000000000000000000000000000000000000000000000000000000000000000000000000000000000000000000000000000000000000000000000000000000000000000000000000000000000000000000000000000000000000000000000000000000000000000000000000000000000000000000000000000000000000000000000000000000000000000000000000000000000000000000000000000000000000000000000000000000000000000000000000000000000000000000000000000000000000000000000000000000000000000000000000000000000000000000000000000000000000000000000000000000000000000000000000000000000
#0373b0:0000001323000000
#0373b0:0000000000000013
#0383b0:23
#038320:0000001323000000
#038320:0000000000000013
#039320:23
#040380:00133300
#0403b0:00000000000000000053000023000000
#040351:0000001333000000
#040321:00000000000000000053000023000000
#0413b1:000000000000000000000013000023000000000000000000
#041360:000000000000001300000000
#041320:00000023
#041380:000000000000000000000000000000000000000000130023
#041321:000000000000000000000000000000000000000000000013
#042351:002300000000000000000000
#042321:00132300
#042351:0000003300000000
#042380:0000001300000000
#0423b0:0023
#042320:000000000000000000000000000000000000000000000013
#043350:0023000000000000
#043350:0000133300000000
#043320:0023
#0433b1:0000001300000000
#043381:0023
#043351:00000013
#043321:0000000000000023
#043380:000000000000000000000000000000000000000000130023
#044350:000000000000000000130023000000000000000000000000
#0443b1:000000000000000000000013000023000000000000000000
#0443b1:0000000000130000
#044371:00000023
#045361:001300000000000000000000
#045321:00230000
#045321:000000000000000000000013000023000000000000000000
#045370:000000000000001300000000
#0453b0:00000023
#045350:000000000000000000000000000000000000000000130023
#0453b1:000000000000000000000000000000000000000000000013
#046381:002300000000000000000000
#0463b1:00132300
#046381:0000003300000000
#046350:0000001300000000
#046320:0023
#047350:135353230000000000000000000000000000000000000000
#047340:005300000053000000000000000000000000000000000000000000000000000000000000000000000000000000000000
#047360:00530000000000000000000000000000
#047380:000000000000135353230000000000000000000000000000
#047390:000000000000000000000000005300000053000000000000000000000000000000000000000000000000000000000000
#047370:00000000005300000000000000000000
#047380:0013
#0473b0:0000000000230000
#047350:000000000000000000000000000000000013000033000000
#047320:000000000000000000000000000000000000000000000023
#0473b1:000000000013
#047381:000000000000000000000000000000000000000000000023
#048351:000000000000000000130023000000000000000000000000
#0483b1:000000000000000000000000000000130023000000000000
#048350:000000000000000000000000000000000013000000000000
#048320:000000000023
#048320:0000000000000013
#049350:26
#049380:00160000
#0493b0:00000023
#049321:00160023
#0503b1:000000000000000000000013000000000000000000000000
#050371:000000000000002300000000
#050371:0000000000130000
#0503b1:000000000023
#0513b1:13
#051371:0023000000000000
#051320:0013000000000000
#051360:00230000
#051360:000000000000000000000000000000000000000000000013
#052320:00230000
#052370:000000000000000000000013000000000000000000000000
#0523b0:00000023
#053380:000000000000000000000013000000000000000000000000
#0533b0:000000000000002300000000
#053350:00000013
#053320:0000000000000023
#054320:000000000000000000000013000023000000000000000000
#055320:000000000000000000000000000000000000000000000014
#056360:00240000
#056350:000000000000000000130033000000000000000000000000
#056320:000000000000002300000000
#056381:000000000000000000000013000000000000000000000000
#0563b1:000000000000002300000000
#0563b1:0000000000000013
#0573b1:33
#057381:00230000
#056320:0000000000000013
#057320:33
#057350:00230000
#0079b0:000000000013000000000000000000000000000000000000
#007970:000000000000000000000000000000000000000000000000000000000000000000000000000000000000000000000000000000000000000000000000000000000000000000000000000000000000000000000000000000000000000000000000000000000000000000000000000000000000000000000000000000000000000000000000000000000000000000000000000000000000000000000000000000000000000000000000000000000000000000000000000000000000000000000000000000000000000000000000000000000000000000000000000000000000000000000000000000000000000000000000000000000000000000000000000000000000000000000000000000000000000000000000000000000000000000000000000000000000000000000000000000000000000000000000000000000000000000000000000000000000000000000000000000000000000000000000000000000000000000000000000000000000000000000000000000000000000000000000000000000000000000000000000000000000000000000000000000000000000000000000000000000000000000000000000000000000000000000000000000000000000000000000000000000000000000000000000000000000000000000000000000000000000000000000000000000000000000000000000000000000000000000000000000000000000000000000000000000000000000000000000000000000000000000000000000000000000000000000000000000000000000000000000000000000000000000000000000000000000000000000000000000000000000000000000000000000000000000000000000000000000000000000000000000000000000000000000000000000000000000000000000000000000000000000000000000000000000000000000000000000000000000000000000000000000000000000000000000000000000000053230000000000000000000000000000000000000000000000000000000000000000000000000000000000000000000000000000000000000000000000000000000000000000000000000000000000000000000000000000000000000000000000000000000000000000000000000000000000000000000000000000000000000000000000000000000000000000000000000000000000000000000000000000000000000000000000000000000000000000000000000000000000000000000000000000000000000000000000000000000000000000000000000000000000000000000000000000000000000000000000000000000000000000000000000000000000000000000000000000000000000000000000000000000000000000000000000000000000000000000000000000000000000000000000000000000000000000000000000000000000000000000000000000000000000000000000000000000000000000000000000000000000000000000000000000000000000000000000000000000000000000000000000000000000000000000000000000000000000000000000000000000000000000000000000000000000000000000000000000000000000000000000000000000000000000000000000000000000000000000000000000000000000000000000000000000000000000000000000000000000000000000000000000000000000000000000000000000000000000000000000000000000000000000000000000000000000000000000000000000000000000000000000000000000000000000000000000000000000000000000000000000000000000000000000000000000000000000000000000000000000000000000000000000000000000000000000000000000000000000000000000000000000000000000000000000000000000000000000000000000000000000000000000000000000000000000000000000000000000000000000000000000000000000000000000000000000000000000000000000000000000000000000000000000000000000000000000000000000000000000000000000000000000000000000000000000000000000000000000000000000000000000000000000000000000000000000000000000000000000000000000000000000000000000000000000000000000000000000000000000000000000000000000000000000000000000000000000000000000000000000000000000000000000000000000000000000000000000000000000000000000000000000000000000000000000000000000000000000000000000000000000000000000000000000000000000000000000000000000000000000000000000000000000000000000000000000000000000000000000000000000000000000000000000000000000000000000000000000000000000000000000000000000000000000000000000000000000000000000000000000000000000000000000000000000000000000000000000000000000000000000000000000000000000000000000000000000000000000000000000000000000000000000000000000000000000000000000000000000000000000000000000000000000000000000000000000000000000000000000000
#007920:000000000000000000000013000000000000000000000000
#007960:000000000000000000000000000000000000000000000000000000000000000000000000000000000000000000000000000000000000000000000000000000000000000000000000000000000000000000000000000000000000000000000000000000000000000000000000000000000000000000000000000000000000000000000000000000000000000000000000000000000000000000000000000000000000000000000000000000000000000000000000000000000000000000000000000000000000000000000000000000000000000000000000000000000000000000000000000000000000000000000000000000000000000000000000000000000000000000000000000000000000000000000000000000000000000000000000000000000000000000000000000000000000000000000000000000000000000000000000000000000000000000000000000000000000000000000000000000000000000000000000000000000000000000000000000000000000000000000000000000000000000000000000000000000000000000000000000000000000000000000000000000000000000000000000000000000000000000000000000000000000000000000000000000000000000000000000000000000000000000000000000000000000000000000000000000000000000000000000000000000000000000000000000000000000000000000000000000000000000000000000000000000000000000000000000000000000000000000000000000000000000000000000000000000000000000000000000000000000000000000000000000000000000000000000000000000000000000000000000000000000000000000000000000000000000000000000000000000000000000000000000000000000000000000000000000000000000000000000000000000000000000000000000000000000000000000000000000000000000000000000000000000000000000000000000000000000000000000000000000000000000000000000000000000000000000000000000000000000000000000000000000000000000000000000000000000000000000000000000000000000000000000000000000000000000000000000000000000000000000000000000000000000000000000000000000000000000000000000000000000000000000000000000000000000000000000000000000000000000000000000000000000000000000000000000000000000000000000000000000000000000000000000000000000000000000000000000000000000000000000000000000000000000000000000000000000000000000000000000000000000000000000000000000000000000000000000000000000000000000000000000000000000000000000000000000000000000000000000000000000000000000000000000000000000000000000000000000000000000000000000000000000000000000000000000000000000000000000000000000000000000000000000000000000000000000000000000000000000000000000000000000000000000000000000000000000000000000000000000000000000000000000000000000000000000000000000000000000000000000000053230000000000000000000000000000000000000000000000000000000000000000000000000000000000000000000000000000000000000000000000000000000000000000000000000000000000000000000000000000000000000000000000000000000000000000000000000000000000000000000000000000000000000000000000000000000000000000000000000000000000000000000000000000000000000000000000000000000000000000000000000000000000000000000000000000000000000000000000000000000000000000000000000000000000000000000000000000000000000000000000000000000000000000000000000000000000000000000000000000000000000000000000000000000000000000000000000000000000000000000000000000000000000000000000000000000000000000000000000000000000000000000000000000000000000000000000000000000000000000000000000000000000000000000000000000000000000000000000000000000000000000000000000000000000000000000000000000000000000000000000000000000000000000000000000000000000000000000000000000000000000000000000000000000000000000000000000000000000000000000000000000000000000000000000000000000000000000000000000000000000000000000000000000000000000000000000000000000000000000000000000000000000000000000000000000000000000000000000000000000000000000000000000000000000000000000000000000000000000000000000000000000000000000000000000000000000000000000000000000000000000000000000000000000000000000000000000000000000000000000000000000000000000000000000000000000000000000000000000000000000000000000000000000000000000000000000000000000000000000000000
#009950:000000000000001300000000
#009930:0000000000000000000000000000000000000023000000000000000000000000
#009980:000000000013
#0099a0:0000000000000000000000000000000000000000000000000000002300000000
#054920:000000000000001300000000
#054960:0000000000230000
