This file was generated by Ched 2.7.0.0.
#TITLE ""
#ARTIST ""
#DESIGNER ""
#DIFFICULTY 0
#PLAYLEVEL
#SONGID ""
#WAVE ""
#WAVEOFFSET 0
#JACKET ""
#REQUEST "ticks_per_beat 480"
#00002: 4
#BPM01: 112
#00008: 01
#TIL00: ""
#VOLUME: ""
#HISPEED 00
#MEASUREHS 00
#01015:0000130000000013
#01018:000026000000000000130000000000000000130000000000
#01012:0013
#0011b:13
#00112:13
#00118:00130013
#00115:0013
#00612:1300000000000013
#0061b:0000001300000000
#00615:00131300
#00618:0013000000001300
#00512:2300001300000000
#00518:0000130013000013
#00515:0013000000001300
#0051b:23
#05318:00130013
#05315:2300001300000013
#05312:0000000000130000
#0531b:0013
#05115:00130000
#05118:000000130000000000000000000000000000000000000013
#05112:13
#0521b:0000000000000013
#05215:000000000000000000000013000000000000000000000000
#0111b:13
#01112:000000130000000000000000000026000000000026000000
#01118:000000000000130000000026000000000026000000000026
#01115:0000001300000000
#01815:001300000000130000130000
#01818:000000130000000000000000000000000013000000130033
#01812:00130000
#0181b:0000001300000000
#01518:00001313
#01515:0000000000130000
#03018:00000013
#03012:000000000000000000000013000000000000000000000000
#03015:000013333333333333333300000000000000000000130000
#0311b:130000000000000000333333000000000000000000000000
#03112:0013000000000000
#03118:00130000
#0311a:003300
#03119:000000000000003300000000000000000000000000000000
#02815:0000000000000013
#0281b:000013333333330000000000000000000000000000000000
#02818:000000000000003333333333130033000000000000000000
#03312:00130000
#03315:0013
#03318:00000013
#0331f:11
#0341b:13
#03418:00130000
#03415:0013
#03412:00000013
#02218:000013000000000000000000130000000000000000130000
#02215:0013000000001300
#0221b:00130000
#02212:0000001300000000
#0021b:13
#00212:13
#00215:00130013
#00218:0013
#0031b:13
#00312:13000013
#00318:00130000
#00315:0013
#00415:13
#00418:00130000
#0041b:0023
#01418:0000130000000013
#01415:0000001300001300
#0141b:0013
#01412:002600000000000000000000
#01915:00130000
#01918:000000000000000000130000000000000013000000000000
#01912:0013
#02015:0013000000000000
#0201b:000000000000000000000013000000000000000000000000
#02018:001300000000000000000000
#02316:000000130000001300000013000000000000000000000000000000000000000000000000000000000000000000000000
#02315:131313131313000000000000000000000000000000000000
#02314:001300000013000000130000000000000000000000000000000000000000000000000000000000000000000000000000
#02318:0000001300000000
#02312:000000000000000000000000140000340034000034000000
#0231a:000000000000000000000000140000340034000034000000
#02310:41
#0241b:0000130000000013
#02415:000000000000000000000000000013000000000000130000
#02418:000000000000000033330000000000000013000000000000
#02512:230000000000000000000000000000000000000000000013
#02518:23
#02615:0000130000000013
#02618:000000000013000000000013000000000000000000000000
#02718:000000000000000000000000000000230000000000000013
#02715:00000023
#02912:000000000000000000000000000000000000000000000013
#02918:23
#02910:41
#0351b:13
#03518:00130000
#03515:0013
#03512:00000013
#03615:13
#03618:00130000
#03612:000000000000000000000000000016140000000000000000
#0361b:00000000000000000013000000000000
#03619:0000000000150000
#0471a:000000000000000000000000140000340034000034000000
#04712:000000000000000000000000140000340034000034000000
#04715:0000001300000000
#04719:001300000013000000130000000000000000000000000000000000000000000000000000000000000000000000000000
#04718:131313131313000000000000000000000000000000000000
#04717:000000130000001300000013000000000000000000000000000000000000000000000000000000000000000000000000
#04812:0000130000000013
#04818:000000000000000000000000000013000000000000130000
#04815:000000000000000033330000000000000013000000000000
#04615:000013000000000000000000130000000000000000130000
#0461b:0000001300000000
#04612:00130000
#04618:0013000000001300
#04412:000000000000000000000013000000000000000000000000
#04418:0013000000000000
#04415:001300000000000000000000
#04315:000000000000000000130000000000000013000000000000
#0431b:0013
#04318:00130000
#04215:000000130000000000000000000000000013000000130033
#04218:001300000000130000130000
#04212:0000001300000000
#0421b:00130000
#04210:41
#03715:1300001300000013
#03718:00130000
#03712:00001313
#0371b:0023000000230000
#03818:13130013
#03812:0013
#03815:0000001300000013
#0381b:0023000000230000
#03918:1300001300000013
#03915:00130000
#0391b:00001313
#03912:0023000000230000
#04015:13130000
#04018:0000001300000000
#04012:0023000000000000
#04918:00000013
#0491b:23
#04915:23
#04910:41
#05018:0000000000130000
#05415:0000000000000013
#0541b:23
#05418:000033000000330033000033000063000000000000000000
#0541a:0000000000630000
#05419:000000000000000000000000000000000000000000000000000000000063000000000000000000000000000000000000
#05515:000000000000130000000000000000000013000000000013
#05512:130000000000000000130000000000000000000013000000
#05518:0013000013000000
#0551b:13
#05715:13
#05718:13
#05712:00530000
#0571b:00530000
#0561b:000000000000000000000013000000000013000000000000
#05618:000000000000001300000000
#00815:1300001300000000
#0081b:0013000000000000
#00818:0000130000000013
#00812:0013
#00715:0013000000001300
#0071b:13
#00718:0000000000000013
#00912:000000000000000000130000000000000000000000000026
#0091b:00130000
#00915:23
#00910:41
#01212:00130000
#01215:0013
#01218:0000001300000000
#0131b:0000001300000000
#01312:00130000
#01318:230000000000000000000000000000000000000000000026
#01618:00002323
#01615:0000000000230000
#04518:230000000000000000000000000000000000000033330000
#04515:000000000000000033330033000000000000000000000000
#04115:230000000000000000000000000000000000000033330000
#0411f:21
#04118:000000000000000033330033000000000000000000000000
#02115:230000000000000000000000000000000000000033330000
#02118:000000000000000033330033000000000000000000000000
#01715:000000000000000033330033000000000000000000000000
#01718:000000000000000000000000000000000000000033330000
#01710:41
#05355:13
#05158:000000000000000000000000000000000000000000000053
#0115b:13
#01158:000000000000000000000000000000000000000000000056
#01552:00130000
#01555:000000000000000000000000000000000000000000000013
#0155b:00130000
#02552:130000000000000000000000000000000000000000000053
#02558:13
#02958:13
#02952:000000000000000000000000000000000000000000000063
#0335b:13
#0045b:00000013
#00655:0063
#00558:0053
#01052:0013
#0125b:0013000000000000
#01255:0063
#0145b:0013
#01952:000000000000000000000000130000000000000000000013
#01755:000000000000001300000000
#01758:130000000000000000000000000000000000000000000013
#01858:0000000000000053
#01855:0013
#02058:0000000000130000
#0205b:000000000000000000000063000000000000000000000000
#02258:0013
#02158:000000000000001300000000
#02155:130000000000000000000000000000000000000000000013
#02356:000000230000002300000023000000000000000000000000000000000000000000000000000000000000000000000000
#02355:635363536353000000000000000000000000000000000000
#02354:002300000023000000230000000000000000000000000000000000000000000000000000000000000000000000000000
#02352:000000000000000000000000640000000000000000000013
#0235b:000000000000000000000000000000000000000000000013
#0235a:0054
#0245b:0000630000000063
#02458:000000000000000000000013000000000053000000000000
#02455:0000000000000063
#02655:001300000000000000000000
#02658:000000000000000000000053000000000000000000000000
#0285b:006300000000000000130000
#02858:0053
#02758:000000000000000000000000000000000000000000000053
#03052:000000000000000000000063000000000000000000000000
#03055:005300000000000000000000
#03158:00530000
#0315b:0013
#03152:00000013
#03258:13
#03255:00130000
#03652:000000000000000000000000000066240000160000000000
#0365b:00000000000000000063000013000000
#03659:0000000000250000
#0475a:0054
#04752:0064
#04758:536353635363000000000000000000000000000000000013
#04755:000000000000000000000000000000000000000000000013
#04759:002300000023000000230000000000000000000000000000000000000000000000000000000000000000000000000000
#04757:000000230000002300000023000000000000000000000000000000000000000000000000000000000000000000000000
#04852:0000530000000053
#04858:0000000000000053
#04855:000000000000000000000013000000000063000000000000
#0495b:13
#04955:13
#04558:130000000000000000000000000000000000000000000013
#04555:000000000000001300000000
#04455:0000000000130000
#04452:000000000000000000000053000000000000000000000000
#0435b:000000000000000000000000130000000000000000000013
#04155:130000000000000000000000000000000000000000000013
#04158:000000000000001300000000
#04655:0013
#04258:0013
#04255:0000000000000063
#0405b:00000013
#05058:0000000000530000
#05055:000000000000000000000013000000000000000000000000
#05255:000000000000000000000063000000000000000000000000
#05555:000000000000000000000000000000000063000000000063
#05552:000000000053
#05755:63
#05758:53
#0565b:000000000000000000000063000000000063000000000000
#05658:000000000000005300000000
#00852:0013
#00955:13
#00958:00000013
#01358:13
#01355:00000013
#0043b0:00001323
#005380:0013
#0053b0:0000000000230000
#006350:0013
#006320:0000000000230000
#007380:0000130000230000
#007390:000000000000003300000000000033000000000000000000
#0073a0:000000000000000033000000003300000000000000000000
#0073b0:0000003333000000
#009380:00001323
#011380:000000000000000000000000000000000000000000000016
#0123b0:0023000000000000
#012350:0013
#012320:00000023
#013350:00001323
#015320:13230000
#0153b1:13230000
#015351:000000000000000000000000000000000000000000130023
#016381:00000013
#017381:23
#017321:00130000
#017351:000000000000000033330033000023000000000000000000
#0173b1:00000013
#017381:000000000000000000000000000000000000000033330023
#018381:000000000000000000000000000000000000000000130033
#0193b1:0023000000000000
#019351:00000013
#019321:000000000000000000000000000000000000000000330023
#0203b1:000000000000130000330033000000000000000000000000
#020381:0000000000230000
#020351:00000013
#021351:23
#0213b1:00130000
#021381:000000000000000033330033000023000000000000000000
#021321:00000013
#021351:000000000000000000000000000000000000000033330023
#023351:135353535353230000000000000000000000000000000000
#023341:005300000053000000530000000000000000000000000000000000000000000000000000000000000000000000000000
#023361:000000530000005300000053000000000000000000000000000000000000000000000000000000000000000000000000
#023321:000000000000000000000000140000340034000034000023
#0233a0:000000000000000000000000140000340034000034000000
#0233b0:000000000000000000000000000000000000000000000023
#0243b0:00130000
#024380:000000000000000033330023000000000000000000000000
#024380:000000000000000000000000000000130033000000000000
#0243b0:0000000000000033
#025380:23
#024351:0000000000000013
#025321:23
#025381:000000000000135353535353535353230000000000000000
#025391:000000000000000000000000005300530053005300530053005300530053000000000000000000000000000000000000
#025351:00000013
#025321:000000000000000000000000000000000000000000330033
#026351:002300000000000000000000
#026381:000000000000000000000013000000000000000000000000
#0263b1:00000023
#027381:135353535353230000000000000000000000000000000000
#027391:005300530053005300530053000000000000000000000000000000000000000000000000000000000000000000000000
#027350:000000000000135353535353230000000000000000000000
#027340:000000000000000000000000005300530053005300530053000000000000000000000000000000000000000000000000
#027380:000000000000000000000000000000000000000000130033
#0283b0:000033333333330000000000000000000000230000000000
#028380:000000000000003333333333330033000000000000000000
#029350:0000130000333300
#029320:000000000000000000330000330000000000000000330033
#030350:000033333333333333333300000000230000000000000000
#030320:000000000000000000000033000000000000000000000000
#031380:00130000
#031390:000000000000003300000000000000000000000000000000
#0313a0:003300
#0313b0:000000000000000000333333230000000000000000000000
#031320:000000000000000000000000000000135353230000000000
#031330:000000000000000000000000000000000000000000000000000000000000005300530053000000000000000000000000
#031380:000000000000000000000000000000000000000000135353
#031390:000000000000000000000000000000000000000000000000000000000000000000000000000000000000005300530053
#032380:23
#032350:000000135353230000000000000000000000000000000000
#032340:000000000000005300530053000000000000000000000000000000000000000000000000000000000000000000000000
#0323b0:000000000000000000135353535353535353535353535353
#0323a0:000000000000000000000000000000000000005300530053005300530053005300530053005300530053005300530053
#0333b0:23
#036320:000000000000000000000000160056545600260000000000
#0363b1:00000000000000001353005323000000
#036391:0000000000550000
#0403b1:00001323
#0413b1:00130000
#041381:000000000000000033330033000023000000000000000000
#041321:00000013
#041351:000000000000000000000000000000000000000033330023
#042351:000000000000000000000000000000000000000000130033
#043321:0023000000000000
#043381:00000013
#0433b1:000000000000000000000000000000000000000000330023
#044321:000000000000130000330033000000000000000000000000
#044351:0000000000230000
#044381:00000013
#045381:23
#045321:00130000
#045351:000000000000000033330033000023000000000000000000
#0453b1:00000013
#045381:000000000000000000000000000000000000000033330023
#047381:135353535353230000000000000000000000000000000000
#047391:005300000053000000530000000000000000000000000000000000000000000000000000000000000000000000000000
#047371:000000530000005300000053000000000000000000000000000000000000000000000000000000000000000000000000
#0473a1:000000000000000000000000140000340034000034000000
#047381:000000000000000000000000000000000000000000000023
#047320:000000000000000000000000140000340034000034000000
#047350:000000000000000000000000000000000000000000000023
#048320:00130000
#048350:000000000000000033330023000000000000000000000000
#048350:000000000000000000000000000000130033000000000000
#048320:0000000000000033
#049350:23
#048381:0000000000000013
#0493b1:23
#0493b1:000000000000135353535353535353230000000000000000
#0493a1:000000000000000000000000005300530053005300530053005300530053000000000000000000000000000000000000
#049320:000000000000135353535353535353230000000000000000
#049330:000000000000000000000000005300530053005300530053005300530053000000000000000000000000000000000000
#049350:000000000000000000000000000000000000000000130033
#050320:003300003300000000000000
#050350:000000000033000000000023000000000000000000000000
#050380:0000000000130000
#0503b0:0000000000000023
#051380:000000000000000000130033000000000033000000000033
#0513b0:000000000000003300003300
#0523b0:00230000
#052350:000000000000000000130033000000000000000000000000
#052320:00000023
#0543b0:13
#054380:000033000000330033000033000023000000000000000000
#055350:000000000000000000000000000000130033000000000033
#055320:000000000033
#056320:00230000
#0563b0:000000000000000000130033000000000033000000000000
#056380:000000000000000000000000000033000000000000330000
#057380:33
#0573b0:00230000
#056351:0000000000000013
#057351:33
#057321:00230000
#054980:000000000000001300000000
#0549a0:0000000000230000
