This file was generated by Ched 2.7.0.0.
#TITLE ""
#ARTIST ""
#DESIGNER ""
#DIFFICULTY 0
#PLAYLEVEL
#SONGID ""
#WAVE ""
#WAVEOFFSET 0
#JACKET ""
#REQUEST "ticks_per_beat 480"
#00002: 4
#BPM01: 210
#00008: 01
#TIL00: ""
#VOLUME: ""
#HISPEED 00
#MEASUREHS 00
#10014:14
#10018:0014
#09414:14
#02112:0016
#02118:26
#02110:41
#02218:16
#02312:16
#02318:0016
#02412:16
#02518:16
#02512:0016
#02618:16
#02612:0016
#02918:0016
#02912:26
#03012:16
#03118:16
#03112:0016
#03218:16
#03312:16
#03318:0016
#03310:41
#03412:16
#03418:0016
#03718:1616
#03818:1616
#03912:1616
#04012:1616
#04118:1616
#04212:1616
#05714:14
#05818:14
#05914:14
#06018:14
#06514:14
#06618:14
#06714:14
#06818:14
#06918:0016
#06912:26
#0691f:21
#07118:16
#07112:0016
#07312:16
#07318:0016
#07412:16
#07418:0016
#07712:2616
#07818:1616
#07912:16
#07918:0016
#08118:2616
#08110:41
#08212:1616
#08512:2616
#08612:1616
#08718:1616
#08818:1616
#08912:1616
#09018:1616
#09318:14
#09614:14
#09518:14
#0971a:14
#09712:0014
#09812:0014
#0981a:14
#10114:14
#0531f:11
#07010:41
#04510:41
#09110:41
#005380:14
#006380:34
#007380:34
#008380:24
#009340:14
#010340:34
#011340:34
#012340:24
#0133a0:14
#0143a0:34
#0153a0:34
#0163a0:24
#017320:14
#018320:34
#019320:34
#020320:24
#027380:1636
#028380:3626
#035320:1636
#036320:3626
#043380:16
#0443a0:24
#045340:14
#048320:24
#049380:14
#0523a0:24
#053340:14
#054340:24
#055380:14
#056380:24
#061320:14
#062320:24
#0633a0:14
#0643a0:24
#070320:1626
#072380:1626
#075320:1626
#076380:1626
#080320:1626
#083380:16
#084380:0026
#091320:16
#092320:26
#0993a0:1424
