This file was generated by Ched 2.7.0.0.
#TITLE ""
#ARTIST ""
#DESIGNER ""
#DIFFICULTY 0
#PLAYLEVEL
#SONGID ""
#WAVE ""
#WAVEOFFSET 0
#JACKET ""
#REQUEST "ticks_per_beat 480"
#00002: 4
#BPM01: 210
#00008: 01
#TIL00: ""
#VOLUME: ""
#HISPEED 00
#MEASUREHS 00
#0531f:11
#0531a:14
#05316:0014
#05312:2424
#04318:00000000000014000013001300000000
#04317:0014000000000000
#04315:0000000013130000
#04316:00000014
#04314:00140000
#0431a:14
#04312:24
#08215:0013000013131300
#08218:00000000130000000013001300000000
#08212:1300000000000014
#0821b:1300001300000000
#0821a:0000000000000024
#07518:00001300000013000000000000000013
#07515:00000000130000130000000000001300
#0751b:00001313
#07512:2600000000130000
#0751a:24
#05215:00000000000000130000000013000000
#05218:0000001300000013
#05212:14140000
#0521a:0014000014000000
#06716:00002414
#06712:14
#0671a:24
#06516:00002414
#0651a:14
#06512:24
#04818:14001313
#04812:00130024
#04814:14
#0481a:00240000
#06912:1300000000000013
#06914:0000000000130000
#06916:0000001300000000
#0691f:21
#0691a:00242424
#06918:26
#0711b:1300000000000013
#07119:0000000000130000
#07117:0000001300000000
#07112:26242424
#07016:0000001300000000
#07014:0013000000000000
#0701a:24242424
#07010:41
#07217:0000001300000000
#07219:0013000000000000
#07212:24242424
#07815:0000001300000013
#07812:00241324
#07818:13130013
#0781b:0013000000130000
#08018:0000001300000013
#0801b:0013
#08015:13130013
#08012:0013000000130000
#0801a:00240024
#08316:1400001400000000
#0831a:0024140000140000
#08314:0000000000000014
#08312:0000140024140000
#08318:0000000000000024
#09214:00000013
#09216:0000000000000013
#09219:25000013
#09217:000000000000000000000000000000000000000000000000000000000000000000000000000000000000000000000000000000000000000000000000000000000000000000000000000000000000000000000000000000000000000000000000000000000000000000000000000000000000000000000000000000000000000000000000000000000000000000000000000000000000000000000000000000000000000000000000000000000000000000000000000000000000000000000000000000000000000000000000000000000000000000000000000000000000000000000000000000000000000000000000000000000000000000000000000000000000000000000000000000000000000000000000000000000000000000000000000000000000000000000000000000000000000000000000000000000000000000000000000000000000000000000000000000000000000000000000000000000000000000000000000000000000000000000000000000000000000000000000000000000000000000000000000000000000000000000000000000000000000000000000000000000000000000000000000000000000000000000000000000000000000000000000000000000000000000000000000000000000000000000000000000000000000000000000000000000000000000000000000000000000000000000000000000000000000000000000000000000000000000000000000000000000000000000000000000000000000000000000000000000000000000000000000000000000000000000000000000000000000000000000000000000000000000000000000000000000000000000000000000000000000000000000000000000000000000000000000000000000000000000000000000000000000000000000000000000000000000000000000000000000000000000000000000000000000000000000000000000000000000000000000000000000000000000000000000000000000000000000000000000000000000000000000000000000000000000000000000000000000000000000000000000000000000000000000000000000000000000000000000000000000000000000000000000000000000000000000000000000000000000000000000000000000000000000000000000000000000000000000000000000000000000000000000000000000000000000000000000000000000000000000000000000000000000000000000000000000000000000000000000000000000000000000000000000000000000000000000000000000000000000000000000000000000000000000000000000000000000000000000000000000000000000000000000000000000000000000000000000000000000000000000000000000000000000000000000000000000000000000000000000000000000000000000000000000000000000000000000000000000000000000000000000000000000000000000000000000000000000000000000000000000000000000000000000000000000000000000000000000000000000000000000000000000000000000000000000000000000000000000000000000000000000000000000000000000000000000000000000000000000000000000000000000000000000000000000000000000000000000000000000000000000000000000000000000000000000000000000000000000000000000000000000000000000000000000000000000000000000000000000000000000000000000000000000000000000000000000000000000000000000000000000000000000000000000000000000000000000000000000000000000000000000000000000000000000000000000000000000000000000000000000000000000000000000000000000000000000000000000000000000000000000000000000000000000000000000000000000000000000000000000000000000000000000000000000000000000000000000000000000000000000000000000000000000000000000000000000000000000000000000000000000000000000000000000000000000000000000000000000000000000000000000000000000000000000000000000000000000000000000000000000000000000000000000000000000000000000000000000000000000000000000000000000000000000000000000000000000000000000000000000000000000000000000000000000000000000000000000000000000000000000000000000000000000000000000000000000000000000000000000001300000000000000000000000000000000000000000000000000000000000000000000000000000000000000000000000000000000000000000000000000000000000000000000000000000000000000000000000000000000000000000000000000000000000000000000000000000000000000000000000000000000000000000000000000000000000000000000000000000000000000000000000000000000000000000000000000000000000000000000000000000000000000000000000000000000000000000000000000000000000000000000000000000000000000000000000000000000000000000000
#0921a:0013
#0921b:00130000
#09213:0013
#09212:25130000
#08512:13000000000000000000000000170000
#08516:0013000013000000
#08513:0000000000000000000000000000000000000000000000000000000000150000
#08514:0000001300001300
#08519:25252525
#08818:1300001300000000
#08815:0019000000000000
#0881b:00000000000000000013000000000000
#08812:25252525
#08612:0000001300001300
#08616:0000000000000013
#08614:0013000000000000
#08619:25252525
#0871b:13000013
#08717:0013000013000000
#08719:0000001300000000
#08712:25252525
#09012:25152515
#09015:0000000000000015
#09019:15251525
#09016:0000001300150000
#09017:0013000000000000
#09312:2500002400001400
#09316:0000000014000014
#0931a:0000002400002400
#09319:25
#0941a:1400001400000000
#09416:0014000000000000
#09412:0000141400000000
#09415:00000013
#09418:0000000000130013
#09512:24261400
#09516:0000000014140000
#0951a:24140000
#09518:00000026
#0961a:1400001400000000
#09616:0014140000140000
#09612:1400002600001400
#09618:00000026
#0971a:24140000
#09712:1414
#09715:0000000000140014
#09718:00000014
#09812:14001415
#09816:000000000000000000000000000034143400000035153500
#0981a:1414
#09817:0014001400000000
#09814:00140000
#08418:0013
#08415:0000001300130000
#0841a:00240000
#08412:0024000000000000
#10016:0000001400140014
#10013:00000015
#10018:1313230014002500
#10015:00130013000000000000000000000000
#10014:0024
#09915:00000000000000000000003300130013
#09918:26000000000000330000000013001300
#09912:26130000
#09914:0000000000330000
#09913:00000000000000000033000000000000
#09919:0000003300000000
#0991a:00000000003300000000000000000000
#09112:2500240000140000
#0911a:0000001400002400
#09116:0024
#09119:25
#09110:41
#08916:0000001300000013
#08912:25152515
#08917:0000000000130000
#08919:25251525
#08112:13000013
#08119:0000000000000013
#08114:0013000000130000
#0811b:00130000
#08116:00240024
#08118:26
#08110:41
#07912:2600001300001300
#07915:0000130000130000
#07918:0013000013000013
#0791b:13
#0791a:00240024
#0771b:0000001300001300
#07718:2600130000130000
#07715:0013000013000013
#07712:13240024
#07618:0000130000130013
#07615:0013000000001300
#0761b:0000001300000000
#07612:1300001300000000
#07416:00241324
#07412:24130013
#07419:0000000000000013
#0741b:13
#07414:0000000000130000
#0741a:0024
#07312:1300001300000000
#07315:0013000000000000
#07318:2600240000000013
#0731b:0000000000130000
#07316:0024
#07314:00000024
#06818:14140000
#06814:0014000000000000
#0681a:0000002400000000
#06812:0000002400000000
#06616:14
#06612:00140000
#06614:00000014
#0661a:0024000024000000
#0641a:1414
#06412:00140000
#06414:00000014
#06416:0024000024000000
#06212:1414
#0621a:00140000
#06218:00000014
#06216:0024000024000000
#06316:1424
#06312:0014
#0631a:24
#06018:00000014
#0601a:14
#06016:00142400
#06012:0024000000000000
#06116:1424
#0611a:0014
#06112:24
#05916:1400001400000000
#0591a:24
#05912:0024
#05716:1400001400000000
#05712:24
#0571a:0024
#05812:14
#05816:00142400
#05814:00000014
#0581a:0024000000000000
#05512:14
#05516:0014
#0551a:2424
#0561a:1424
#05618:00000014
#05616:0014
#05614:00140000
#05617:0024000000000000
#05412:1424
#05414:00000014
#05416:0014
#05418:00140000
#05415:0024000000000000
#05114:0000001500000015000000150000001500000015000000150000000000000000
#05113:15151515151515151515151500000000
#05112:0015000000150000001500000015000000150000001500000000000000000000
#0511a:00240024
#05014:0000001500000015000000150000001500000015000000150000001500000015
#05013:15151515151515151515151515151515
#05012:0015000000150000001500000015000000150000001500000015000000150000
#0501a:00240024
#04914:0000001500000015000000150000001500000015000000150000001500000015
#04913:15151515151515151515151515151515
#04912:0015000000150000001500000015000000150000001500000015000000150000
#0491a:24240024
#04717:0000001500000015000000150000001500000015000000150000000000000000
#04718:15151515151515151515151500000000
#04719:0015000000150000001500000015000000150000001500000000000000000000
#04712:00240024
#04617:0000001500000015000000150000001500000015000000150000001500000015
#04618:15151515151515151515151515151515
#04619:0015000000150000001500000015000000150000001500000015000000150000
#04612:00240024
#04517:0000001500000015000000150000001500000015000000150000001500000015
#04518:15151515151515151515151515151515
#04519:0015000000150000001500000015000000150000001500000015000000150000
#04512:24240024
#04510:41
#04416:1414001414001400
#0441a:24000024
#04412:0000002400000000
#04212:0000001400000000
#04214:0014000000000024
#04218:00000024
#0421a:24242400
#04116:0000000000000014
#04118:0000000000140000
#0411a:2400001400000000
#04112:24242424
#04012:0000001400000000
#04016:14240000
#0401a:24000024
#04018:0024
#0391a:0000001400000000
#03916:14240000
#03912:24000024
#03914:0024
#03812:0000000000140014
#03816:14
#0381a:24
#03817:00000024
#03818:0024
#03819:00240000
#03716:18
#03715:00000024
#03712:24
#03714:0024
#03713:00240000
#03515:00130000
#03512:13
#0351a:2400000000130000
#03516:0024
#03518:00240000
#03514:00000024
#03615:0013000000000000
#0361b:0000000000130000
#03618:00240000
#03614:00000024
#0331b:13
#03318:0000130000130000
#03312:2413
#03314:00240024
#03310:41
#02718:0013000000002400
#0271b:13
#0271a:0000001300000000
#02713:0000000000130000
#02715:0000000000000013
#02712:24
#02716:0024
#02714:00240000
#02818:0013000000002400
#02815:0000000000000013
#02812:1300000000130000
#0281b:13
#02814:00240000
#03415:0000000000130000
#0341b:0013
#03418:00240024
#02914:0013
#02919:0000000000130000
#02917:0000001300000000
#0291b:13
#02915:0000000000000013
#02912:24240024
#03016:0000000000000013
#0301b:0013001300000000
#03017:00000000000000000013000000000000
#03018:13
#03012:00240024
#03116:13
#03112:0000001300000013
#03115:0013
#03118:0000000000130000
#0311a:24240024
#03216:0000001300000000
#03218:13
#03214:0013000000000000
#03212:00000000000000000013000000000000
#0321a:00240024
#0251b:0013
#02515:0013000000130000
#02512:1300001300000013
#02518:00240024
#0251a:24
#02615:13
#02612:0013
#02618:0013000000130000
#0261b:0000000000000013
#02614:00240024
#02212:0013001300000000
#02215:13
#02216:00000000000000000013000000000000
#02217:0000000000000013
#0221a:00240024
#02118:0000000000000013
#02112:13
#02116:0000001300000000
#02114:0000000000130000
#02119:0013
#0211a:24240024
#02110:41
#0241b:00000000000000000013000000000000
#02419:0013000000000000
#02415:13
#02417:0000001300000000
#02412:00240024
#02315:0000000000130000
#02318:0013
#0231b:0000001300000013
#02317:13
#02312:24240024
#01912:00130000
#0191b:00130000
#01918:13000023
#01915:0023
#0181b:00130013
#01712:00130013
#0161b:00130013
#0151b:00130013
#01412:00130013
#01312:00130013
#0121b:00130013
#01213:0033
#0111b:00130013
#01113:0033
#01012:00130013
#0101a:0033
#00912:00130013
#0091a:0033
#0081b:00130013
#0071b:00130013
#00612:00130013
#00512:00130013
#10118:26
#10112:26
#0201b:0023
#02012:0023
#02018:00230000
#02015:23
#09958:46
#09952:36
#0975a:14640000
#09752:54
#0825a:0000000000000044
#08252:0000000000000054
#10058:00000015
#10054:0014
#10158:46
#10152:36
#09352:35000054
#09359:45
#09356:0000000000000024
#09059:00456545
#09052:35003555
#09055:0000000000000025
#09056:0000000000250000
#08959:45450045
#08952:3535
#08852:35353535
#08858:6300005300000000
#08855:0029000000000000
#0885b:00000000000000000023000000000000
#08752:35353535
#0875b:63
#08757:0023000000000000
#08659:45454545
#08652:00000053
#08656:0000000000000023
#08559:45454545
#08552:53000000000000000000000000270000
#08556:0023000000000000
#08553:0000000000000000000000000000000000000000000000000000000000550000
#08554:00000053
#08158:46
#07952:36
#07552:36
#07152:36
#0715b:63
#0675a:14
#06756:00000064
#06752:54
#0635a:14
#06356:64
#06352:0024
#06552:14
#06556:00000054
#0655a:64
#06152:14
#06156:54
#0615a:0024
#0595a:14
#05956:6400005400000000
#0555a:14
#05552:54
#05556:0024
#05752:14
#05756:5400006400000000
#05352:14
#0535a:64
#05356:0024
#04352:14
#04356:00000014
#0495a:14
#04954:0000002500000025000000250000002500000025000000250000002500000025
#04953:65556555655565556555655565556555
#04952:0025000000250000002500000025000000250000002500000025000000250000
#04552:14
#04557:0000002500000025000000250000002500000025000000250000002500000025
#04558:55655565556555655565556555655565
#04559:0025000000250000002500000025000000250000002500000025000000250000
#0445a:14000014
#04452:0000001400000000
#04456:0064000054006400
#04152:14
#0415a:14
#0405a:14
#04052:0000002400000000
#04056:64
#0385a:14
#03856:64
#0355a:14
#02752:14
#02952:14
#0295b:63
#03352:14
#0315a:14
#03156:63
#02352:14
#02357:53
#0205b:0013
#02052:0013
#02058:00130000
#02055:13
#03952:14
#0395a:0000002400000000
#03956:54
#03752:14
#03756:58
#0255a:14
#07758:46
#09252:35
#09259:45000063
#09254:00000053
#09256:0000000000000023
#09257:000000000000000000000000000000000000000000000000000000000000000000000000000000000000000000000000000000000000000000000000000000000000000000000000000000000000000000000000000000000000000000000000000000000000000000000000000000000000000000000000000000000000000000000000000000000000000000000000000000000000000000000000000000000000000000000000000000000000000000000000000000000000000000000000000000000000000000000000000000000000000000000000000000000000000000000000000000000000000000000000000000000000000000000000000000000000000000000000000000000000000000000000000000000000000000000000000000000000000000000000000000000000000000000000000000000000000000000000000000000000000000000000000000000000000000000000000000000000000000000000000000000000000000000000000000000000000000000000000000000000000000000000000000000000000000000000000000000000000000000000000000000000000000000000000000000000000000000000000000000000000000000000000000000000000000000000000000000000000000000000000000000000000000000000000000000000000000000000000000000000000000000000000000000000000000000000000000000000000000000000000000000000000000000000000000000000000000000000000000000000000000000000000000000000000000000000000000000000000000000000000000000000000000000000000000000000000000000000000000000000000000000000000000000000000000000000000000000000000000000000000000000000000000000000000000000000000000000000000000000000000000000000000000000000000000000000000000000000000000000000000000000000000000000000000000000000000000000000000000000000000000000000000000000000000000000000000000000000000000000000000000000000000000000000000000000000000000000000000000000000000000000000000000000000000000000000000000000000000000000000000000000000000000000000000000000000000000000000000000000000000000000000000000000000000000000000000000000000000000000000000000000000000000000000000000000000000000000000000000000000000000000000000000000000000000000000000000000000000000000000000000000000000000000000000000000000000000000000000000000000000000000000000000000000000000000000000000000000000000000000000000000000000000000000000000000000000000000000000000000000000000000000000000000000000000000000000000000000000000000000000000000000000000000000000000000000000000000000000000000000000000000000000000000000000000000000000000000000000000000000000000000000000000000000000000000000000000000000000000000000000000000000000000000000000000000000000000000000000000000000000000000000000000000000000000000000000000000000000000000000000000000000000000000000000000000000000000000000000000000000000000000000000000000000000000000000000000000000000000000000000000000000000000000000000000000000000000000000000000000000000000000000000000000000000000000000000000000000000000000000000000000000000000000000000000000000000000000000000000000000000000000000000000000000000000000000000000000000000000000000000000000000000000000000000000000000000000000000000000000000000000000000000000000000000000000000000000000000000000000000000000000000000000000000000000000000000000000000000000000000000000000000000000000000000000000000000000000000000000000000000000000000000000000000000000000000000000000000000000000000000000000000000000000000000000000000000000000000000000000000000000000000000000000000000000000000000000000000000000000000000000000000000000000000000000000000000000000000000000000000000000000000000000000000000000000000000000000000000000000000002300000000000000000000000000000000000000000000000000000000000000000000000000000000000000000000000000000000000000000000000000000000000000000000000000000000000000000000000000000000000000000000000000000000000000000000000000000000000000000000000000000000000000000000000000000000000000000000000000000000000000000000000000000000000000000000000000000000000000000000000000000000000000000000000000000000000000000000000000000000000000000000000000000000000000000000000000000000000000000000
#09152:35
#09159:45
#09552:3454
#0955a:44
#09556:0000000000240000
#07358:46
#0215a:14
#02152:53
#06958:46
#06952:53
#04852:00230000
#04854:64
#04858:00000053
#07056:0000006300000000
#07257:0000005300000000
#07855:0000006300000000
#07852:0023
#08058:0000005300000000
#0805b:0023
#08356:2400002400000000
#0835a:00640000
#08352:00340000
#0945a:64
#09456:0024000000000000
#0965a:64
#09656:0024000000000000
#09852:00000055
#09856:0000000000240025
#0985a:0064
#06656:64
#06652:00240000
#0605a:64
#06056:00240000
#05852:54
#05856:00240000
#05252:14
#0525a:0014
#05154:0000002500000025000000250000002500000025000000250000000000000000
#05153:65556555655565556555655500000000
#05152:0025000000250000002500000025000000250000002500000000000000000000
#05054:0000002500000025000000250000002500000025000000250000002500000025
#05053:65556555655565556555655565556555
#05052:0025000000250000002500000025000000250000002500000025000000250000
#04757:0000002500000025000000250000002500000025000000250000000000000000
#04758:55655565556555655565556500000000
#04759:0025000000250000002500000025000000250000002500000000000000000000
#04657:0000002500000025000000250000002500000025000000250000002500000025
#04658:55655565556555655565556555655565
#04659:0025000000250000002500000025000000250000002500000025000000250000
#03256:0000006300000000
#03252:00000000000000000023000000000000
#0305b:0000006300000000
#03057:00000000000000000023000000000000
#02256:00000000000000000023000000000000
#02252:0000005300000000
#0245b:00000000000000000023000000000000
#02457:0000005300000000
#08455:0000000000130000
#0765b:0000001300000000
#07652:0000001300000000
#005380:1333
#006380:3333
#007380:23
#007351:1333
#008351:3333
#009351:23
#009380:13
#0093a0:0033
#0103b0:33
#0103a0:0033
#011380:23
#011351:13
#011331:0033
#012321:33
#012331:0033
#013351:23
#013380:13
#0133b0:0033
#014380:33
#0143b0:0033
#015380:23
#015351:13
#015321:0033
#016351:33
#016321:0033
#017351:23
#017380:13
#0173b0:0033
#018380:23
#018351:13
#018321:0033
#019351:23
#021321:13
#021361:00230000
#022321:0000001300002300
#022361:00000000000000000053000000000000
#023371:13
#0233b1:00230000
#024371:0000001300002300
#0243b1:00000000000000000053000000000000
#0263b1:00132300
#0283b1:0000001300230000
#0293b1:13
#029371:00230000
#0303b1:0000001300002300
#030371:00000000000000000053000000000000
#031361:13
#031321:00230000
#032361:0000001300002300
#032321:00000000000000000053000000000000
#0333b1:00000013
#0343b1:23
#034320:13230000
#035380:0000000000000013
#036380:0023000000000000
#036320:0000001300230000
#037360:18
#0383a0:24
#038361:14
#038321:0024
#039361:14
#0393a1:00240000
#0393a1:0000001400000000
#039361:00000024
#040361:14
#040321:00240000
#040321:0000001400000000
#040361:00000024
#044361:0014000000000000
#044321:0000002400000000
#044361:0014
#0443a1:00000024
#044360:00000014
#045320:24
#045381:15555555555555555555555555555555
#045391:0055000000550000005500000055000000550000005500000055000000550000
#045371:0000005500000055000000550000005500000055000000550000005500000055
#046381:55555555555555555555555555555555
#046391:0055000000550000005500000055000000550000005500000055000000550000
#046371:0000005500000055000000550000005500000055000000550000005500000055
#047381:55555555555555555555555525000000
#047391:0055000000550000005500000055000000550000005500000000000000000000
#047371:0000005500000055000000550000005500000055000000550000000000000000
#048341:14
#048321:00530000
#048351:0023
#048381:00000013
#0493a1:24
#049330:15555555555555555555555555555555
#049320:0055000000550000005500000055000000550000005500000055000000550000
#049340:0000005500000055000000550000005500000055000000550000005500000055
#050330:55555555555555555555555555555555
#050320:0055000000550000005500000055000000550000005500000055000000550000
#050340:0000005500000055000000550000005500000055000000550000005500000055
#051330:55555555555555555555555525000000
#051320:0055000000550000005500000055000000550000005500000000000000000000
#051340:0000005500000055000000550000005500000055000000550000000000000000
#0533a0:14
#053360:0054
#0543a0:24
#055320:14
#055360:0054
#056320:24
#057360:14
#0573a0:0000002400000000
#057361:0000001400000000
#057321:00000024
#0573a0:00000014
#0583a0:24
#058321:1424
#058361:00540000
#059361:14
#059321:0000002400000000
#059360:0000001400000000
#0593a0:00000024
#059321:00000014
#060321:24
#0603a0:1424
#060360:00540000
#061360:14
#0613a0:0054
#062360:24
#063360:14
#063320:0054
#064360:24
#0653a0:14
#065360:0000002400000000
#065321:0000001400002400
#065360:00000014
#0663a0:24
#066361:1424
#066321:00540000
#067321:14
#067361:0000002400000000
#0673a0:0000001400002400
#067361:00000014
#068321:24
#069321:13
#069361:00230000
#070361:0000001300000000
#070321:00000023
#0713b1:13
#071371:00230000
#072371:0000001300000000
#0723b1:00000023
#078351:0000001300230000
#078321:0053
#080381:0000001300230000
#0803b1:0053
#081391:0000001300230000
#082321:0000000000000014
#083361:54
#083321:0024000000000000
#0833a1:00142400
#083361:0000005400000000
#085321:13230000
#085361:0053000000000000
#085341:00000013
#085321:00000000000000000000000000570000
#085331:0000000000000000000000000000000000000000000000000000000000550000
#086341:23
#086321:00000013
#086361:0000000000000053
#087321:25
#0873b0:13230000
#087370:0053000000000000
#088380:13230000
#088350:0059000000000000
#088380:0000001300000000
#0883b0:00000000000000000053000000000000
#088370:00000023
#090390:00001525
#090360:0000000000550000
#090321:00000015
#090351:0000000000000055
#091321:25
#092341:00000013
#092361:0000000000000053
#093321:25
#092390:00000013
#092370:000000000000000000000000000000000000000000000000000000000000000000000000000000000000000000000000000000000000000000000000000000000000000000000000000000000000000000000000000000000000000000000000000000000000000000000000000000000000000000000000000000000000000000000000000000000000000000000000000000000000000000000000000000000000000000000000000000000000000000000000000000000000000000000000000000000000000000000000000000000000000000000000000000000000000000000000000000000000000000000000000000000000000000000000000000000000000000000000000000000000000000000000000000000000000000000000000000000000000000000000000000000000000000000000000000000000000000000000000000000000000000000000000000000000000000000000000000000000000000000000000000000000000000000000000000000000000000000000000000000000000000000000000000000000000000000000000000000000000000000000000000000000000000000000000000000000000000000000000000000000000000000000000000000000000000000000000000000000000000000000000000000000000000000000000000000000000000000000000000000000000000000000000000000000000000000000000000000000000000000000000000000000000000000000000000000000000000000000000000000000000000000000000000000000000000000000000000000000000000000000000000000000000000000000000000000000000000000000000000000000000000000000000000000000000000000000000000000000000000000000000000000000000000000000000000000000000000000000000000000000000000000000000000000000000000000000000000000000000000000000000000000000000000000000000000000000000000000000000000000000000000000000000000000000000000000000000000000000000000000000000000000000000000000000000000000000000000000000000000000000000000000000000000000000000000000000000000000000000000000000000000000000000000000000000000000000000000000000000000000000000000000000000000000000000000000000000000000000000000000000000000000000000000000000000000000000000000000000000000000000000000000000000000000000000000000000000000000000000000000000000000000000000000000000000000000000000000000000000000000000000000000000000000000000000000000000000000000000000000000000000000000000000000000000000000000000000000000000000000000000000000000000000000000000000000000000000000000000000000000000000000000000000000000000000000000000000000000000000000000000000000000000000000000000000000000000000000000000000000000000000000000000000000000000000000000000000000000000000000000000000000000000000000000000000000000000000000000000000000000000000000000000000000000000000000000000000000000000000000000000000000000000000000000000000000000000000000000000000000000000000000000000000000000000000000000000000000000000000000000000000000000000000000000000000000000000000000000000000000000000000000000000000000000000000000000000000000000000000000000000000000000000000000000000000000000000000000000000000000000000000000000000000000000000000000000000000000000000000000000000000000000000000000000000000000000000000000000000000000000000000000000000000000000000000000000000000000000000000000000000000000000000000000000000000000000000000000000000000000000000000000000000000000000000000000000000000000000000000000000000000000000000000000000000000000000000000000000000000000000000000000000000000000000000000000000000000000000000000000000000000000000000000000000000000000000000000000000000000000000000000000000000000000000000000000000000000000000000000000000000000000000000000000000000000000000000000000000000000000000000005300000000000000000000000000000000000000000000000000000000000000000000000000000000000000000000000000000000000000000000000000000000000000000000000000000000000000000000000000000000000000000000000000000000000000000000000000000000000000000000000000000000000000000000000000000000000000000000000000000000000000000000000000000000000000000000000000000000000000000000000000000000000000000000000000000000000000000000000000000000000000000000000000000000000000000000000000000000000000000000
#093390:25
#093320:00000014
#093360:0000000000000054
#094320:24
#0943a1:14240000
#094361:0054000000000000
#095321:00001424
#095361:0000000000540000
#0963a1:14240000
#096361:0054000000000000
#097321:14
#097361:00240000
#0973a0:00140000
#097360:0024
#0983a0:0014
#098360:000000000000000000000000000034543400000000000000
#098390:00000025
#098321:00000015
#098361:000000000000000000000000000000000000000035553500
#099321:26
#0993b1:00130000
#0993a1:00000000003300000000000000000000
#099391:0000003300000000
#099381:00000000000000332300000000000000
#099320:0013
#099330:00000000000000000033000000000000
#099340:0000000000330000
#099350:00000000000000000000003323000000
