This file was generated by Ched 2.7.0.0.
#TITLE ""
#ARTIST ""
#DESIGNER ""
#DIFFICULTY 0
#PLAYLEVEL
#SONGID ""
#WAVE ""
#WAVEOFFSET 0
#JACKET ""
#REQUEST "ticks_per_beat 480"
#00002: 4
#BPM01: 210
#00008: 01
#TIL00: ""
#VOLUME: ""
#HISPEED 00
#MEASUREHS 00
#07516:00140000
#0751a:24001414
#07514:0000000000140000
#07512:24
#0761a:0000001400000000
#07612:1400000000000013
#07618:0014000000000000
#07614:00140000
#0761b:00000013
#07615:0000000000130000
#02115:00131300
#02118:0000001300000000
#0211b:23000013
#02110:41
#02215:0000130000000013
#02212:13
#02218:0013000000000000
#0221b:0000001300000000
#02318:2300001300000000
#02315:0013
#02312:00130000
#0231b:00000013
#02418:0000001300000000
#02412:13
#0241b:0013000000000000
#02415:00130000
#0261b:0000000013000013
#02618:0013000000000000
#02612:13
#02615:0000130000130000
#02515:0000000000130000
#0251b:00001313
#02518:0013000000000000
#02512:23130000
#03312:00001313
#03318:0000000000130000
#0331b:00130000
#03315:23
#03310:41
#0271a:0013000000000000
#02713:00130000
#02719:0000001300000000
#02715:00000013
#02718:0000000000130000
#02714:0013
#02712:23
#03218:0000130000000013
#03215:0000001300000000
#0321b:13
#03212:0013000000000000
#03518:0000000000130000
#0351b:00130000
#03515:0013
#03512:2300000000000013
#03815:13000013
#0381b:0000000000130000
#03818:0000000000000013
#03912:13
#03915:0000331300000000
#07714:0000000000000013
#07715:0000130000130000
#07718:2313
#07719:00000013
#0781a:13
#07813:0013000000000000
#0781b:0000130000000013
#07812:0000001300001300
#07818:0000000000130000
#08118:2300001300000013
#08115:00000013
#08112:00130000
#08110:41
#08212:13
#0821b:0013000000000013
#08215:00131300
#08218:0000001300000000
#09418:1300000000000013
#0941b:0000130000130000
#09415:0000001300001300
#1001a:0014000000000000
#10012:14
#10014:00142400
#10018:0000001400002400
#08312:0000000000000013
#08318:00130000
#01918:13
#01915:00130000
#0191b:0023
#01912:00000023
#02818:1300000000000013
#02815:0013000000001300
#02812:0000001300000000
#0281b:0000130000130000
#02918:00131300
#02915:0000001300000000
#02912:23000013
#03018:0000130000000013
#0301b:13
#03015:0013000000000000
#03012:0000001300000000
#03115:2300001300000000
#03118:0013
#0311b:00130000
#03112:00000013
#03415:0013
#03418:1300000000130000
#0361b:0000001300000000
#03712:13
#03718:00000013
#0401b:13
#04018:0000001300000000
#04118:00130000
#04112:00001313
#0411b:0000000000130000
#04115:23
#0421b:13
#04218:00130000
#04215:0013
#04212:00000013
#04318:13
#04415:0013
#0441b:23
#04512:14
#04510:41
#04616:0014
#0491a:14
#05016:0014
#04818:00000013
#0481b:13
#05218:0013001300000000
#05215:13131300
#05212:0000000000000013
#0521b:00000013
#05317:0013
#0531b:13
#0531f:11
#05412:00130000
#05418:0013
#05415:00000013
#05517:0013
#0551b:13
#05612:0013
#05615:00000013
#05718:13000013
#0571b:0000001300000000
#0581b:13
#05815:00000013
#06116:0013
#06112:13
#0621b:00130000
#06215:0013
#06218:00000013
#06316:0013
#06312:13
#06012:00000013
#06018:13
#0601b:0000000000000013
#0591b:13000013
#05918:0000001300000000
#0641b:0013
#06418:00000013
#06515:13000013
#06512:0000001300000000
#06612:13
#06618:00000013
#06712:13000013
#06715:0000001300000000
#06815:13
#07919:0000000000000013
#07918:0000130000130000
#07915:2313
#07914:00000013
#08013:13
#0801a:0013000000000000
#08012:00130000
#0801b:0000001300000000
#08015:0000000000000013
#08418:0013001300130000
#08415:00131300
#08614:14
#08618:2414
#08613:00240000
#08619:00000024
#08612:0024
#08514:0014
#0851a:2424
#08513:00240000
#08519:00000024
#08512:24
#08818:14
#08814:2414
#08819:00240000
#08813:00000024
#0881a:0024
#08718:0014
#08712:2424
#08719:00240000
#08713:00000024
#0871a:24
#0891a:2414
#08912:2424
#08918:00240000
#08914:00000024
#09012:1424
#0901a:2414
#09018:00240000
#09014:00000024
#09218:0013
#09215:00130013
#0921a:24
#09212:24
#09312:2413
#09315:00000013
#0931a:24
#0951b:0013
#09512:23
#09612:13
#09618:0000001300000000
#09718:0000130000130013
#09715:00001313
#09712:23
#0971b:23
#09815:13131300
#09818:0013001300000000
#09812:00000013
#0981b:00000013
#09918:23130013
#09915:2313
#0691a:24
#06914:00240000
#06918:00000024
#06916:0024
#06912:24
#0691f:21
#09112:24240000
#09116:0024
#0911a:24000024
#09110:41
#02019:23232300
#02014:23232300
#07012:24
#07018:00240000
#07016:0024
#07014:00000024
#0701a:24
#07010:41
#07112:24
#07118:00240000
#07114:00000024
#07116:0024
#0711a:24
#0721a:24
#07214:00240000
#07216:0024
#07218:00000024
#07212:24
#0731a:24
#07312:24
#07314:00240000
#07318:00000024
#07316:0024
#07412:24
#07418:00240000
#07416:0024
#07414:00000024
#0741a:24
#10112:24
#1011a:24
#0215b:13
#02458:0000005300000000
#03552:1300000000000053
#03855:63
#03852:0000001300000000
#03952:53000013
#03955:0000006300000000
#0445b:13
#04455:0063
#0765a:0000001400000000
#0225b:0000006300000000
#02852:0000001300000000
#03255:0000006300000000
#03052:0000005300000000
#02952:13
#0345b:00130000
#03458:53
#03655:0013000000000000
#03658:0000000000130000
#0365b:0000006300000000
#03752:53
#0405b:63000013
#04058:0000005300000000
#04358:53
#04552:54
#04656:0024
#0495a:64
#05056:0024
#04858:00000053
#0485b:63
#05357:0023
#0535b:63
#05557:0023
#0555b:63
#05758:53000053
#0575b:0000006300000000
#0585b:63
#06156:0023
#06152:53
#06356:0023
#06352:53
#0595b:63000063
#05958:0000005300000000
#06058:53
#06555:63000063
#06552:0000005300000000
#06652:53
#06752:53000053
#06755:0000006300000000
#06852:0000001300000000
#06855:63
#0695a:14
#06952:14
#0735a:14
#07352:14
#07758:13
#07955:13
#0805b:0000006300000000
#08158:1300005300000000
#0825b:0000000000000063
#08358:00530000
#0835b:0000000000130000
#08352:0000000000000013
#08458:0000000000130000
#0855a:14
#08552:14
#08752:14
#0875a:14
#08952:14
#0895a:14
#09152:14
#0915a:14
#0925a:14
#09252:14
#0935a:14
#09352:14
#09552:13
#0955b:0063
#09652:53
#09658:0000005300000000
#09752:13
#0975b:13
#09955:13
#09958:13
#09852:00000053
#0985b:00000063
#09855:0063
#10152:14
#1015a:14
#005380:13330000
#0053a0:00000033
#0063a0:00330000
#006380:00000033
#007380:00330000
#0073a0:00000033
#0083a0:00330000
#008380:00000023
#009350:13330000
#009330:00000033
#010330:00330000
#010350:00000033
#011350:00330000
#011330:00000033
#012330:00330000
#012350:00000023
#0133a0:13330000
#013380:00000033
#0143a0:00330000
#014380:00000033
#0153a0:00330000
#015380:00000033
#0163a0:00330000
#016380:00000023
#017330:13330000
#017350:00000033
#018330:00330000
#018350:00000023
#0223b0:0000001300000000
#022380:00000023
#024380:0000001300000000
#0243b0:00000023
#030320:0000001300000000
#030350:00000023
#032350:0000001300000000
#032320:00000023
#034380:13
#0343b0:00230000
#035320:0000000000000013
#036350:0023000000000000
#0363b0:0000001300000000
#036380:0000000000230000
#037320:13
#037350:0023
#038350:13
#038320:0000002300000000
#039320:13000023
#039350:0000333300000000
#0403b0:13000023
#040380:0000003300000000
#043380:13
#0443b0:23
#044350:0013
#045320:34
#046360:0054
#047320:00000023
#0483b0:13
#048380:00000033
#0493a0:34
#050360:0054
#0513b0:00000023
#0533b0:13
#053370:0053
#0543b0:23
#0553b0:13
#055370:0053
#0563b0:23
#057380:13000033
#0573b0:0000003300000000
#0583b0:33
#058380:0023
#0593b0:13000033
#059380:0000003300000000
#060380:33
#0603b0:0023
#061320:13
#061360:0053
#062320:23
#063320:13
#063360:0053
#064320:23
#065350:13000033
#065320:0000003300000000
#066320:33
#066350:0023
#067320:13000033
#067350:0000003300000000
#068350:33
#068320:0000002300000000
#0803b0:0000001300000000
#080380:00000023
#081380:0000001300000000
#0813b0:0000000000230000
#0823b0:0000000000000013
#083380:00330000
#0833b0:0000000000230000
#0953b0:0013
#095380:00000023
#096320:13
#096350:0000002300000000
#096381:0000001300000000
#0963b1:00000023
#098351:0013
#098321:00000033
#099351:23
#0983b0:00000013
#099380:23
