This file was generated by Ched 2.7.0.0.
#TITLE ""
#ARTIST ""
#DESIGNER ""
#DIFFICULTY 0
#PLAYLEVEL
#SONGID ""
#WAVE ""
#WAVEOFFSET 0
#JACKET ""
#REQUEST "ticks_per_beat 480"
#00002: 4
#BPM01: 210
#00008: 01
#TIL00: ""
#VOLUME: ""
#HISPEED 00
#MEASUREHS 00
#04318:14
#04514:14
#04510:41
#01912:14
#0191a:0014
#02014:1414
#02018:00140000
#02218:1414
#02214:00140000
#02112:0014
#0211a:24
#02110:41
#02414:1414
#02418:00140000
#0231a:0014
#02312:24
#0251a:14
#02512:0014
#02612:0014
#0261a:14
#02718:14
#0271a:0014
#02714:00140000
#03014:1414
#03018:00140000
#0291a:0014
#02912:24
#04218:1414
#04214:00140014
#04918:14
#05214:1414
#05218:00140000
#05414:0014
#06418:0014
#06414:00000014
#05318:14
#0531f:11
#06912:00140014
#0691a:2414
#0691f:21
#0731a:14
#07314:00140000
#07319:0014
#07313:00000014
#07418:14
#07412:00140000
#07417:0014
#07512:14
#07518:00140000
#07513:0014
#07519:00000014
#07614:14
#07615:0014
#0761a:00140000
#07712:00140000
#07718:0014
#07714:00000014
#0771a:24
#02814:14
#02818:00140000
#03218:1414
#03214:00140000
#03112:0014
#0311a:24
#03312:14
#0331a:0014
#03310:41
#0341a:0014
#03412:14
#03514:14
#03512:0014
#03518:00140000
#03618:14
#03614:00140000
#0361a:0014
#03714:14
#03818:14
#03912:14
#0401a:14
#04112:1414
#0411a:00140000
#0701a:14
#07010:41
#0711a:00140014
#07112:2414
#07212:14
#0791a:00140000
#07914:0014
#07918:00000014
#07912:24
#08112:00140000
#08118:0014
#08114:00000014
#0811a:24
#08110:41
#0821a:14
#08212:00140000
#0861a:1414
#08612:00140014
#08514:00140000
#08519:0014
#08513:00000014
#08518:24
#08918:00140000
#08913:0014
#0891a:00000014
#08914:24
#09013:0014
#09012:14
#0901a:00140000
#09018:00000014
#0871a:1414
#08712:00140000
#08713:00000014
#08819:14
#08814:00140000
#08818:0014
#09114:14
#09110:41
#09214:00140014
#09218:1414
#09314:0014
#0931a:00000014
#09318:24
#09414:0000001400000000
#10014:1414
#10018:00140014
#09518:0014
#09512:00000014
#09712:00140000
#09718:0014
#09714:00000014
#0971a:24
#0981a:14
#09812:00140000
#09818:0014
#09814:00000014
#09618:0000001400000000
#0991a:14
#0551a:14
#05614:0014
#05618:00000014
#06218:0014
#06114:14
#06312:14
#05712:14
#05716:0014
#05912:14
#05916:0014
#0651a:14
#06516:0014
#0671a:14
#06716:0014
#06812:14
#0441a:24
#10112:24
#08319:0000000000000034
#08418:0034003400000000
#07819:00340000
#07818:0034
#08013:00340000
#08014:0034
#0215a:14
#0445a:14
#04358:54
#04554:64
#0695a:14
#02352:14
#02952:14
#04958:54
#05358:54
#0775a:14
#0315a:14
#03754:64
#03858:54
#03952:54
#0405a:64
#0705a:64
#07252:54
#07152:14
#07952:14
#0815a:14
#09154:64
#08558:14
#08954:14
#09358:14
#09454:0000006400000000
#09658:0000005400000000
#0995a:64
#10152:14
#0975a:14
#0555a:64
#06154:64
#06352:54
#09552:14
#005380:14
#006380:0024
#007340:14
#008340:0024
#009380:14
#0103a0:0024
#011340:14
#012320:0024
#0133a0:14
#014380:0024
#015320:14
#016340:0024
#017380:14
#018380:24
#028320:0014
#029320:24
#037340:14
#037320:0024
#038380:14
#0383a0:0024
#039320:14
#039340:0024
#0403a0:14
#040380:0024
#043380:14
#0443a0:24
#044340:0014
#045340:34
#047320:0024
#0483a0:14
#049380:34
#0513a0:0024
#053380:14
#0543a0:24
#0553a0:14
#056380:24
#0583a0:1424
#0603a0:1424
#061340:14
#062320:24
#063320:14
#064340:24
#066320:1424
#0703a0:14
#070380:0024
#072320:14
#072340:0024
#0783a0:14
#078390:00340000
#078380:00003424
#080320:14
#080330:00340000
#080340:00003424
#082380:0014
#0823a0:0000000000000034
#083380:00340000
#0833a0:0000000000340000
#083390:0000000000000034
#084380:0034003400340000
#085380:24
#091340:14
#091320:0024
#094340:1400003400000000
#095320:24
#096380:1400003400000000
#0973a0:24
#0993a0:14
#099380:00000024
