This file was generated by Ched 2.7.0.0.
#TITLE ""
#ARTIST ""
#DESIGNER ""
#DIFFICULTY 0
#PLAYLEVEL
#SONGID ""
#WAVE ""
#WAVEOFFSET 0
#JACKET ""
#REQUEST "ticks_per_beat 480"
#00002: 4
#BPM01: 134
#00008: 01
#TIL00: ""
#VOLUME: ""
#HISPEED 00
#MEASUREHS 00
#00018:14
#00118:14
#00214:14
#00314:14
#00518:16
#00612:16
#00712:16
#00818:16
#00918:16
#01012:16
#01112:16
#01314:14
#01418:14
#01512:14
#0161a:14
#01712:14
#01818:14
#01914:14
#02114:14
#0221a:14
#02312:14
#02418:14
#02514:14
#0261a:14
#02712:14
#03612:0016
#03618:26
#03610:41
#03718:1616
#03818:0016
#03812:16
#03912:1616
#04012:0016
#04018:26
#04118:1616
#04218:0016
#04212:16
#04312:1616
#04518:14
#04612:14
#04618:0014
#04714:14
#06012:0016
#06018:26
#0601f:21
#06118:1616
#06110:41
#06212:16
#06218:0016
#06312:1616
#06412:0016
#06418:26
#06518:1616
#06612:16
#06618:0016
#06712:1616
#06914:14
#04414:0014
#0441a:24
#04410:41
#0481a:14
#04814:0014
#04918:14
#05012:14
#05018:0014
#05114:14
#0521f:11
#00418:26
#0681a:24
#02018:24
#02010:41
#0121a:24
#01210:41
#02810:41
#07018:00000000000000000000000000000056
#0283a0:14
#0293a0:24
#030340:14
#031340:24
#032380:14
#033380:24
#034320:14
#035320:24
#052380:14
#053380:24
#054320:14
#055320:24
#0563a0:14
#0573a0:24
#058340:14
#059340:24
#070380:16000000000000000000000000000026
#070980:00000000000000000000000000000016
#071980:00260000000000000000000000000000
