This file was generated by Ched 2.7.0.0.
#TITLE ""
#ARTIST ""
#DESIGNER ""
#DIFFICULTY 0
#PLAYLEVEL
#SONGID ""
#WAVE ""
#WAVEOFFSET 0
#JACKET ""
#REQUEST "ticks_per_beat 480"
#00002: 4
#BPM01: 134
#00008: 01
#TIL00: ""
#VOLUME: ""
#HISPEED 00
#MEASUREHS 00
#00418:00000000000013000013000000000000
#0041b:00005300130000000000001300000000
#00415:00000000130000000000001300000000
#00412:00000000000000001300000000130000
#00417:13
#00419:00530000000000000000000000000000
#00414:0000000000000053
#00416:00000000000000000000000000000053
#0051b:0013000013000000
#00518:00130000
#00515:00000000000013000013000000000000
#00512:00001300000000000000001300000000
#00517:00000000000000000000001300000000
#00516:0000000000000013
#00818:13131313
#00815:00000000000000000013000000130013
#00812:00130000000013000000001300000000
#00814:00130000
#0081a:0024002400240024
#01214:0013000000000000
#0121b:00130000
#01219:0000001300000000
#01216:00000000130000000000001300001300
#01212:2413
#01217:0013
#0121a:24
#01210:41
#0131b:00000000000013000000000000130000
#01316:0000000000000013
#01317:0013000000000000
#01312:00000000000013000000001300000000
#01315:0013
#01318:00000000000000000013000000000000
#01412:00000000000013000000000000130000
#0141b:00001300000000001300001300000000
#01415:0000000000130000
#01418:0000001300000013
#01512:0000001300001300
#0151b:0013000000130000
#01518:00000000000000000000000000130000
#01516:0013000000000000
#01514:00130000
#01612:1413
#0161b:00000000130000000000001300001300
#01619:0000001300000000
#01616:00130000
#01614:0000001300000000
#01617:0013
#01719:0000001300000000
#01715:00000000000000000013000000130000
#0171b:0000000013000013
#01712:00001300130000000000001300000000
#01718:00000000000000000000001300000000
#01714:0000001300000000
#01812:00001300000013000000001300130000
#0181b:0013
#01815:00000000000000000013000000000000
#01818:00000000000013000000001300000000
#01817:0000000000000013
#01918:0000000000130000
#0191b:00000013
#01916:00001300000000000000000000130000
#01914:00130000
#01912:0000001300000000
#0301b:00130000000013000000000000001300
#03016:0000001300000013
#03014:00000013
#03012:00130000
#03017:0000000000130000
#0341b:2300131300000000
#03412:1300000000130013
#03415:00000013
#03416:0000001300000000
#03418:0000000000000013
#0351b:00000013
#03516:00000013000000002400000024000000
#04312:00001400000000000014000000000000
#0431a:0000001400001414
#04314:0000000000000014
#04316:0000141400000000
#04415:00001300001300000000000000000000
#0441b:00130000
#04418:00000000000013000014000000000000
#04412:24000000000000140000000000000000
#04414:00000000000000000000001400000000
#0441a:24000000000000000000000000140000
#04410:41
#04617:00130000000000000000130000000000
#04612:13000000000000001300001400000000
#04614:0013001300000000
#04619:00000013000000130000000000000000
#04616:00130000
#0461b:00000000001300000000000000000000
#0461a:00000000000000000000000000140000
#04615:00000000000000000000000000000013
#04718:13000013000013000000130000000013
#04712:00001300000000000000001300000000
#04715:00000000130000130013000000001300
#0471b:0013
#0471a:00000014
#04812:1313
#0481b:00130000
#04814:00005300000000000000001300000000
#04819:0000005300130053
#04817:00005313
#04813:00530000000000000000000000000000
#04816:00530000
#04815:00000053000000000000000000000000
#0481a:00000000005300000000000000000053
#04818:00000000000000530000000000530000
#05812:1c
#05816:00000054
#00712:00001300000000001300000000240024
#00715:00130000
#00718:00000000000013000013000000000000
#0071b:0013000000000000
#00716:00000000000000000000001300000000
#0071a:0000000000002424
#00918:1300000000000000000000000000000000001300000000000013000000000000
#00915:00131300
#0091b:00001300000000000000001300000000
#00917:0000001300000000
#00919:00130000
#00912:0024002400240024
#01018:13131313
#01015:00000000000000000013000000130013
#01012:00130000000013000000001300000000
#01014:00130000
#0101a:0024002400240024
#01118:13000000000000000013000000000000
#01115:0013
#0111a:0014002400000000
#01112:00002400000014000000001300000000
#0111b:00000000000000000000001300000000
#01116:00240000
#02817:00000013000013000000000000000000
#02812:0000000000130000
#02816:1300000000000013
#0281b:13
#02814:00000013
#02810:41
#03117:00000013000000000000000000000000
#03112:0013
#03118:00000000000000000000130000130000
#03115:0000000000001313
#0331b:00000013000013001300000000000000
#03318:0000000000130013
#03315:00000013
#03317:13
#03312:13
#03616:0014001400000000
#0361a:00140000
#03615:00000013
#0361b:0000000000000013
#03618:0000000000130000
#03612:2400000000000013
#03610:41
#03718:00130000
#03712:0000001300000000
#03715:0013000000000000
#0371b:0000001300131300
#03918:0013000000001313
#03915:00000000130000000000000000130013
#0391b:0000001300130000
#03912:0000001300130000
#04218:0000000000130013
#04215:00000013
#04212:0000000000000013
#0421a:2400001400000000
#04512:13000000000013000000001300000000
#04518:00130000001300000000130013000000
#04515:00001300130000000013000000130000
#0451b:00000013000000001300000000001300
#04912:13531300
#0491b:53135313
#04914:00530053000000000000530000000000
#04916:0053000000005300
#04919:00000000005300530000000000005300
#04917:0000005300000000
#04913:00000000000000000053000000000000
#0491a:0000000000000000000000000000005300000000000000000000530000000000
#04915:00000000000000000000005300000000
#05017:0000005300130000
#05016:1300530013000053
#0501b:0000130053005313
#05012:0053000000531300
#05019:00000000005300530000005300000053
#05014:00530053000000000053000000530000
#05112:1313
#05117:53130000000000000000000000000000
#05114:0013001300000000
#05119:00000013000000130000000000000000
#05116:00130000
#0511b:00000000001300000000000000000000
#05118:00000013
#05216:12
#05213:0012
#0521b:0012
#0521f:11
#05318:12
#0531b:0012
#05313:0012
#05413:12
#05417:0012
#0541a:0012
#05618:00000000000013000000001300000000
#05615:0000000000000013
#05612:1313
#0561b:0013
#05712:0013000013000000
#0571b:0013000013000000
#05718:00130000
#05715:0000001300000000
#05716:0000000000001414
#05716:00000014
#05912:13000013000013000000000000130013
#0591b:13000013000013002300000023000000
#05915:00000000000000000013001300000000
#05918:0000000000130013
#06119:00130013
#06117:0000000000000013
#0611b:0013000000000000
#06112:0024002400240024
#06110:41
#06312:0013000000001400
#06316:0000001300000000
#06314:00130000
#0631a:0024002400240024
#0641a:0000000000140000
#06418:00000014
#06416:0000000000000014
#06412:0024002400240024
#06516:0014000000000000
#06518:00140014
#0651a:0000001400000014
#06512:0024002400240024
#06612:0000000000140000
#06614:00000014
#06616:0000000000000014
#0661a:0024002400240024
#0671a:0014240000000000
#06712:0000000000142400
#00013:12
#00018:0012000000001212
#00016:00000012000000000000000000000000
#00019:00000000001200000000000000000000
#00015:00000000000000120000000000000000
#0001b:12
#00116:0012000000001212
#00118:00000012000000000000000000000000
#00115:00000000001200000000000000000000
#00113:12
#0011b:12
#00119:00000000000000120000000000000000
#00318:00000012000000120000000000000000
#00316:0012000000120000
#00315:00000000001200000000000000000000
#00313:12
#0031b:12
#00312:0000000000000024
#0031a:00000024
#00213:12
#00218:0012000000001212
#00216:00000012000000000000000000000000
#00219:00000000001200000000000000000000
#00215:00000000000000120000000000000000
#0021b:12
#02019:0013000000000000
#02012:00130000
#02014:0000001300000000
#02017:00000000130000000000001300001300
#0201b:0013
#02016:0013
#0201a:24
#02010:41
#02112:00000000000013000000000000130000
#02117:0000000000000013
#02116:0013000000000000
#0211b:00000000000013000000001300000000
#02118:0013
#02115:00000000000000000013000000000000
#0221b:00000000000013000000000000130000
#02212:00001300000000001300001300000000
#02218:0000000000130000
#02215:0000001300000013
#0231b:0000001300001300
#02312:0013000000130000
#02315:00000000000000000000000000130000
#02317:0013000000000000
#02319:00130000
#02718:0000000000000013
#02715:00000013
#02712:0000000000130000
#02717:0013000000000000
#02719:00130000
#0271b:0000001300000000
#0241a:14
#02412:00000000130000000000001300001300
#02414:0000001300000000
#02417:00130000
#02419:0000001300000000
#0241b:0013
#02416:0013
#02514:0000001300000000
#02518:00000000000000000013000000130000
#02512:0000000013000013
#0251b:00001300000000000000001300000000
#02515:00000000000000000000001300000000
#02519:0000001300000000
#0261b:00001300000013000000001300130000
#02612:0013
#02618:00000000000000000013000000000000
#02615:00000000000013000000001300000000
#02616:0000000000000013
#02912:00000013000013000000000000000000
#0291b:1300000000130000
#02917:0000000000000013
#02916:13
#02919:00000013
#03816:0014001400000000
#03812:0000140000000013
#03818:00000013
#03815:0000000000130000
#0381b:0000000000000013
#0381a:24
#04012:2400001400000013
#0401b:0000000000130000
#04016:0000000000130000
#04019:00000013
#04017:0000000000000013
#04112:0013000000000000
#04117:0013000000130000
#04114:00130000
#04116:0000001300000000
#0411b:0000001300000000
#04115:00000013
#04118:0000000000000013
#0551b:12
#05517:0012
#05514:0012
#06818:12000000000000000012000000000052
#06814:00000000120000000000001200000000
#0681a:00005200000012000000000000120000
#06816:0012
#06819:00520000000000000000000000005200
#06914:0012001200000000
#06918:0000120000120000
#0691a:0000000012000012
#06916:00000000000000000012000000000000
#07016:12000000000000000012000000000052
#0701a:00000000120000000000001200000000
#07014:00005200000012000000000000120000
#07018:0012
#07015:00520000000000000000000000005200
#00615:00000000000013000013000000000000
#00612:00005300130000000000001300000000
#00618:00000000130000000000001300000000
#0061b:00000000000000001300000000130000
#00616:13
#00614:00530000000000000000000000000000
#00619:0000000000000053
#00617:00000000000000000000000000000053
#03216:00000013000013000000000000000000
#0321b:0000000000130000
#03217:1300000000000013
#03212:13
#03219:00000013
#06017:0000000000130000
#06019:00000013
#0601b:0000000000000013
#06012:0024002400240024
#0601f:21
#06216:0000000000130000
#06214:00000013
#06212:0000000000000013
#0621a:0024002400240024
#01356:0000000000000053
#01352:0013000000000000
#01458:0000000000000063
#0175b:0000000000000053
#01857:0000000000000063
#0305b:00230000000000000000000000006300
#03056:0000006300000000
#03452:5300000000000053
#0345b:0000005300000000
#03556:00000023000000001400000014000000
#03552:0013
#0355b:00000013
#05852:5c
#00557:00000000000000000000006300000000
#00758:00000000000000000053000000000000
#00958:0000000000000000000000000000000000000000000000000023000000000000
#0095b:00000000000000000000005300000000
#01152:00000000000000000000005300000000
#0115b:00000000000000000000005300000000
#01257:0053
#01256:0000000000000063
#01558:00000000000000000000000000530000
#01552:0000005300000000
#0155b:0023000000000000
#01652:1453
#0165a:14
#0165b:0000000000000063
#01952:0000006300000000
#01956:00000000000000000000000000630000
#03157:00000023000000000000000000000000
#03752:0000005300000000
#03756:00000013
#0375b:00000013
#04258:0000000000000053
#0425a:0000001400000000
#04356:0000005400000000
#0435a:0000004400000000
#04352:00000000000000000024000000000000
#04452:00000000000000140000000000000000
#04458:00000000000000000014000000000000
#04454:00000000000000000000001400000000
#0445a:00000000000000000000000000140000
#04652:00000000000000000000001400000000
#0465a:00000000000000000000000000140000
#0475a:00000014
#05152:0063
#05158:00000053
#0525b:13
#05256:52
#05253:0022
#05358:52
#0535b:0022
#05453:52
#05457:0022
#06356:0000006300000000
#06352:00000014
#0655a:0000006400000000
#06552:0014001400140014
#0675a:0000001400000000
#06756:0000001400000014
#06752:0000000000000014
#02052:14
#02056:0063
#02057:0000000000000053
#00055:00000000000000620000000000000000
#00159:00000000000000520000000000000000
#00358:00000000000000520000000000000000
#0035a:00000014
#00352:0000000000000014
#06452:0014001400140014
#0665a:0014001400140014
#00255:00000000000000620000000000000000
#02157:0000000000000063
#0215b:0013000000000000
#02255:0000000000000053
#02355:00000000000000000000000000630000
#0235b:0000006300000000
#02352:0023000000000000
#02452:1400000000000053
#0245a:14
#0245b:0063
#02856:53
#02852:0000001300000000
#02552:0000000000000063
#02556:0013000000000000
#02656:0000000000000053
#0275b:0000005300000000
#0295b:63
#02957:0000001300000053
#03652:0000001400000000
#0365b:0000000000000013
#0385a:0000001400000000
#03852:0000000000000013
#04052:0000001400000013
#0395b:0000001300000000
#0415b:0000001300000000
#04156:0000005300000000
#0555b:62
#05557:0022
#05652:1313
#05752:0013000013000000
#06954:0000000000000012
#0695a:0000000000000012
#03257:63
#0325b:0000001300000000
#03352:53
#03356:0000001300000000
#000350:00000000000000120000000000000000
#000330:00000022
#001390:00000000000000120000000000000000
#0013b0:00000022
#002350:00000000000000120000000000000000
#002330:00000022
#003380:00000000000000120000000000000000
#0033a0:00000024
#005370:00000000000000000000001300000000
#0053b0:0000000000000023
#007380:00000000000000000013000000000000
#0073b0:00000000000000000000002300000000
#0093b0:00000000000000000000001300002300
#009380:0000000000000000000000000000000000000000000000000053000000000000
#011320:00000000000000000000001300000000
#011350:0000000000000023
#0113b1:00000000000000000000001300000000
#011381:0000000000000023
#012371:0013
#0123b1:00000000000000000000003300002300
#012360:0000000000000013
#013320:0023000000000000
#013360:0000000000000013
#014320:0023000000000000
#014380:0000000000000013
#0153b0:0033000000000000
#015370:0000002300000000
#015321:0000001300000000
#015361:0000000000230000
#015381:00000000000000000000000000130000
#0163a1:24
#016321:0013
#016361:00000000000000000000003300002300
#0163b0:0000000000000013
#017370:0033230000000000
#0173b0:0000000000000013
#018370:0023000000000000
#018370:0000000000000013
#0193b0:0000002300000000
#019321:0000001300000000
#019351:0000000000230000
#019361:00000000000000000000000000130000
#020321:24
#020361:0013
#020321:00000000000000000000003300002300
#020370:0000000000000013
#0213b0:0023000000000000
#021370:0000000000000013
#0223b0:0023000000000000
#022350:0000000000000013
#023320:0033000000000000
#023360:0000002300000000
#0233b1:0000001300000000
#023371:0000000000230000
#023351:00000000000000000000000000130000
#024321:24
#0243b1:0013
#024371:00000000000000000000003300002300
#024320:0000000000000013
#025360:0023000000000000
#025320:0000000000000013
#026360:0023000000000000
#026360:0000000000000013
#027320:0000002300000000
#0273b1:0000001300000000
#027381:0000000000230000
#028361:13
#028321:00000033000023000000000000000000
#028371:0000000000130000
#028391:00000033
#0283b1:0000000000000023
#0293b1:13
#029371:00000033000023000000000000000000
#029361:0000000000130000
#029341:00000033
#029321:0000000000000023
#029370:0000000000000013
#0303b0:00530000000000000000000000000000
#030370:00230000
#030360:0000001300000000
#030320:0000000000230000
#0303b0:0000000000000013
#031370:00000053000000000000000000000000
#0313b0:0023
#032370:13
#0323b0:00000033000023000000000000000000
#032360:0000000000130000
#032340:00000033
#032320:0000000000000023
#033320:13
#033360:00000033000023000000000000000000
#034320:13
#034360:00230000
#0343b0:0000001300000000
#034370:0000000000230000
#034320:0000000000000013
#035360:00000053000000000000000000000000
#035320:0023
#0363a0:1424000000000000
#036320:0000142400000000
#037320:0000001300000000
#037360:0000000000332300
#038320:1424000000000000
#0383a0:0000142400000000
#0403a0:1424000000000000
#040341:0014240000000000
#040380:0000142400000000
#041360:0000001300000000
#041320:0000000000230000
#042320:1424000000000000
#042381:0014240000000000
#042340:0000142400000000
#042380:0000000000000013
#0433a0:0024000000000000
#043360:0000001400002400
#043320:00000000000000000054000000000000
#051320:0013
#051350:00000023
#051381:00000013
#0523b1:23
#052360:12
#052330:0032
#053360:22
#053381:12
#0533b1:0032
#054381:22
#054330:12
#054370:0032
#055330:22
#0553b1:12
#055371:0032
#0563b1:22
#058321:1c
#058361:00000024
#0603b1:13
#060371:0023000000000000
#0603b1:00130000
#060371:0000002300000000
#061371:0000001300000000
#0613b1:0000000000230000
#062321:13
#062361:0023000000000000
#062321:00130000
#062361:0000002300000000
#063361:0000001300000000
#063321:0000000000240000
#0643a1:14
#064361:0024000000000000
#064361:00140000
#0643a1:0000002400000000
#0653a1:0000001400000000
#065361:0000000000240000
#066321:14
#066361:0024000000000000
#066361:00140000
#066321:0000002400000000
#067321:0014000000000000
#067361:0000342400000000
#0673a0:0000142400000000
#0673a0:0000000000140000
#067360:0000000000003424
#067321:0000000000001424
#069341:00000000000000000000001200002200
#004970:13
#0049b0:0023000000000000
#004920:00000000000000000000000000130000
#004960:00000000000000000000000000000023
#006960:13
#006920:0023000000000000
#0069b0:00000000000000000000000000130000
#006970:00000000000000000000000000000023
#048920:13
#048960:00230000
#0489b1:00130000
#048971:0023
#048971:00000013
#0499b1:23
#049920:13230000
#049960:0053000000000000
#0499b1:00132300
#049971:0000005300000000
#049920:0013
#049960:00000023
#0499b1:00000013
#049991:0000000000000023
#050961:13230000
#050921:0053000000000000
#0509b0:00132300
#050970:0000005300000000
#050961:0013
#050921:0000000000230000
#050970:0000000000130000
#0509b0:00000023
#050921:00000013
#050961:0000000000000023
#0509b0:0000000000000013
#051970:23
#068980:12
#0689a0:0022000000000000
#0689a0:00000000000000000000000000120000
#068980:00000000000000000000000000000022
#070960:12
#070940:0022000000000000
#070940:00000000000000000000000000120000
#070960:00000000000000000000000000000022
