This file was generated by Ched 2.7.0.0.
#TITLE ""
#ARTIST ""
#DESIGNER ""
#DIFFICULTY 0
#PLAYLEVEL
#SONGID ""
#WAVE ""
#WAVEOFFSET 0
#JACKET ""
#REQUEST "ticks_per_beat 480"
#00002: 4
#BPM01: 134
#00008: 01
#TIL00: ""
#VOLUME: ""
#HISPEED 00
#MEASUREHS 00
#02412:1413
#0241a:14
#02415:00130000
#0241b:0000001300000000
#02418:0000000000000013
#05215:13
#05212:0013
#0521b:0013
#0521f:11
#05315:13
#05312:0013
#0531b:0013
#06818:13
#00018:1300000000000013
#00015:00000013
#00412:0013000000000000
#00418:00000000130000000033000000001300
#00415:00000000000013000000000000130013
#0041b:1313
#00518:0013000013000000
#00515:00130000
#00512:0000001300000000
#0051b:00000000000000000033000000000000
#0061b:0013000000000000
#00615:00000000130000000033000000001300
#00618:00000000000013000000000000130013
#00612:1313
#00818:00000000130000000033000000001300
#0081b:2313
#00815:00001300000000000000000000130013
#00812:0000001300000000
#0091b:00001300000000000033000000000000
#00918:00131300
#00915:0000001300000000
#01015:00000000130000000033000000001300
#01012:2313
#01018:00001300000000000000000000130013
#0101b:0000001300000000
#01112:00001300000000000033000000000000
#01115:00131300
#01118:0000001300000000
#01212:0013000000000000
#01218:00131300
#01215:0000001300000000
#0121b:00000000000000000000003300001300
#0121a:24
#01210:41
#01312:0000001300000000
#01318:0000000013000013
#01315:00000000000000000013000000130000
#0131b:00000000000000000000001300000000
#01412:0000001300000000
#0141b:0013
#01415:00000000000000000000130000130000
#01418:00000000000000000000001300001300
#0151b:00000013000000000000000000000000
#0161b:13
#01612:13000000000000000000003300001300
#01615:00131300
#01618:0000001300000000
#0191b:00000013
#01912:00000013000000000000000013000000
#02015:0013000000000013
#02018:00130000
#02012:0000001300000000
#0201b:0013
#0201a:24
#02010:41
#02112:00000000000013000000001300000000
#0211b:00000000000013000000000000130000
#02115:0000000013000013
#02118:00000000000000000013000000000000
#0221b:00000000000013000000000000130000
#02212:0000000013000013
#02218:0000000000130000
#02215:00000000000000000000001300000000
#02315:00000013000000000000000000000000
#02512:00000000000013000000000000130000
#0251b:00000000000013000000001300000000
#02518:0000000013000013
#02515:00000000000000000013000000000000
#02612:0000001300000000
#02618:0013
#02615:00000000000000000013000000130000
#0261b:00000000000000000000001300001300
#02718:00000013000000000000000000000000
#02715:0000000000130000
#0271b:00000013
#02712:0000000000000013
#02818:13000013
#02812:0000000000130000
#02815:0000000000000013
#02810:41
#0291b:13000013
#02912:0000000000130000
#02915:0000000000000013
#03018:0000001300001300
#03015:0000000000130000
#0301b:0000000000000013
#03012:0000000000000013
#03318:0013
#03315:0000000000130013
#0331b:00000013
#03312:13
#03412:0000130000000014
#03418:2300001300000000
#03415:0000000000130000
#0341b:00000013
#03517:00000014
#0351a:0024
#03512:00000024
#03615:0013000000000013
#0361b:0000130000130000
#03612:2400001300130000
#03618:00000013
#0361a:24
#03610:41
#0371b:0013000000000000
#03712:0013000000000000
#03715:00130013
#03718:0000001300000000
#0381b:1300000000130000
#03812:1300001300000013
#03815:0013000000130000
#03818:00130013
#0391b:0013000000000000
#03918:00130013
#03915:0000001300000000
#03912:0013000000000000
#04012:1300000000130000
#0401b:1300001300000013
#04018:0013000000130000
#04015:00130013
#04112:0013000000000000
#04115:00130000
#04118:0000001300000000
#0411b:0013000000130000
#04119:00000033
#04215:13130013
#04218:0013000000130000
#0421b:0000001300000013
#04212:0000001300000000
#04312:0013000000000013
#04315:0000001300000000
#04318:00130000
#0431b:00000013
#04415:0013000000000000
#0441b:00000000130000000053000000530000
#04418:24000000000000530000005300000000
#04410:41
#0441a:00000000005300000000000000000000
#04419:0000005300000000
#04515:1300005300130000
#0451b:0013
#04518:00000013
#04512:00000053000000000000000000001300
#04514:00530000005300000000000000000000
#04513:0053530000000000
#0461b:13000000000053000000000000130000
#04612:00000000000000001300000000000013
#04618:00000053000000000000130000000000
#04615:00000000000000000000001300000000
#0461a:00530000005300000000000000000000
#04619:0053530000000000
#04718:00001300000000000000005300000000
#04715:0000001300000000
#0471b:0013
#04714:0000000000000013
#04719:00000053000000000000530000000000
#0471a:00000000530000000053000000000000
#04717:00000053
#0481b:1313
#04815:00001300000000000000005300000000
#04818:00130000
#04812:0000001300000053
#04816:0000000000130000
#04814:00000053
#04813:00000000000000000000000000530000
#04918:1300005300001300
#04912:0013
#04915:0000000000130013
#04919:00530000005300000000000000000000
#0491a:0053530000000000
#0491b:00000053000000000000000000000000
#0501b:1313
#05018:0013000000001300
#05015:0000130000130013
#05012:0000001300000000
#05112:1314
#05118:0013000000000000
#05115:00130000
#0511b:0000001300000000
#0511a:00000014
#05418:13
#0541b:0013
#05412:0013
#05518:13
#0551b:0013
#05512:0013
#05615:13
#05718:13
#0581a:14
#05812:14
#06015:0013001300000013
#06018:00130013
#0601b:0000000000130000
#06012:2400000000130000
#0601a:24
#0601f:21
#0611b:0013000000000000
#06112:0013000000000000
#06115:00130000
#06118:0000001300000000
#06110:41
#0621b:1300001300000000
#06212:1300000000130000
#06218:0013000000130013
#06215:00130013
#0631b:0013000000000000
#06318:00130000
#06315:0000001300000000
#06312:0013000000000000
#06412:1300000000130000
#0641b:1300000000130000
#06418:0013001300000013
#06415:00130013
#06515:0000001300000000
#06518:0000130000130000
#06512:0013000000130000
#0651b:0013000000000000
#06514:00000033
#0651a:00000033
#06618:1300000000130000
#06612:0013000000000000
#0661b:0000130000000013
#06615:0000001300001300
#06712:0013000000000024
#06718:00230000
#06715:0000002300000000
#0671a:00000024
#0691b:13
#07015:13
#07012:00000000000000000000000000000053
#05914:0013
#05919:0013
#05913:00000013
#0591a:00000013
#00115:1300000000000013
#00118:00000013
#0021b:13
#00215:00000013
#00218:0000000000000013
#00312:13
#00318:00000024
#00314:0000000000000024
#00715:0013000013000000
#00718:00130000
#0071b:0000001300000000
#00712:00000000000000000033000000000000
#0171b:0000001300000000
#01715:0000000013000013
#01718:00000000130000000013000000130000
#01712:00000000000000000000001300000000
#0181b:00000000000013000000000000130000
#01812:0013
#01818:00000000000000000013000000000000
#01815:00000000000000000000001300001300
#03118:0000000000130000
#03112:00000013
#0311b:0000000000000013
#03215:13000013
#0321b:0000000000130000
#03218:0000000000000013
#05255:63
#05252:0063
#05355:63
#05352:0063
#06858:63
#00058:53
#0005b:00000000000000130000000000000000
#0045b:0053
#00558:0063
#00652:0063
#0085b:0053
#00958:0063
#01052:0063
#01155:0053
#01258:0063
#0125b:0000000000000063
#01358:0000000000000063
#01458:0000000000000063
#0145b:0013000000000000
#0155b:00000023000000000000000000000000
#0205b:0053
#02055:0000000000000063
#02155:0000000000000053
#02252:0013000000000063
#02355:00000023000000000000000000000000
#02558:0000000000000063
#0265b:0013000000000053
#02758:00000023000000000000000000000000
#02858:63
#0295b:53
#02955:0000000000000053
#0305b:0000000000000053
#03052:0000000000000063
#03452:0000000000000054
#03758:0000005300000000
#03755:00000013
#03955:0000006300000000
#03958:00000013
#04158:0000005300000000
#0415b:0000000000530000
#04355:0000001300000000
#04352:0000000000000013
#05152:0014
#0515a:00000014
#05458:53
#0545b:0053
#05558:53
#0555b:0053
#05652:0014
#05655:63
#05758:53
#0575a:0014
#0585a:54
#05852:64
#06158:0000005300000000
#0615b:00000013
#06355:0000006300000000
#06352:00000013
#06555:0000006300000000
#06558:0000000000630000
#06552:0000000000630000
#0695b:63
#07055:53
#00155:63
#00152:00000000000000130000000000000000
#0025b:63
#00258:00000000000000130000000000000000
#00352:53
#00355:00000000000000130000000000000000
#00755:0053
#01655:0053
#01652:0000000000000053
#01755:0000000000000053
#01855:0000000000000053
#01852:0013000000000000
#01952:00000023000000000000000000000000
#02452:0063
#02458:0000000000000053
#06055:0000001300000000
#0625b:0000001300000000
#06458:0000001300000000
#06752:0000000000000014
#06755:0000001300000000
#06758:00130000
#0675a:00000014
#03255:53
#03352:63
#000380:13
#0003b0:00003333003300230000000000000000
#001350:13
#001320:00003333003300230000000000000000
#0023b0:13
#002380:00003333003300230000000000000000
#003320:13
#003350:00003333003300230000000000000000
#0043b0:0013
#004380:00000000000000000033002300000000
#005380:0013
#0053b0:00000000000000000033003300002300
#006320:0013
#006350:00000000000000000033002300000000
#007350:0013
#007320:00000000000000000033003300002300
#0083b0:0013
#008380:00000000000000000033002300000000
#009380:0013
#0093b0:00000000000000000033003300002300
#010320:0013
#010350:00000000000000000033002300000000
#011350:0013
#011320:00000000000000000033003300002300
#012380:0013
#0123b0:00000000000000000000003300003300
#013380:0023000000000000
#013380:0000000000000013
#0143b0:0023000000000000
#014380:0000000000000013
#0153b0:00000053000000000000000000000000
#015380:0023
#016350:0013
#016320:00000000000000000000003300003300
#017350:0023000000000000
#017350:0000000000000013
#018320:0023000000000000
#018350:0000000000000013
#019320:00000053000000000000000000000000
#019350:0023
#0203b0:0013
#020380:00000000000000000000002300000000
#020350:0000000000000013
#021320:0023000000000000
#021350:0000000000000013
#022320:0023000000000000
#022320:0000000000000013
#023350:00000053000000000000000000000000
#023320:0023
#024320:0013
#024350:00000000000000000000002300000000
#024380:0000000000000013
#0253b0:0023000000000000
#025380:0000000000000013
#0263b0:0023000000000000
#0263b0:0000000000000013
#027380:00000053000000000000000000000000
#0273b0:0023
#028380:13
#0283b0:00000033000023000000000000000000
#0293b0:13
#029380:00000033000023000000000000000000
#029350:0000000000000013
#030320:00230000
#0303b0:0000000000000013
#031380:0023
#030321:0000000000000013
#031351:0023
#032351:13
#032321:00000033000023000000000000000000
#033321:13
#033351:00000033000023000000000000000000
#034321:0000000000000014
#035351:0024
#037381:0000001300000000
#0373b1:0000000000230000
#039351:0000001300000000
#039321:0000000000230000
#041381:0000001300000023
#0413b1:0000000000330000
#041391:00000033
#052351:13
#052321:0033
#053351:33
#053321:0033
#054351:23
#054380:13
#0543b0:0033
#055380:33
#0553b0:0033
#056380:23
#056351:13
#056321:0024
#057381:13
#0573a1:0024
#0583a1:14
#059381:23
#058320:14
#059350:23
#061380:0000001300000000
#0613b0:0000000000332300
#063350:0000001300000000
#063320:0000000000332300
#065350:0000001300000023
#065320:0000000000330000
#065340:00000033
#065381:0000000000130000
#0653a1:00000033
#0653b1:0000000000000023
#068381:13
#0693b1:33
#070381:23
#070350:13
#070320:00000000000000000000000000000023
#0449b0:000000000000000000000000000000000000000000000000000000000000000000000000000000000000000000000000000000000000000000000000000000000000000000000000000000000000000000000000000000000000000000000000000000000000000000000000000000000000000000000000000000000000000000000000000000000000000000000000000000000000000000000000000000000000000000000000000000000000000000000000000000000000000000000000000000000000000000000000000000000000000000000000000000000000000000000000000000000000000000000000000000000000000000000000000000000000000000000000000000000000000000000000000000000000000000000000000000000000000000000000000000000000000000000000000000000000000000000000000000000000000000000000000000000000000000000000000000000000000000000000000000000000000000000000000000000000000000000000000000000000000000000000000000000000000000000000000000000000000000000000000000000000000000000000000000000000000000000000000000000000000000000000000000000000000000000000000000000000000000000000130000000000000000000000000000000000000000000000000000000000000000000000000000000000000000000000000000000000000000000000000000000000000000000000000000000000000000000000000000000000000000000000000000000000000000000000000000000000000000000000000000000000000000000000000000000000000000000000000000000000000000000000000000000000000000000000000000000000000000000000000000000000000000000000000000000000000000000000000000000000000000000000000000000000000000000000000000000000000000000000000000000000000000000000000000000000000000000000000000000000000000000000000000000000000000000000000000000000000000000000000000000000000000000000000000000000000000000000000000000000000000000000000000000000000000000000000000000000000000000000000000000000000000000000000000000000000000000000000000000000000000000000000000000000000000000000000000000000000000000000000000000000000000000000000000000000000000000000000000000000000000000000000000000000000000000000000000000000000000000000000000000000000000000000000000000000000000000000000000000000000000000000000000000000000000000000000000000000000000000000000000000000000000000000000000000000000000000000000000000000000000000000000000000000000000000000000000000000000000000000530000000000000000000000000000000000000000000000000000000000000000000000000000000000000000000000000000000000000000000000000000000000000000000000000000000000000000000000000000000000000000000000000000000000000000000000000000000000000000000000000000000000000000000000000000000000000000000000000000000000000000000000000000000000000000000000000000000000000000000000000000000000000000000000000000000000000000000000000000000000000000000000000000000000000000000000000000000000000000000000000000000000000000000000000000000000000000000000000000000000000000000000000000000000000000000000000000000000000000000000000000000000000000000000000000000000000000000000000000000000000000000000000000000000000000000000000000000000000000000000000000000000000000000000000000000000000000000000000000000000000000000000000000000000000000000000000000000000000000000000000000000000000000000000000000000000000000000000000000000000000000000000000000000000000000000000000000000000000000535353230000000000000000000000000000000000000000000000000000000000000000000000000000000000000000000000000000000000000000000000000000000000000000000000000000000000000000000000000000000000000000000000000000000000000000000000000000000000000000000000000000000000000000000000000000000000000000000000000000000000000000000000000000000000000000000000000000000000000000000000000000000000000000000000000000000000000000000000000000000000000000000000000000000000000000000000000000000000000000000000000000000000000000000000000000000000000000000000000000000000000000000000000000000000000000000000000000000000000000000000000000000000000000000000000000000000000000000000000000000000000000000000000000000000000000000000000000000000000000000000
#044980:00000000000000530000005300000000
#045950:1300002300000000
#045920:00000053000000000000000000000000
#0469b0:1300002300000000
#046980:00000053000000000000000000000000
#047980:0013000000000000
#0479a0:00230000
#0479b0:0013
#047970:00000023
#048960:0000000000130000
#048920:0000000000000023
#049980:1300002300000000
#0499b0:00000053000000000000000000000000
