This file was generated by Ched 2.7.0.0.
#TITLE ""
#ARTIST ""
#DESIGNER ""
#DIFFICULTY 0
#PLAYLEVEL
#SONGID ""
#WAVE ""
#WAVEOFFSET 0
#JACKET ""
#REQUEST "ticks_per_beat 480"
#00002: 4
#BPM01: 134
#00008: 01
#TIL00: ""
#VOLUME: ""
#HISPEED 00
#MEASUREHS 00
#0161a:14
#01612:0014
#02218:14
#0221a:0014
#02214:00140000
#04714:14
#0471a:00140000
#04712:0014
#04718:00000014
#00414:0014
#0041a:24
#00518:14
#00514:0014
#0061a:14
#00612:0014
#00718:14
#00712:0014
#00814:00140000
#0081a:2414
#00912:1414
#00918:00140000
#0101a:1414
#01014:00140000
#01112:1414
#01118:00140000
#01214:0014
#0121a:24
#01210:41
#01412:14
#01418:0014
#01812:14
#0181a:0014
#02018:0014
#02014:00140000
#0201a:24
#02010:41
#02412:14
#02414:0014
#02418:00140000
#02614:14
#02612:0014
#02618:00140000
#03012:14
#0301a:14
#03013:0014
#03019:0014
#03412:14
#03418:14
#03413:0014
#03419:0014
#03514:14000014
#0351a:14
#03518:0014
#03614:00140000
#03618:0014
#03612:00000014
#0361a:24
#03610:41
#03718:14
#03714:00140000
#0371a:0014
#03712:00000014
#0381a:14
#03814:00140000
#03818:0014
#03812:00000014
#0391a:14
#03918:00340000
#04018:00140000
#04014:0014
#0401a:00000014
#04012:14
#04114:14
#04118:00140000
#04112:0014
#0411a:00000014
#04212:14
#04218:00140000
#04214:0014
#0421a:00000014
#04312:16
#04318:0016
#04418:00140000
#04414:0014
#0441a:00000014
#04412:24
#04410:41
#04512:14
#0451a:00140000
#04514:0014
#04518:00000014
#04612:14
#0461a:00140000
#04614:0014
#04618:00000014
#05012:14
#05018:00140000
#05014:0014
#0501a:00000014
#05212:14
#0521f:11
#05314:14
#0541a:14
#05518:14
#05612:14
#05618:0014
#05714:14
#0571a:0014
#06014:00140000
#06018:0014
#06012:00000014
#0601a:24
#0601f:21
#06118:14
#06114:00140000
#0611a:0014
#06112:00000014
#06110:41
#0621a:14
#06214:00140000
#06218:0014
#06212:00000014
#0631a:14
#06318:00340000
#06418:00140000
#06414:0014
#0641a:00000014
#06412:14
#06514:14
#06518:00140000
#06512:0014
#0651a:00000014
#06612:14
#06618:00140000
#06614:0014
#0661a:00000014
#06712:16
#06718:0016
#06814:14
#07018:14
#0701a:00000000000000000000000000000054
#05814:14
#05918:0024
#05914:00000024
#05112:24
#05114:00240000
#05116:0024
#05118:00000024
#04812:00340000
#0491a:00340000
#02810:41
#0395a:54
#03958:0014
#04352:16
#04358:0016
#05252:54
#05354:54
#0545a:64
#05558:64
#05658:0014
#0575a:0014
#0635a:54
#06358:0014
#06752:16
#06758:0016
#06854:54
#07058:64
#05854:54
#000380:1424
#001340:1424
#0023a0:1424
#003320:1424
#013380:1424
#015340:1424
#017380:1424
#019340:1424
#021340:1424
#023320:1424
#025380:1424
#0273a0:1424
#028340:14
#028320:0024
#029380:14
#0293a0:0024
#031320:1424
#0313a1:1424
#032321:14
#032341:0024
#0333a1:14
#033381:0024
#0393a1:14
#039381:00342400
#048341:14
#048321:00343424
#049381:14
#0493a1:00343424
#052321:14
#052341:0034
#053341:34
#053321:0024
#0543a1:14
#054381:0034
#055381:34
#0553a1:0024
#058341:14
#059321:24
#0633a1:14
#063381:00342400
#068341:14
#069321:24
#070381:14
#0703a1:00000000000000000000000000000024
