This file was generated by Ched 2.7.0.0.
#TITLE ""
#ARTIST ""
#DESIGNER ""
#DIFFICULTY 0
#PLAYLEVEL
#SONGID ""
#WAVE ""
#WAVEOFFSET 0
#JACKET ""
#REQUEST "ticks_per_beat 480"
#00002: 4
#BPM01: 170
#00008: 01
#TIL00: ""
#VOLUME: ""
#HISPEED 00
#MEASUREHS 00
#0511f:11
#0511a:00120012
#05116:1200000012120000
#02916:1313
#02912:00240024
#0291b:0033003300330033
#02910:41
#03317:1313
#0331a:00240024
#03312:0033003300330033
#01215:0000001300001300
#0121b:0013000000000000
#01218:0000000000130013
#01112:0000130000000013
#0111b:00130013
#01115:0013
#01118:13
#00315:0000135353005300
#00318:0000000000001353
#00319:53530000
#00219:0000000000001353
#00213:0000135353005300
#0021a:53530000
#0631a:0000000014140000
#06312:13130000
#06316:0000000000130000
#06317:0000140000000014
#0631b:23
#05912:0000000014140000
#0591b:00130000
#05917:0000000000130000
#05915:0000140000000014
#0591f:21
#05913:24
#05919:24
#05910:0041
#05516:1212001200120000
#0551a:00120012
#05518:0012
#05318:00120012
#05314:1200000012120000
#0571a:00000000120000000000000012525252
#05716:1212000012120000
#06616:0013002400001400
#06612:00002424
#0661a:00240000
#05017:0013000000000000
#05016:0000002400000000
#0501a:0024
#05012:00240000
#05010:41
#0491b:00000000000000330000000000001300
#04917:00140000
#04915:0014000000130000
#04918:00000013
#04912:00141300
#0491a:0014000000000000
#04916:0000000000000024
#0281a:14
#02812:14
#02813:00000000000000000017000000000000
#02815:0000001300000000
#02818:00130000
#0771a:2400000014000024
#07714:00000000000000000014000000140000
#07717:0000000000141400
#07712:00000000240000000000001400000000
#07716:24240000
#07614:0013000000130000
#07619:0000001300000000
#07612:00240024
#0761a:2424
#07616:24242424
#06512:00001400000000330000000000001300
#06515:00140013
#06518:0000000000130000
#06517:0014000000000000
#0651b:0013
#0651a:00140000
#06516:0000000000000024
#06715:0013
#06718:0013
#0671a:14
#06712:14
#06218:13130000
#06215:1300001300000014
#0621b:00002313
#06217:0000000000140000
#06212:00001323
#06417:0000001400140000
#0641a:00001414
#0641b:0013000000000000
#06415:0014000024002400
#06412:0000002400240024
#06015:0000001400140000
#06012:0013000014001400
#06017:0014000024002400
#0601a:0000002400240024
#06112:0000000023000013
#0611b:0023000000000023
#06118:0000002300000000
#06115:00230000
#06119:00000023
#06117:0000000000230000
#04616:00000013
#04615:00130000
#04619:0000000000000013
#04614:0000000000130000
#0461b:0023000013002300
#04618:0000001300000000
#04612:0023
#0471b:00130000
#04717:1300000000130000
#04715:0000140000000014
#04712:1414
#04812:0013000014001400
#04817:0014000014001400
#0481a:0000002400140000
#04815:0000001400140000
#04312:00130000
#04316:1300000000130000
#04317:0000140000000014
#0431a:2414
#04116:0000000000140000
#04119:00000025
#04118:00230000
#04115:0023000000000023
#04112:2400002400002500
#0411a:2400002400000000
#04012:00140014
#0401b:0013001300130000
#04015:2323
#03912:00140014
#03918:0013001300130013
#03915:2323
#03910:41
#0381a:00140014
#03812:0013001300130013
#03818:2323
#0371a:00140014
#03715:0013001300130013
#03718:2323
#03615:13000013
#03618:1300000000130000
#03612:0000000000000013
#02512:1300000000000013
#0251b:0000000000000013
#02516:0000000000240000
#02112:2313000000000000
#02118:0000130000000013
#02115:0000001300001300
#0211b:0000000023130000
#07419:00140014001400000000000000000000
#0741a:14140000
#07418:0014000000000000
#07413:00140014001400000000000000000000
#07412:14140000
#07414:0014000000000000
#07319:00140014001400140014001400140014
#07318:0014001400140014
#0731a:14141414
#07313:00140014001400140014001400140014
#07314:0014001400140014
#07312:14141414
#07219:00000000000000000000000000000014
#07218:2300230022000014
#07213:00000000000000000000000000140014
#07214:0000000000000014
#07212:00000024
#07216:0022
#07217:0000002200000000
#07215:23
#07012:00230013
#07018:0000001400140025
#0701b:00130023
#07014:0014000000000000
#07013:0000000000000025
#04218:23000015001500150000000000000000
#04219:0025001500000000
#04217:00150000
#04212:0025000000000000
#03512:0000001300000013
#03515:00000013
#03517:13
#03518:00000013
#0351b:0000000013000013
#0011a:0000000000001353
#00112:0000135353005300
#0011b:53530000
#0001b:0000000000001353
#0311b:0000001300000000
#03116:0000001300000000
#03118:0000000000000014
#01012:0000001400140014
#01018:0013000000001300
#0101b:00130000
#01015:13
#00818:0013000000000014
#00814:0000000000140000
#0081a:0000001400000000
#00815:00130000
#00812:13
#00912:13000013
#0091b:00130013
#00915:00130000
#00918:0013
#0061a:0000001400140014
#00615:0013000000001300
#00612:00130000
#00618:13
#02215:0000001300001300
#0221b:00130000
#02212:2313000000000000
#02218:0000000000130013
#02018:1300000000130013
#02015:0013001300001300
#0201b:00130000
#01712:0000130000000013
#0171b:00130013
#01715:0000001300130000
#01718:2313
#01710:41
#0191b:00000013
#01915:1300001300000000
#01912:0000000000000013
#0181b:0000130000000013
#01812:00000013
#01818:0013000000130000
#01815:1300001300000000
#01512:0013000000000000
#01518:13130013
#01515:0000000000000013
#0151b:0000000000130000
#01618:0000001300000000
#01612:00130000
#01615:0000000000130013
#0161b:00000013
#01415:0013000000130013
#0141b:00000013
#01418:1300001300000000
#01412:00130000
#0071b:00130013
#00712:00130000
#00718:0013
#00715:13000013
#00512:00130013
#00518:00130000
#00515:1313
#0051b:13000013
#00510:41
#06914:0000000000000014
#06912:00230013
#06918:1300001300130000
#06915:0013000013000000
#0691b:00130023
#05818:0012000000000000
#05816:12
#05813:0000000000000054
#05819:00005253
#05814:0000000000530000
#05815:0000005200000000
#0581a:52
#05618:00120012
#05614:1212001200120000
#05414:1200001200120000
#05418:00120012
#0521a:00120012
#05216:1212001200120000
#03016:1313
#03012:00240024
#0301b:0033003300330033
#04515:00000013
#04518:0000000000130000
#0451b:0013
#04512:0013001300000023
#04516:00140000
#04517:0000000000000023
#0441a:00001414
#04415:0014000014001400
#04412:0000002400140000
#04417:0000001400140000
#0441b:0013000000000000
#03417:1313
#0341a:00240024
#03412:0033003300330033
#03212:0000140000130013
#03217:0000001400001300
#0321a:0014000000000000
#03214:14
#02715:0000130000000013
#02718:0000001300001300
#02712:0000000013130000
#0271b:1313000000000000
#02615:1300000000000013
#0241b:0000000000000013
#02418:1300001300001300
#02415:0013000000130000
#02412:00130000
#0231b:0000000000000013
#02315:1300000000131300
#02318:0000131300000000
#0131b:0013001300000013
#01312:24000013
#01318:0000000000130000
#01315:0013
#00412:0024
#00418:53005353000053005300000000000000
#07512:00002424
#0751a:24240000
#07516:24242424
#07116:0000000000000024
#07114:00002424
#07118:00252400
#07115:0000002600000000
#08316:0000000000000054
#02655:0000001300000000
#02658:0000001300000000
#0745a:24240014
#07452:24240014
#07459:00640064006400000000000000000000
#07458:0024000000000000
#07453:00540054005400000000000000000000
#07454:0024000000000000
#06457:0000005400540014
#06452:0000000000000014
#0645a:00005454
#0645b:0053000000000000
#06455:0014000000000000
#06055:0000006400640014
#0605a:0000000000000014
#06052:0063000064006400
#06057:0014000000000000
#0485a:0000006400640014
#04855:0000006400640014
#04852:0063000064006400
#04857:0014000064006400
#04257:00251500
#04259:0025002500000000
#04252:0015000000000000
#04258:00000065006500650000000000000000
#03652:0000001300000000
#0365b:0000001300000000
#03655:63
#03658:63
#05959:14
#05953:14
#0595b:00630000
#05957:0000000000630000
#05955:0000000000000014
#0315b:1300006300000000
#03156:0000005300000000
#03552:1300000000000063
#03555:00000063
#03557:63
#03558:00000053
#0355b:0000000063000053
#04452:0000005400540014
#04457:0000005400540014
#0445a:00005454
#04455:0014000054005400
#0445b:0053000000000000
#02855:0000005300001300
#02853:00000000000000000027000000000000
#0435a:14
#04352:00530000
#04356:5300000000530000
#04357:0000000000000014
#07752:00140000
#0775a:1400000000000064
#07652:00140014
#0765a:1414
#07552:00001414
#0755a:14140000
#04956:0000000000000064
#04957:00540000
#0505a:0014
#06556:0000000000000054
#06555:00640000
#06652:0014
#06656:00000054
#0635b:13
#06352:00530000
#06356:0000000000530000
#06357:0000000000000014
#0615b:0000000000000063
#06152:0000000000000063
#04552:0000000000000053
#04159:00000015
#04152:0000001400000000
#0415a:14
#07058:0000000000000015
#07252:00000024
#07256:0012
#07258:1300000000000024
#07259:00000000000000000000000000000064
#07253:00000000000000000000000000540054
#07254:0000000000000024
#07154:0014
#03052:00140014
#02952:00140014
#0345a:00140014
#0335a:00140014
#01352:14
#01255:0000006300000000
#0125b:0063000000000000
#01152:0000000000000053
#0115b:00230000
#01155:0063
#01158:63
#06755:0023
#06758:0023
#0675a:54
#06752:64
#06258:23
#06255:23
#0475b:00630000
#04757:6300000000630000
#04755:0000000000000014
#04752:14
#04052:00140014
#03952:00140014
#0385a:00140014
#0375a:00140014
#07359:00640064006400640064006400640064
#07358:0024002400240024
#0735a:24242424
#07353:00540054005400540054005400540054
#07354:0024002400240024
#07352:24242424
#01052:0000001400140014
#00858:0000000000000014
#00854:0000000000140000
#0085a:0000001400000000
#00952:63
#0095b:00000023
#00955:00230000
#00958:0063
#0065a:0000001400140014
#02255:0000001300000000
#02055:0000001300000000
#01855:0000001300000000
#01658:0000001300000000
#0075b:00000023
#00752:00230000
#00758:0053
#00755:53
#00552:00000023
#00558:00230000
#0055b:53
#00555:0053
#03257:0000001400000000
#02458:0000001300000000
#02355:53
#02358:0000005300000000
#01458:0000001300000000
#0053b0:1323
#005380:00530000
#005351:0013
#005321:00000053
#006351:23
#007351:1323
#007321:00530000
#007380:0013
#0073b0:00000053
#008380:23
#009320:1323
#009350:00530000
#009381:0013
#0093b1:00000053
#010381:23
#011381:1323
#0113b1:00530000
#011350:0013
#011320:00000023
#011320:0000000000000013
#012350:0023000000000000
#0123b1:0013000000000000
#012381:0000002300000000
#012350:0000001300000000
#012320:0000000000230000
#015350:0000001300230000
#016380:13230000
#019380:0013002300000000
#019350:00001323
#023350:13
#023320:0000002300000000
#023381:0000001300000000
#0233b1:00000023
#025321:0013000000000000
#025351:00000053000023000000000000000000
#025380:0000001300000000
#0253b0:00000000000000530000230000000000
#026380:0013332300000000
#026351:0000132300000000
#0263b1:0000000000130000
#026381:00000000000000000000005333002300
#028351:0000001300002300
#028331:00000000000000000057000000000000
#0293b1:1333003333330033
#029381:00330033
#0303b1:3333003333330033
#030381:00330033
#0313b1:23
#031360:1300003300000000
#031320:00000023
#0313b1:0000001300000000
#031371:00000023
#033321:1333003333330033
#033351:00330033
#034321:3333003333330033
#034351:00330033
#035321:23
#035370:13
#0353b0:0000002300000000
#0353b0:0000000013000033
#035380:00000033
#036380:33
#0363b0:0000002300000000
#035351:00000013
#035321:0000000000000033
#036351:33
#036321:0000002300000000
#0413a1:0000001400240000
#042391:0015005500000000
#042381:00000055005500550000000000000000
#042371:00552500
#043361:1323
#043321:00330000
#043361:0000000000130000
#043321:0000000000000023
#0443b1:0013000000000000
#044371:0000003400340024
#0443a1:00003434
#044320:0000001400340024
#044350:00003434
#045320:0000000000000013
#046360:0023000000000000
#047370:1323
#0473b0:00330000
#047370:0000000000130000
#0473b0:0000000000000023
#048320:0013000034003400
#048350:0000003400340024
#0483a1:0000001400340024
#048371:00003434
#049371:00140000
#0493b1:00000000000000332300000000000000
#049361:0000000000000014
#050321:0024000000000000
#058351:000000000000000000000000125353535353220000000000000000000000000000000000000000000000000000000000
#058341:000000000000000000000000000000000000000000000000005300530053005300530053000000000000000000000000000000000000000000000000000000000000000000000000000000000000000000000000000000000000000000000000
#058390:000000000000000000000000000000000000000000000000000000000000000000000000125300530053005300530053220000000000000000000000000000000000000000000000000000000000000000000000000000000000000000000000
#058380:000000000000000000000000000000000000005353535353000000000000000000000000000000000000000000000000
#058341:000000000000000000000000000000000000000000000000135454545454230000000000000000000000000000000000
#058331:000000000000000000000000000000000000000000000000000000000000000000000000000000000000000000000000005400540054005400540054000000000000000000000000000000000000000000000000000000000000000000000000
#058390:000000000000000000000000000000000000000000000000000000000000000000000000000000000000000000000000000000000000000000000000135400540054005400540054230000000000000000000000000000000000000000000000
#058380:000000000000000000000000000000000000000000000000000000000000005454545454000000000000000000000000
#058331:000000000000000000000000000000000000000000000000000000000000000000000000145555555555240000000000
#058321:000000000000000000000000000000000000000000000000000000000000000000000000000000000000000000000000000000000000000000000000000000000000000000000000005500550055005500550055000000000000000000000000
#058390:000000000000000000000000000000000000000000000000000000000000000000000000000000000000000000000000000000000000000000000000000000000000000000000000000000000000000000000000145500550055005500550055
#058380:000000000000000000000000000000000000000000000000000000000000000000000000000000000000005555355555
#059390:24
#0593b0:00130000
#059370:0023
#059370:0000000000130000
#0593b0:0000000000000023
#060320:0013000034003400
#060350:0000003400340024
#0613b0:0013230000000000
#061351:0000132300000000
#061380:0000001323000000
#061321:0000000013000033
#062351:53
#062321:0023000000000000
#0613b0:0000000000000013
#062380:53
#0623b0:0023000000000000
#063320:00130000
#063360:0023
#063360:0000000000130000
#063320:0000000000000023
#0643b0:0013000000000000
#064370:0000003400340024
#0643a0:00003434
#065350:00140000
#065320:00000000000000332300000000000000
#065360:0000000000000014
#0663a0:0024000000000000
#066360:00000014
#0673a0:34
#067380:0053
#0683c0:00000022
#067321:14
#067351:0053
#068321:00000022
#070331:0000000000000015
#071331:00250000
#071381:00001424
#072351:13230000
#072381:00001222
#072320:00000014
#072330:00000000000000000000000000540054
#072340:0000000000000034
#073320:54545454
#073330:00540054005400540054005400540054
#073340:0054005400540054
#074320:540000000000000000000000540000000000005454545454545454545454545454545454240000000000000000000000
#074330:000000000000540000000000000000000000540000000000000000000000540000000000000000540054005400540054005400540054005400540054005400540054005400540054000000000000000000000000000000000000000000000000
#074340:0054003400000000
#072381:0000000000000014
#072391:00000000000000000000000000000054
#0733a1:54545454
#073391:00540054005400540054005400540054
#073381:0054005400540054
#0743a1:540000000000000000000000540000000000005454545454545454545454545454545454240000000000000000000000
#074391:000000000000540000000000000000000000540000000000000000000000540000000000000000540054005400540054005400540054005400540054005400540054005400540054000000000000000000000000000000000000000000000000
#074381:0054003400000000
#0773a1:0000000000000014
#080361:000000000000000000545454565454545454545454545454
#080351:000000000000000000000000000000000000005400540054005400540054005400540054005400540054000000540054
#080331:000000000000000000000000000000000000000000000000000000000000000000000000000000000000005600000000
#081361:545454565454545454545454565454545454545454545454
#081351:005400540054005400540054005400540054005400540054005400540054005400540054005400540054000000540054
#081331:000000000000000000000000000000000000000000000000000000000000000000000000000000000000005600000000
#082361:545454565454545454545454565454545454545454545454
#082351:005400540054005400540054005400540054005400540054005400540054005400540054005400540054000000540054
#082331:000000000000000000000000000000000000000000000000000000000000000000000000000000000000005600000000
#083361:545454565454545454545454565454545454545454240000
#083351:005400540054005400540054005400540054005400540054005400540054005400540054005400540054000000000000
#0009b0:00000013
#0019b0:00230000
#001921:00130023
#0019a0:00000013
#0029a0:00230000
#002931:00130023
#002990:00000013
#003990:00230000
#003951:00130023
#003980:00000013
#004980:0023
#0579a0:00000012
#0589a0:22
#083960:0000000000000014
#085970:000000000000000000000000000000000000000000000000000000000000000000000000000000000000000000000000000000000000000000000000000000000000000000000000000000000000000000000022000000000000000000000000
