This file was generated by Ched 2.7.0.0.
#TITLE ""
#ARTIST ""
#DESIGNER ""
#DIFFICULTY 0
#PLAYLEVEL
#SONGID ""
#WAVE ""
#WAVEOFFSET 0
#JACKET ""
#REQUEST "ticks_per_beat 480"
#00002: 4
#BPM01: 170
#00008: 01
#TIL00: ""
#VOLUME: ""
#HISPEED 00
#MEASUREHS 00
#0671a:14
#06717:0000000000000014
#07218:0000000026000014
#07214:00000014
#07212:26
#0051a:14
#00510:41
#00614:14
#00618:0014
#00712:14
#00818:14
#00814:0014
#0091a:14
#01014:14
#01018:0014
#01112:14
#01218:14
#01214:0014
#01314:0014
#0131a:24
#01512:14
#01518:0014
#0171a:14
#01714:0014
#01710:41
#01818:14
#01912:14
#01918:0014
#02014:14
#02114:0014
#0211a:24
#0221a:14
#02218:0014
#02214:00140000
#02318:0014
#02312:14
#02412:14
#02418:00140000
#02414:0014
#0251a:14
#02512:0014
#02618:14
#02614:00140000
#0261a:0014
#02712:14
#0271a:0014
#02814:14
#02818:00140000
#02812:0014
#0291a:24140000
#02913:00001414
#02910:41
#03019:14140000
#03012:00001414
#03118:14
#0311a:0014
#03218:14
#03312:24140000
#03319:00001414
#03413:14140000
#0341a:00001414
#03514:14
#03512:0014
#03614:14
#0371a:1414
#03714:00140014
#03818:1414
#03812:00140014
#0391a:1414
#03914:00140014
#03910:41
#04018:1414
#04012:00140014
#04218:0014000000000000
#04318:00140000
#04314:0014
#0431a:00000014
#04312:24
#04412:14
#04418:00140000
#04714:00140000
#04718:0014
#04712:00000014
#0471a:24
#0481a:14
#04814:00140000
#04518:16
#04515:0016
#04612:16
#04618:0014
#04614:00000014
#04912:16
#04915:0016
#05112:14540054
#0511f:11
#0551a:14540054
#05814:00000014
#0581a:00540000
#05912:00140000
#05918:2614
#05914:00000014
#0591f:21
#05910:0041
#0601a:14
#06012:00140000
#0631a:00140000
#06314:0014
#06318:00000014
#06312:26
#06412:14
#0641a:00140000
#0651a:1414
#06512:00140014
#06618:1414
#06614:00140000
#06612:00000014
#06912:14
#06918:00140000
#06914:0014
#0691a:00000014
#07012:14
#07018:00140000
#07014:0014
#0701a:00000014
#0731a:0000000000140000
#07512:00140000
#07518:0014
#07514:00000014
#0751a:24
#0761a:14140000
#07612:00001414
#0771a:1400000000000024
#07714:00140000
#07718:0014
#07712:00000014
#05012:00260000
#05018:2626
#05010:41
#06112:2424
#0611a:00240024
#06214:24
#06218:0024
#07112:26
#07118:0026
#05212:00540054
#05312:00540054
#05412:00540054
#0561a:00540054
#0571a:00540054
#0861a:64
#0675a:54
#06757:0000000000000024
#0775a:0000000000000064
#05958:16
#07258:0000000000000064
#00452:0014
#0135a:14
#01858:54
#02054:64
#02258:0014
#02454:0014
#0265a:0014
#02852:0014
#0325a:0014
#03258:54
#03158:54
#0315a:0054
#03554:64
#03552:0064
#03654:64
#03652:0014
#04258:0054000000000000
#0425a:0014
#04454:00000014
#04858:00000014
#05058:0016
#06058:00000014
#06352:16
#06454:00000014
#0755a:14
#0735a:0000000000240000
#0013a0:1424
#002340:1424
#003380:1424
#004320:1424
#014380:1424
#016340:1424
#018380:14
#0183a0:0024
#020340:14
#020320:0024
#031380:14
#0313a0:0034
#032380:34
#0323a0:0024
#035340:14
#035320:0034
#036340:34
#036320:0024
#0413a0:14000034
#041380:0000003400000000
#042380:0034000000000000
#0423a0:0024
#044340:00001424
#048380:00001424
#060380:00001424
#062340:14240000
#062380:00001424
#064340:00001424
#0673a0:14
#067370:0000000000000054
#0683a0:00000024
#072380:0000000000000014
#0733a0:0000000000540000
#074380:0000003400000000
#0743a0:0054
#0753a0:24
#0773a0:0000000000000014
#081350:0000000000000036
#0863a0:24
#051920:14
#054920:000000000000000000000000000000000000000000000000000000000000000000000000000000000000000000000000000000000000000000000000000000000000000000000000000000000000000000000000000000000000000000000000000000000000000000000000000000000000000000000000000000000000000000000000000000000000000000000000000000000000000000000000000000000000000000000000000000000000000000000000000000000000000000000000000000000000000000000000000000000000000000000000000000000000000000000000000000000000000000000000000000000000000000000000000000000000000000000000000000000000000000000000000000000000000000000000000000000000000000000000000000000000000000000000000000000000000000000000000000000000000000000000000000000000000000000000000000000000000000000000000000000000000000000000000000000000000000000000000000000000000000000000000000000000000000000000000000000000000000000000000000000000000000000000000000000000000000000000000000000000000000000000000000000000000000000000000000000000000000000000000000000000000000000000000000000000000000000000000000000000000000000000000000000000000000000000000000000000000000000000000000000000000000000000000000000000000000000000000000000000000000000000000000000000000000000000000000000000000000000000000000000000000000000000000000000000000000000000000000000000000000000000000000000000000000000000000000000000000000000000000000000000000000000000000000000000000000000000000000000000000000000000000000000000000000000000000000000000000000000000000000000000000000000000000000000000000000000000000000000000000000000000000000000000000000000000000000000000000000000000000000000000000000000000000000000000000000000000000000000000000000000000000000000000000000000000000000000000000000000000000000000000000000000000000000000000000000000000000000000000000000000000000000000000000000000000000000000000000000000000000000000000000000000000000000000000000000000000000000000000000000000000000000000000000000000000000000000000000000000000000000000000000000000000000000000000000000000000000000000000000000000000000000000000000000000000000000000000000000000000000000000000000000000000000000000000000000000000000000000000000000000000000000000000000000000000000000000000000000000000000000000000000000000000000000000000000000000000000000000000000000000000000000000000000000000000000000000000000000000000000000000000000000000000000000000000000000000000000000000000000000000000000000000000000000000000000000000000000000000000000000000000000000000000000000000000000000000000000000000000000000000000000000000000000000000000000000000000000000000000000000000000000000000000000000000000000000000000000000000000000000000000000000000000000000000000000000000000000000000000000000000000000000000000000000000000000000000000000000000000000000000000000000000000000000000000000000000000000000000000000000000000000000000000000000000000000000000000000000000000000000000000000000000000000000000000000000000000000000545454240000000000000000000000000000000000000000000000000000000000000000000000000000000000000000000000000000000000000000000000000000000000000000000000000000000000000000000000000000000000000000000000000000000000000000000000000000000000000000000000000000000000000000000000000000000000000000000000000000000000000000000000000000000000000000000000000000000000000000000000000000000000000000000000000000000000000000000000000000000000000000000000000000000000000000000000000000000000000000000000000000000000000000000000000000000000000000000000000000000000000000000000000000000000000000000000000000000000000000000000000000000000000000000000000000000000000000000000000000000000000000000000000000000000000000000000000000000000000000000000000000000000000000000000000000000000000000000000000000000000000000000000000000000000000000000000000000000000000000000000000000000000000000000000000000000000000000000000000000000000000000000000000000000000000000000000000000000000000000000000
#0559a0:14
#0589a0:000000000000000000000000000000000000000000000000000000000000000000000000000000000000000000000000000000000000000000000000000000000000000000000000000000000000000000000000000000000000000000000000000000000000000000000000000000000000000000000000000000000000000000000000000000000000000000000000000000000000000000000000000000000000000000000000000000000000000000000000000000000000000000000000000000000000000000000000000000000000000000000000000000000000000000000000000000000000000000000000000000000000000000000000000000000000000000000000000000000000000000000000000000000000000000000000000000000000000000000000000000000000000000000000000000000000000000000000000000000000000000000000000000000000000000000000000000000000000000000000000000000000000000000000000000000000000000000000000000000000000000000000000000000000000000000000000000000000000000000000000000000000000000000000000000000000000000000000000000000000000000000000000000000000000000000000000000000000000000545454240000000000000000000000000000000000000000000000000000000000000000000000000000000000000000000000000000000000000000000000000000000000000000000000000000000000000000000000000000000000000000000000000000000000000000000000000000000000000000000000000000000000000000000000000000000000000000000000000000000000000000000000000000000000000000000000000000000000000000000000000000000000000000000000000000000000000000000000000000000000000000000000000000000000000000000000000000000000000000000000000000000000000000000000000000000000000000000000000000000000000000000000000000000000000000000000000000000000000000000000000000000000000000000000000000000000000000000000000000000000000000000000000000000000000000000000000000000000000000000000000000000000000000000000000000000000000000000000000000000000000000000000000000000000000000000000000000000000000000000000000000000000000000000000000000000000000000000000000000000000000000000000000000000000000000000000000000000000000000000000000000000000000000000000000000000000000000000000000000000000000000000000000000000000000000000000000000000000000000000000000000000000000000000000000000000000000000000000000000000000000000000000000000000000000000000000000000000000000000000000000000000000000000000000000000000000000000000000000000000000000000000000000000000000000000000000000000000000000000000000000000000000000000000000000000000000000000000000000000000000000000000000000000000000000000000000000000000000000000000000000000000000000000000000000000000000000000000000000000000000000000000000000000000000000000000000000000000000000000000000000000000000000000000000000000000000000000000000000000000000000000000000000000000000000000000000000000000000000000000000000000000000000000000000000000000000000000000000000000000000000000000000000000000000000000000000000000000000000000000000000000000000000000000000000000000000000000000000000000000000000000000000000000000000000000000000000000000000000000000000000000000000000000000000000000000000000000000000000000000000000000000000000000000000000000000000000000000000000000000000000000000000000000000000000000000000000000000000000000000000000000000000000000000000000000000000000000000000000000000000000000000000000000000000000000000000000000000000000000000000000000000000000000000000000000000000000000000000000000000000000000000000000000000000000000000000000000000000000000000000000000000000000000000000000000000000000000000000000000000000000000000000000000000000000000000000000000000000000000000000000000000000000000000000000000000000000000000000000000000000000000000000000000000000000000000000000000000000000000000000000000000000000000000000000000000000000000000000000000000000000000000000000000000000000000000000000000000000000000000000000000000000000000000000000000000000000000000000000000000000000000000000000000000000000000000000000000000000000000000000000000000000000000000000000000000000000000000000000000000000
