This file was generated by Ched 2.7.0.0.
#TITLE ""
#ARTIST ""
#DESIGNER ""
#DIFFICULTY 0
#PLAYLEVEL
#SONGID ""
#WAVE ""
#WAVEOFFSET 0
#JACKET ""
#REQUEST "ticks_per_beat 480"
#00002: 4
#BPM01: 168
#00008: 01
#TIL00: ""
#VOLUME: ""
#HISPEED 00
#MEASUREHS 00
#00119:14
#00213:14
#00319:14
#00413:14
#0051a:14
#00510:41
#00614:14
#0071a:14
#00814:14
#00918:14
#01012:14
#01118:14
#01212:14
#0211a:14
#02110:41
#0221a:14
#02314:14
#02414:14
#02518:14
#02618:14
#02712:14
#02812:14
#0291a:14
#02914:0014
#0301a:14
#03112:14
#03118:0014
#03110:41
#03212:14
#0331a:14
#03314:0014
#0341a:14
#03512:14
#03518:0014
#03612:14
#05319:14
#05313:14
#0531f:11
#05814:14
#05918:14
#06118:0016
#06112:26
#0611f:21
#06212:16
#06218:0016
#06210:41
#06512:1616
#06618:1616
#06712:16
#06718:0016
#06912:0016
#06918:26
#07018:16
#07012:0016
#07318:1616
#07412:1616
#07518:16
#07512:0016
#07712:0016
#07818:1616
#07812:00160000
#07918:2616
#08012:1616
#08018:00160000
#08112:2616
#08218:1616
#08212:00160000
#08318:0016
#08312:26
#08518:0016
#08512:26
#08510:41
#08612:1616
#08618:00160000
#08712:2616
#08818:1616
#08812:00160000
#08918:2616
#09012:1616
#09018:00160000
#09112:0016
#09118:26
#08412:2626
#08418:00260026
#09218:2626
#09212:00260026
#09318:26
#09312:0026
#09412:26
#09518:0026
#09618:26
#09712:0026
#09812:26
#0541a:00000000000000000000003400000000
#0551a:00000000340000000000000000340000
#0561a:0000003400000000
#04510:41
#0133a0:1434
#0143a0:24
#015340:1434
#016340:24
#017380:1434
#018380:24
#019320:1434
#020320:24
#0373a0:14
#038380:34
#0393a0:34
#040380:24
#041320:14
#042340:34
#043320:34
#044340:24
#045380:14
#0453a0:0034
#046380:34
#0463a0:0034
#047380:34
#0473a0:0034
#048380:24
#049340:14
#049320:0034
#050340:34
#050320:0034
#051340:34
#051320:0000000034343424
#0543a0:00000000000000001400003400000000
#054380:0000000000000034
#055380:00340000000000000000000000000000
#0553a0:00000000340000340000340000340000
#056380:34000034000000000000000000000000
#0563a0:00000000000034000034000034003400
#0573a0:24
#063320:1626
#064380:1626
#068320:16362600
#071380:1626
#072320:1626
#076380:16363636
#077380:26
#094320:16000000360000003600003600003600
#095320:26
#096380:16000000360000003600003600003600
#097380:26
#098320:16000000360000003600003600003600
#099320:36000036000036003600003600003600
#100320:36000036000036003600003600002600
