This file was generated by Ched 2.7.0.0.
#TITLE ""
#ARTIST ""
#DESIGNER ""
#DIFFICULTY 0
#PLAYLEVEL
#SONGID ""
#WAVE ""
#WAVEOFFSET 0
#JACKET ""
#REQUEST "ticks_per_beat 480"
#00002: 4
#BPM01: 168
#00008: 01
#TIL00: ""
#VOLUME: ""
#HISPEED 00
#MEASUREHS 00
#0011b:13
#00112:00130000
#00115:2323
#00118:0000230000000023
#0031b:13
#00312:00130000
#00315:2323
#00318:0000230000000023
#00512:1313
#00518:00001300000013000000001300001300
#00515:0000130000131300
#0051b:1313
#00510:41
#0061b:1300000013130000
#00612:1300000013130000
#00615:00130000
#00618:0013001300000000
#00912:1323
#00919:00001300000013000000001300000000
#00916:00140014
#0091b:2313
#00914:0000000000130013
#01012:1300000023130000
#01019:0013001300000000
#01016:00140000
#0101b:2300000013130000
#0111b:1323
#01114:00001300000013000000001300000000
#01116:00140014
#01112:2313
#01119:0000000000130013
#0121a:1400140024131400
#01215:0014000000000000
#01212:24140000
#01217:0000001400000000
#01216:00000000000000000014001400000000
#01512:1313
#01514:0013001300000000
#01516:00000000130000000000001300000000
#01519:0000000000130013
#01517:2323
#0151b:00230023
#01617:1313
#01614:0013001300000000
#01619:00000000001300000000130000000000
#0161b:00000013
#01612:2323
#01616:00230024
#01718:00001300000013000000001300000000
#01715:0000130000130013
#01712:13002323
#0171b:23232313
#01818:0013001300000000
#01815:00000000001300000000000000000000
#01812:2300000013130000
#0181b:2300230023130000
#0191a:1222
#01918:0012001200001200
#01916:0000120000120012
#01914:2212
#02018:0012000000120000
#02016:0000001200001200
#02014:22222200
#0201a:22222200
#0211b:13535353530000130000001300000000
#02112:0000001313001300
#02118:00000000001300000013000000001300
#02115:0000130000130000
#02110:41
#02212:13535353530000130000001300000000
#0221b:1300001313001300
#02215:00000000001300000013000000001300
#02218:0000130000130000
#02315:0013
#0231a:00530000001300000013000000000000
#02314:0000001300130000
#02319:00005300000000000000001300000000
#02313:00130013
#02318:00000053000000000000000000130000
#02312:1300000000000013
#0231b:13000000000000130000000000000000
#02317:00530000
#02517:00000000001300130000000000001300
#02512:1300131313000013
#02518:00130000000000000000000000000000
#02515:00001300000000000000005300000000
#0251b:00000013000000000000000013000000
#02513:00000000000000000053000000000000
#02514:0000000000530000
#02516:00000053
#02716:0014001400140014
#0281b:13131313
#02812:13131313
#02815:0016001600160016
#02912:1313
#02919:00530053001300000013000000000000
#02914:0000001300130000
#0291b:13000000530000000000001300001300
#02916:00130000
#02917:00005300000000130000000000000000
#03015:1313000000000000
#0301b:00130000000000000000000000000000
#03018:00000013000000000000000000000000
#03012:0000131313000000
#03017:00000000001300000000000000000000
#03019:00000000000000130000000000000000
#03112:00001313
#03116:24002400240000000014001400000000
#03114:00140014000000000000130000005300
#03110:41
#03113:00000000000000000000000000530000
#03115:00000000000000000000000000000053
#0321b:13130023
#03216:53140014000000000000000000000000
#03219:0013005300000000
#03212:0023
#0321a:00000000005300000000000000000000
#03218:00000000000000530000000000000000
#03217:0053
#0351a:00000000000000001400000000530000
#03512:00000000000000000014001400000000
#03516:2424240000140000
#0351b:53000013
#03518:00140014000000000000000000000053
#03519:0000000000000053
#03612:14130023
#0361a:0000140000001400000000000000000000630000000000630000000000000000
#03616:0014000053000063
#0361b:00002363
#03617:5300000000630000
#03613:0000000000000000000053000000000000000000000000000063000000000063
#03614:00000000000053000000000000630063
#03615:0000000000000000000000000000530000000000000000000000006300630000
#03619:00000000000000000063006300000000
#03618:0000000000000000000000000000000000000063006300000000000000000000
#0371b:1300000000130000
#03712:6300131300000000
#03717:0000001300000000
#03716:0000000000130000
#03812:0013000000130000
#0381b:0000001300001300
#03816:00000013
#03912:1300000000130000
#0391b:0000131300000000
#03916:0000001300000000
#03917:1300000000130000
#0401b:0013000000130000
#04012:0000001300001300
#04017:00000013
#04112:0000131300000000
#04117:0000131300000000
#0411b:1300000000130000
#04116:1300000000130000
#04118:0000000000000013
#04216:0000000000130000
#04212:00130013
#0421b:13000013
#04215:0013000000000000
#04218:0000001300000000
#0431b:0000131300000000
#04316:0000131300000000
#04312:1300000000130000
#04317:1300000000130000
#04315:0000000000000013
#04417:0000000000130000
#0441b:00130013
#04412:13000013
#04418:0013000000000000
#04415:0000001300000000
#04512:1300000000130000
#04516:0000131300000013
#0451a:24242424
#04510:41
#04612:0013000000131300
#04616:0000001300000000
#04614:13131300
#0461a:24242424
#0471b:1300000000130000
#04717:0000131300000013
#04712:24242424
#0481b:0013000000131300
#04817:0000001300000000
#04819:13131300
#04812:24242424
#04912:13241324
#04915:0013000000130000
#04918:00130013
#0491b:0000001300000013
#0491a:2424
#05015:1313
#05012:0013240000132400
#0501b:00130013
#05018:0000001300000013
#0501a:2424
#05118:00140000000000000000000000140000
#05119:00000014000000000000001400000000
#0511a:00000000001400140014000000000000
#05114:2400000000000024
#05113:0024000000002400
#05112:0000242424240000
#05712:00145400
#0571a:24
#05714:00000000005400540000000000000000
#05716:0000005400000000
#0581a:0000140054000024
#05812:0024
#05816:00000000000054000000002400000000
#05818:00000000005400540000000000000000
#06312:00142400
#0631a:00000014
#06316:2400001400000014
#0631b:13
#06416:0013000000000000
#06417:0000001300000000
#0641a:14142400
#06412:00142400
#0661a:00140000
#06616:0000001400000000
#06612:0014
#06712:2300001424000000
#0671a:0000001424000000
#06719:0000000000000013
#06714:0000000000000013
#0671b:23
#0751a:0000001424000000
#07512:23000000000014002400000000000013
#0751b:23000013
#07515:00000000000000000000000000130000
#07518:0000000000000013
#07716:00000014130000000000000000000014
#07714:0000001300000000
#07712:24001324
#07717:0013
#0771a:24000024
#07812:0014
#07818:0014000000001300
#0781a:1414
#07816:0000140000140014
#07814:0000001400000000
#0791a:24141400
#07916:00001400000014000000001414000000
#07912:2414
#08112:24130024
#08114:0000001300000000
#08116:24000000000000001300000024000014
#0811b:0013
#0811a:00000014000000000000000000000000
#08217:13
#08219:0013000000000000
#0821b:00130000
#08214:0000001300000000
#08212:00001313
#08216:00131400
#0831b:23130013
#08319:0000001300000013
#08316:24132400
#08314:0000001300000013
#08312:00002313
#09112:23130013
#09114:0000001300000013
#09117:00130000
#09119:0000001300000013
#0911b:00002313
#09116:2424
#00815:0013001300001300
#00818:0000130000130000
#00812:1313
#0081b:1313
#00715:00001300000013000000001300001300
#00718:0000130000131300
#00712:1313
#0071b:1313
#06818:00000000000000000013000016000000
#06815:0000000000130000
#06812:00000000240000000000001300000000
#06819:23
#06814:23
#0681a:00242400
#08015:0000000000001313
#08018:00000000000000000000000000130013
#0801a:24242400
#08017:0023000000000000
#08012:00242400
#08016:0000002300000000
#02616:00000000001300130000000000001300
#0261b:1300131313000013
#02615:00130000000000000000000000000000
#02618:00001300000000000000005300000000
#02612:00000013000000000000000013000000
#0261a:00000000000000000053000000000000
#02619:0000000000530000
#02617:00000053
#0331b:0013
#03314:00000000001300000013000000000000
#03319:0000001300130000
#03312:00000000000000000000001300001300
#03316:00000000000000130000000000000000
#03317:00130000
#03418:1300000013000000000000000000000000000000000000000000005300530000
#03412:00130000000000001300000053000000
#03415:0000000000001300000000000000000000000053005300000000000000000000
#0341b:0000131313001300
#03416:00000000001300000000530000000000
#03414:00000000000000130053005300000000
#03413:0000000000000000000000000000000000530000000000530000000000000000
#0341a:0000000000000000000000000000000000000000000000000053000000000053
#03419:00000000000000000000000000530053
#03417:0000000000000053
#0711a:00142400
#07112:13000014
#07116:2400001400000014
#01317:00000000130000000000001300000000
#01314:0000000000130013
#0131b:1313
#01319:0013001300000000
#01316:2323
#01312:00230023
#0141b:2300000023130000
#01416:1300000013130000
#01419:0013001300000000
#01414:00000000001300000000000000000000
#01417:00230000
#02412:13000000000000130000000000000000
#0241b:1300000000000013
#0241a:00130013
#02418:0013
#02413:00530000001300000013000000000000
#02419:0000001300130000
#02414:00005300000000000000001300000000
#02415:00000053000000000000000000130000
#02416:00530000
#06013:0013
#0601a:0024000013000000
#06018:0000000000130013
#06015:00000000000000000000001300130000
#06016:0000242400000000
#08517:00130000
#08519:0000001300000000
#0851b:0013
#08516:00000014000000001300000000000014
#0851a:24000024
#08512:24000024
#08510:41
#08712:24141400
#08716:00000014000014000000001414000000
#0871a:2414
#0891b:00130000
#08919:0000001300000000
#08917:0013
#08912:00000014000000001300000000000000
#08916:24000000000000000000000024000014
#0891a:24000024
#09016:1314
#09014:0013000000000000
#09012:00130000
#09019:0000001300000000
#0901b:00001313
#09017:00130000
#08818:0000000000001313
#08815:00000000000000000000000000130013
#08812:24242400
#08816:0023000000000000
#0881a:00242400
#08817:0000002300000000
#08612:1414
#08614:0014000000000000
#08616:0000140000140014
#08618:0000001400000000
#0861a:0014
#08615:00000013
#07412:00140000
#07416:0000001400000000
#0741a:0014
#07217:0013000000000000
#07216:0000001300000000
#07212:14142400
#0721a:00142400
#0531f:11
#05316:0000000000000000000000000054545454545454000000000000000000000000
#0541a:0024000000000000
#05416:00000000002400000000002400000000
#05412:0000000024000024
#05418:0026
#0551a:00240000000000240000000000000000
#05514:00260000
#05512:00280000000000000000240000000000
#05516:00000000000000000000280000280000
#05612:24000024000024000000000024002400
#05616:00000028000000000028000000000000
#0561a:0000000000002424
#0591a:0000000000000024
#05912:0000000000000024
#05917:5200525200520000
#06112:24
#0611b:23
#0611f:21
#0651b:23
#06512:23
#07616:24
#07614:00240000
#07618:00242526
#07613:0025
#07612:00000026
#08415:23
#08418:23242526
#08414:00240000
#08413:0025
#08412:00000026
#09218:23242526
#09215:23
#09214:00240000
#09213:0025
#09212:00000026
#09312:2424
#0931a:00240024
#09313:00640000000000000000000000000000000000000000000000000000000000000064000000000000000000000000000000000000000000000000000000000000
#09314:0064000000000000000000000000000000640000000000000000000000000000
#09315:00000064000000000000000000000000000000000000000000000000000000000000006400000000000000000000000000000000000000000000000000000000
#09319:00000000000000000000000000000000006400000000000000000000000000000000000000000000000000000000000000640000000000000000000000000000
#09318:0000000000000000006400000000000000000000000000000064000000000000
#09317:00000000000000000000000000000000000000640000000000000000000000000000000000000000000000000000000000000064000000000000000000000000
#09412:2400000024000024
#0941a:00000000240000000000002400000000
#09417:00000000000000000000000000000000000000640000000000000000000000002400000000000000000000000000000000000000000000002400000000000000
#09415:00000064000000000000000000000000000000000000000000000000000000000000000000000000000000002400000000000000000000000000000000000000
#09413:00640000000000000000000000000000000000000000000000000000000000000000000000000000000000000000640000000000000000000000000000000000
#09414:00006400000000000000000000000000000000000000000000000000000000000000000000000000000000000064000000000000000000000000000000000000
#09419:00000000000000000000000000000000006400000000000000000000000000000000640000000000000000000000000000000000000000000000640000000000
#09418:00000000000000000000000000000000000064000000000000000000000000000064000000000000000000000000000000000000000000000064000000000000
#0951a:2424
#09512:00240024
#09519:00640000000000000000000000000000000000000000000000000000000000000064000000000000000000000000000000000000000000000000000000000000
#09518:0064000000000000000000000000000000640000000000000000000000000000
#09517:00000064000000000000000000000000000000000000000000000000000000000000006400000000000000000000000000000000000000000000000000000000
#09513:00000000000000000000000000000000006400000000000000000000000000000000000000000000000000000000000000640000000000000000000000000000
#09514:0000000000000000006400000000000000000000000000000064000000000000
#09515:00000000000000000000000000000000000000640000000000000000000000000000000000000000000000000000000000000064000000000000000000000000
#0961a:2400000024000024
#09612:00000000240000000000002400000000
#09615:00000000000000000000000000000000000000640000000000000000000000002400000000000000000000000000000000000000000000002400000000000000
#09617:00000064000000000000000000000000000000000000000000000000000000000000000000000000000000002400000000000000000000000000000000000000
#09619:00640000000000000000000000000000000000000000000000000000000000000000000000000000000000000000640000000000000000000000000000000000
#09618:00006400000000000000000000000000000000000000000000000000000000000000000000000000000000000064000000000000000000000000000000000000
#09613:00000000000000000000000000000000006400000000000000000000000000000000640000000000000000000000000000000000000000000000640000000000
#09614:00000000000000000000000000000000000064000000000000000000000000000064000000000000000000000000000000000000000000000064000000000000
#09712:2424
#0971a:00240024
#09713:00640000000000000000000000000000000000000000000000000000000000000064000000000000000000000000000000000000000000000000000000000000
#09714:0064000000000000000000000000000000640000000000000000000000000000
#09715:00000064000000000000000000000000000000000000000000000000000000000000006400000000000000000000000000000000000000000000000000000000
#09719:00000000000000000000000000000000006400000000000000000000000000000000000000000000000000000000000000640000000000000000000000000000
#09718:0000000000000000006400000000000000000000000000000064000000000000
#09717:00000000000000000000000000000000000000640000000000000000000000000000000000000000000000000000000000000064000000000000000000000000
#09812:2400000024000024
#0981a:00000000240000000000002400000000
#09817:00000000000000000000000000000000000000640000000000000000000000002400000000000000000000000000000000000000000000002400000000000000
#09815:00000064000000000000000000000000000000000000000000000000000000000000000000000000000000002400000000000000000000000000000000000000
#09813:00640000000000000000000000000000000000000000000000000000000000000000000000000000000000000000640000000000000000000000000000000000
#09814:00006400000000000000000000000000000000000000000000000000000000000000000000000000000000000064000000000000000000000000000000000000
#09819:00000000000000000000000000000000006400000000000000000000000000000000640000000000000000000000000000000000000000000000640000000000
#09818:00000000000000000000000000000000000064000000000000000000000000000064000000000000000000000000000000000000000000000064000000000000
#0991a:24000000000024000000002400000000
#09915:24000000000024000000002400000000
#09917:00000024000000002400000000002400
#09912:00000024000000002400000000002400
#09914:00640000000000000000000000000000000000000000000000640000000000000000000000000000000000000064000000000000000000000000000000000000
#09913:0064000000000000000000000064000000000000000000640000000000000000
#09918:00000000000000000000000000640000000000000000000000000000000000000064000000000000000000000000000000000000000000000064000000000000
#09919:0000000000000064000000000000000000640000000000000000000000640000
#1001a:24000000000024000000002400000000
#10015:24000000000024000000002400000000
#10017:00000024000000002400000000002400
#10012:00000024000000002400000000002400
#10014:00640000000000000000000000000000000000000000000000640000000000000000000000000000000000000064000000000000000000000000000000000000
#10013:0064000000000000000000000064000000000000000000640000000000000000
#10018:00000000000000000000000000640000000000000000000000000000000000000064000000000000000000000000000000000000000000000064000000000000
#10019:0000000000000064000000000000000000640000000000000000000000640000
#0691a:24
#06912:23
#07312:24
#0731b:23
#0021b:0023000000000000
#00212:0000000000000023
#00412:00333333000000000000000000000000
#00416:00000054
#06210:41
#00652:0000000000130000
#0065b:0000000000130000
#01052:0000000000130000
#0125a:00000014
#01852:0000000000130000
#0185b:0000000000130000
#02056:00000012
#0375b:5300000000130000
#03756:0000000000530000
#03852:0023000000000000
#0385b:0000002300000000
#03856:00000013
#03952:63
#03957:0000000000630000
#0405b:0023000000000000
#04052:0000002300000000
#04057:00000013
#04156:0000000000530000
#0415b:1300000000130000
#04152:0000001300000013
#04158:0000000000000053
#04255:0053000000000000
#04258:0000005300000000
#0425b:23000013
#04252:00230000
#0435b:0000001300000013
#04352:1300000000130000
#04357:0000000000630000
#04355:0000000000000063
#04452:23000013
#04458:0063000000000000
#0445b:00230000
#04455:0000006300000000
#04652:00000013
#0465a:00000014
#0485b:00000013
#04852:00000014
#05154:0000000000000014
#05452:0000000000000014
#05456:0000000000000014
#0555a:00000000000000140000000000000000
#05554:00000000000000160000000000000000
#05652:14000000000000000014000000000000
#05656:18000000000000000018000000000000
#05852:0014
#05856:00000000000000000000001400000000
#0585a:0000000000000014
#05957:0000000000120000
#06356:14
#06352:0014
#06752:3314
#0675a:0014
#0675b:43
#07552:3314
#0755a:0014
#0755b:43
#07656:14
#07658:00141516
#07654:00140000
#07653:0015
#07652:00000016
#07752:14000054
#07757:0053
#0775a:54000014
#07756:00000024000000000000000000000024
#07852:0054
#07858:00000053
#07856:0000000000240024
#07956:00002400000000000000002454000000
#07952:54
#0795a:4454
#0805a:0014
#08052:0014
#0815b:0053
#08156:54000000000000000000000044000024
#0815a:00000024000000000000000000000000
#08152:34000054
#08252:00000053
#08256:0054
#08356:1414
#0835b:13
#08352:0013
#08455:13
#08458:13141516
#08454:00140000
#08453:0015
#08452:00000016
#09156:1414
#0915b:0013
#09152:13
#09258:13141516
#09255:13
#09254:00140000
#09253:0015
#09252:00000016
#00855:00000013
#02756:0044003400440034
#02855:0016001600160016
#0495a:1414
#0505a:1414
#06858:00000016
#0455a:14
#04752:14
#06152:14
#0695a:14
#0715a:0014
#07156:14
#07352:14
#01656:00000014
#01456:0000000000130000
#08556:00000024000000006300000000000024
#0855a:14000064
#08552:64000014
#08756:00000024000000000000002464000000
#08752:3464
#0875a:64
#08952:00000024000000006300000000000000
#08956:64000000000000000000000034000024
#0895a:44000064
#09056:0064
#0905b:00000063
#0885a:0014
#08852:0014
#0865a:0064
#08655:00000063
#08656:0000000000240024
#03156:00140000
#03556:00140000
#07252:0014
#0725a:0014
#06452:0014
#0645a:0014
#0013b0:00000000000000001300002300000000
#001351:00000000000000000000001300002300
#002321:00001300002300000000000000000000
#002380:00000000001300002300000000000000
#002351:00000000000000001300002300000000
#0023b0:00000000000000000000001300002300
#0033b0:00000000000000001300002300000000
#003351:00000000000000000000001300002300
#004321:13333333000000000000000000000000
#004361:0000000000000000343434343434343434343434340034002400000000000000
#027321:1323000000000000
#0273b1:0000132300000000
#027321:0000000013230000
#0273b1:0000000000001323
#029361:0000000000001323
#0303b1:00001323
#0303a1:0000000000000000000000000000000000330000000000330000000000000000
#030391:00000000000000000033003300000000
#030381:0000000000000000000000000000000000000033003300000000000000000000
#030371:0000000000330000
#030320:00000013
#030330:0000000000000000000000000000000000000000000000000033000000000033
#030340:00000000000000000000000000330033
#030350:0000000000000000000000000000000000000000000000000000003300330000
#030360:0000000000000033
#031320:23
#032320:00001323
#032330:0000000000000000000000000000000000330000000000330000000000000000
#032340:00000000000000000033003300000000
#032350:0000000000000000000000000000000000000033003300000000000000000000
#032360:0000000000330000
#0323b1:00000013
#0323a1:0000000000000000000000000000000000000000000000000033000000000033
#032391:00000000000000000000000000330033
#032381:0000000000000000000000000000000000000000000000000000003300330000
#032371:0000000000000033
#0333b1:23
#033320:14240000
#033330:0052000000000000000000000000000000000000000000000000000000000052000000000000000000000000000000000000000000000000000000000000000000000000000000000000000000000000000000000000000000000000000000000000000000000000000000000000000000000000000000000000000000000000
#033370:0000000000001323
#0373b0:13
#037370:00230000
#037360:0000000000130000
#037320:0000000000000023
#037371:0000000000000013
#038371:0023000000000000
#038320:0013000000000000
#038360:0000002300000000
#0383b1:0000001300000000
#038371:0000000000230000
#039321:13
#039361:00230000
#039371:0000000000130000
#0393b1:0000000000000023
#039360:0000000000000013
#040360:0023000000000000
#0403b1:0013000000000000
#040371:0000002300000000
#040320:0000001300000000
#040360:0000000000230000
#041360:0000000000130000
#041320:0000000000000023
#041381:0000000000000013
#0423b1:53
#042381:0023000000000000
#042350:0013002300000000
#042320:00530000
#042381:0000001300000000
#0423b1:0000000000230000
#043371:0000000000130000
#0433b1:0000000000000023
#043350:0000000000000013
#044320:53
#044350:0023000000000000
#044381:0013002300000000
#0443b1:00530000
#044350:0000001300000000
#044320:0000000000230000
#0533b0:13230000
#053341:13230000
#053361:0000001400240000
#053371:000000000000000000000000000000000000000000000000000000000000000000000000000000000000000000000000000000000000000000000000000000000000000000000000000000000000000000000000000000000000000000000000000000000000000000000000000000000000000000000000000000000000000000000000000000000000000000000000000000000000000000000000000000000000000000000000000000000000000000000000000000000000000000000000000000000000000000000000000000000000000000000000000000000000000000000000000000000000000000000000000000000000000000000000000000000000000000000000000000000000000000000000000000000000000000000000000000000000000000000000000000000000000000000000000000000000000000000000000000000000000000000000000000000000000000000000000000000000000000000000000000000000000000000000000000000000000000000000000000000000000000000000000000000000000000000000000000000000000000000000000000000000000000000000000000000000000000000000000000000000000000000000000000000000000000000000000000000000000000000000000000000000000000000000000000000000000000000000000000000000000000000000000000000000000000000000000000000000000000000000000000000000000000000000000000000000000000000000000000000000000000000000000000000000000000000000000000000000000000000000000000000000000000000000000000000000000000000000000000000000000000000000000000000000000000000000000000000000000000000000000000000000000000000000000000000000000000000000000000000000000000000000000000000000000000000000000000000000000000000000000000000000000000000000000000000000000000000000000000000000000000000000000000000000000000000000000000000000000000000054000000000000000000000000000000000000000000000000000000000000000000000000000000000000000000000000000000000000000000000000000000000000000000000000000000000000000000000000000000000000000000000000000000000000000000000000000000000000000000000054000000000000000000000000000000000000000000000000000000000000000000000000000000000000000000000000000000000000000000000000000000000000000000000000000000000000000000000000000000000000000000000000000000000000000000000000000000000000000000000054000000000000000000000000000000000000000000000000000000000000000000000000000000000000000000000000000000000000000000000000000000000000000000000000000000000000000000000000000000000000000000000000000000000000000000000000000000000000000000000054000000000000000000000000000000000000000000000000000000000000000000000000000000000000000000000000000000000000000000000000000000000000000000000000000000000000000000000000000000000000000000000000000000000000000000000000000000000000000000000000000000000000000000000000000000000000000000000000000000000000000000000000000000000000000000000000000000000000000000000000000000000000000000000000000000000000000000000000000000000000000000000000000000000000000000000000000000000000000000000000000000000000000000000000000000000000000000000000000000000000000000000000000000000000000000000000000000000000000000000000000000000000000000000000000000000000000000000000000000000000000000000000000000000000000000000000000000000000000000000000000000000000000000000000000000000000000000000000000000000000000000000000000000000000000000000000000000000000000000000000000000000000000000000000000000000000000000000000000000000000000000000000000000000000000000000000000000000000000000000000000000000000000000000000000000000000000000000000000000000000000000000000000000000000000000000000000000000000000000000000000000000000000000000000000000000000000000000000000000000000000000000000000000000000000000000000000000000000000000000000000000000000000000000000000000000000000000000000000000000000000000000000000000000000000000000000000000000000000000000000000000000000000000000000000000000000000000000000000000000000000000000000000000000000000000000000000000000000000000000000000000000000000000000000000000000000000000000000000000000000000000000000000000000000000000000000000000000000000000000000
#053351:000000000000000000000000000000000000000000000000000000000000000000000000000000000000000000000000000000000000000000000000000000000000000000000000000000000000000000000000000000000000000000000000000000000000000000000000000000000000000000000000000000000000000000000000000000000000000000000000000000000000000000000000000000000000000000000000000000000000000000000000000000000000000000000000000000000000000000000000000000000000000000000000000000000000000000000000000000000000000000000000000000000000000000000000000000000000000000000000000000000000000000000000000000000000000000000000000000000000000000000000000000000000000000000000000000000000000000000000000000000000000000000000000000000000000000000000000000000000000000000000000000000000000000000000000000000000000000000000000000000000000000000000000000000000000000000000000000000000000000000000000000000000000000000000000000000000000000000000000000000000000000000000000000000000000000000000000000000000000000000000000000000000000000000000000000000000000000000000000000000000000000000000000000000000000000000000000000000000000000000000000000000000000000000000000000000000000000000000000000000000000000000000000000000000000000000000000000000000000000000000000000000000000000000000000000000000000000000000000000000000000000000000000000000000000000000000000000000000000000000000000000000000000000000000000000000000000000000000000000000000000000000000000000000000000000000000000000000000000000000000000000000000000000000000000000000000000000000000000000000000000000000000000000000000000000000000000000000000000000000000000000000000000000000000000000000000000000000000000000000000000000000000000000000000000000000000000000000000000000000054000000000000000000000000000000000000000000000000000000000000000000000000000000000000000000000000000000000000000000000000000000000000000000000000000000000000000000000000000000000000000000000000000000000000000000000000000000000000000000000054000000000000000000000000000000000000000000000000000000000000000000000000000000000000000000000000000000000000000000000000000000000000000000000000000000000000000000000000000000000000000000000000000000000000000000000000000000000000000000000054000000000000000000000000000000000000000000000000000000000000000000000000000000000000000000000000000000000000000000000000000000000000000000000000000000000000000000000000000000000000000000000000000000000000000000000000000000000000000000000000000000000000000000000000000000000000000000000000000000000000000000000000000000000000000000000000000000000000000000000000000000000000000000000000000000000000000000000000000000000000000000000000000000000000000000000000000000000000000000000000000000000000000000000000000000000000000000000000000000000000000000000000000000000000000000000000000000000000000000000000000000000000000000000000000000000000000000000000000000000000000000000000000000000000000000000000000000000000000000000000000000000000000000000000000000000000000000000000000000000000000000000000000000000000000000000000000000000000000000000000000000000000000000000000000000000000000000000000000000000000000000000000000000000000000000000000000000000000000000000000000000000000000000000000000000000000000000000000000000000000000000000000000000000000000000000000000000000000000000000000000000000000000000000000000000000000000000000000000000000000000000000000000000000000000000000000000000000000000000000000000000000000000000000000000000000000000000000000000000000000000000000000000000000000000000000000000000000000000000000000000000000000000000000000000000000000000000000000000000000000000000000000000000000000000000000000000000000000000000000000000000000000000000000000000000000000000000000000000000000000000000000000000000000000000000000000000000000000000000000000000000000000000000000000000000000000000000000000000000000000000000000000000000000000000000000000000000000000000000000000
#053321:0000000000000000000000000000000000000000000000001333333333333333
#053331:00000000000000000000000000000000000000000000000000000000000000000000000000000000000000000000000000540054005400540054005400540054
#054321:23
#053390:0000000000000000000000000000000000000000000000001333333333333333
#053370:00000000000000000000000000000000000000000000000000000000000000000000000000000000000000000000000000540054005400540054005400540054
#054390:23
#054320:0000000000000000000000000000000014343434343424000000000000000000
#054361:0000000000000000000000000000000000000000000014343434343424000000
#0553a1:0000143434343434240000000000000000000000000000000000000000000000
#055340:0000000000000000163636363636260000000000000000000000000000000000
#055320:0000000000000000000000000000000000000000143434343434240000000000
#055361:0000000000000000000000000000000000000000000000000000183838383838
#056361:28
#056361:0000000000001838383838382800000000000000000000000000000000000000
#056320:0000000000000000000000001434343434342400000000000000000000000000
#057320:1424000000000000
#057361:0014240000000000
#0573a1:00000000000000001400002400000000
#057340:00000000000000000000001400002400
#057381:0000000000000014
#058381:24
#058320:14
#058360:00540000240000000000000000000000
#059320:0000000000000014
#060320:0024000000000000
#0603a1:0014240000000000
#0613b1:13230000
#061360:00140000
#061320:00000000005300002300000000000000
#061361:00001424
#0613a1:00000000000000000054005400000000
#061320:00000013
#061360:00000000000000000000000000540000
#062360:24
#0623b1:13
#062381:00530000230000000000000000000000
#062350:00130000
#062320:00000000005300002300000000000000
#0623b1:0013
#062361:00000000000000000054000024000000
#062320:00000013
#062360:00000000000000000000000000540000
#063360:24
#0633b0:00132300
#063320:00000013
#064320:23
#065320:13
#065350:00530000230000000000000000000000
#065381:00132300
#0653b1:00000000005300530000000000000000
#065350:00001323
#065320:00000000000000000053005300000000
#065381:00000013
#0653b1:00000000000000000000000000530000
#0663b1:23
#066320:13
#066360:00540000240000000000000000000000
#0663b0:0013
#066380:00000000000000000053000000000053
#0673b0:23
#066321:00000013
#066351:00000000000000000000000000530053
#067321:23
#069321:13230000
#069360:00140000
#0693b0:00000000005300002300000000000000
#069361:00001424
#069321:00000000000000000054005400000000
#0693b0:00000013
#069360:00000000000000000000000000540000
#070360:24
#070321:13
#070351:00530000230000000000000000000000
#070380:00130000
#0703b0:00000000005300002300000000000000
#070321:0013
#070361:00000000000000000054000024000000
#0703b0:00000013
#070360:00000000000000000000000000540000
#071360:24
#071320:00132300
#0713b0:00000013
#0723b0:23
#0733b0:13
#073380:00530000230000000000000000000000
#073351:00132300
#073321:00000000005300530000000000000000
#073380:00001323
#0733b0:00000000000000000053005300000000
#073351:00000013
#073321:00000000000000000000000000530000
#074321:23
#0743b0:13
#074360:00540000240000000000000000000000
#074320:0013
#074350:00000000000000000053000000000053
#075320:23
#0743b1:00000013
#074381:00000000000000000000000000530053
#0753b1:23
#0773a1:14240000
#077361:00540054000000000000000000000000
#077371:0013
#0773a1:00000024
#077320:00000014
#077360:00000000000000000000000000540054
#078320:24
#078320:0014
#078360:0000000000540000
#078350:00000023
#078381:00000013
#078361:0000000000000054
#0793a1:24
#079320:14240000
#079360:0054000000000000
#0793a0:00001424
#079360:00000000000000000054005400000000
#079361:00000014
#079321:00000000000000000000000000540000
#080321:24
#081361:14240000
#0813a1:00540054000000000000000000000000
#0813b1:0013
#081361:00000024
#081320:00000014
#081360:00000000000000000000000000540054
#082320:24
#082360:0014
#0823b0:0000000000530000
#0833b0:23
#082321:00000013
#082361:0000000000000054
#083361:24
#085321:14240000
#085361:00540054000000000000000000000000
#085361:0013
#085321:00000024
#0853a0:00000014
#085360:00000000000000000000000000540054
#0863a0:24
#0863a0:0014
#086360:0000000000540000
#086380:00000023
#086351:00000013
#086361:0000000000000054
#087321:24
#0873a0:14240000
#087360:00540054000000000000000000000000
#087320:00001424
#087360:00000000000000000054005400000000
#087361:00000014
#0873a1:00000000000000000000000000540000
#0883a1:24
#089361:14240000
#089321:00540054000000000000000000000000
#089321:0013
#089361:00000024
#0893a0:00000014
#089360:00000000000000000000000000540054
#0903a0:24
#090360:0014
#090320:0000000000530000
#091320:23
#0903b1:00000013
#090361:0000000000000054
#091361:24
#0219b0:13230000
#022920:13230000
#0239b0:13
#023970:00230000
#024920:13
#024960:00230000
#025920:0013
#025960:00000023
#0269b0:0013
#026970:00000023
#0299b0:13230000
#029970:0053000000000000
#031920:00000013
#032960:23
#0329b0:00130000
#032970:0023
#034920:00001323
#034960:0000000000530000
#0349b1:00000013
#034971:0000000000000053
#0359b1:23
#0359b1:00000013
#036971:23
#036921:00130000
#036961:0023
#0369b0:00001323
#036970:0000000000530000
#036921:00000013
#036961:0000000000000053
#037921:23
#057921:00142400
#057961:0000005400000000
#0589a1:00142400
#058961:0000005400000000
#059971:120000000000000000000000000000000000000000000000000000000000000000000000000000000000000000000000000000000000000000000000000000000000000000000000000000000000000000000000000000000000000000000000000000000000000000000000000000000000000000000052220000000000000000000000000000000000000000000000000000000000000000000000000000000000000000000000000000000000000000000000000000000000000000000000
#093921:14
#093951:00000024000000000000000000000000000000000000000000000000000000000000000000000000000000000000000000000000000000000000000000000000
#0939a1:00140000
#093971:00000000000000000000000000000000000000240000000000000000000000000000000000000000000000000000000000000000000000000000000000000000
#093921:0014
#093951:00000000000000000000000000000000000000000000000000000000000000000000002400000000000000000000000000000000000000000000000000000000
#0939a1:00000014
#093971:00000000000000000000000000000000000000000000000000000000000000000000000000000000000000000000000000000024000000000000000000000000
#094921:14
#094951:00000024000000000000000000000000000000000000000000000000000000000000000000000000000000000000000000000000000000000000000000000000
#0949a1:00140000
#094971:00000000000000000000000000000000000000240000000000000000000000000000000000000000000000000000000000000000000000000000000000000000
#094971:0014
#094991:0000000000000000000000000000000000240000000000000000000000000000
#094951:00000000000000000000001400000000
#094931:0000000000000000000000000000000000000000000000240000000000000000
#094971:0000000000000014
#094991:0000000000000000000000000000000000000000000000000000000000240000
#0959a1:14
#095971:00000024000000000000000000000000000000000000000000000000000000000000000000000000000000000000000000000000000000000000000000000000
#095921:00140000
#095951:00000000000000000000000000000000000000240000000000000000000000000000000000000000000000000000000000000000000000000000000000000000
#0959a1:0014
#095971:00000000000000000000000000000000000000000000000000000000000000000000002400000000000000000000000000000000000000000000000000000000
#095921:00000014
#095951:00000000000000000000000000000000000000000000000000000000000000000000000000000000000000000000000000000024000000000000000000000000
#0969a1:14
#096971:00000024000000000000000000000000000000000000000000000000000000000000000000000000000000000000000000000000000000000000000000000000
#096921:00140000
#096951:00000000000000000000000000000000000000240000000000000000000000000000000000000000000000000000000000000000000000000000000000000000
#096951:0014
#096931:0000000000000000000000000000000000240000000000000000000000000000
#096971:00000000000000000000001400000000
#096991:0000000000000000000000000000000000000000000000240000000000000000
#096951:0000000000000014
#096931:0000000000000000000000000000000000000000000000000000000000240000
#097921:14
#097951:00000024000000000000000000000000000000000000000000000000000000000000000000000000000000000000000000000000000000000000000000000000
#0979a1:00140000
#097971:00000000000000000000000000000000000000240000000000000000000000000000000000000000000000000000000000000000000000000000000000000000
#097921:0014
#097951:00000000000000000000000000000000000000000000000000000000000000000000002400000000000000000000000000000000000000000000000000000000
#0979a1:00000014
#097971:00000000000000000000000000000000000000000000000000000000000000000000000000000000000000000000000000000024000000000000000000000000
#098921:14
#098951:00000024000000000000000000000000000000000000000000000000000000000000000000000000000000000000000000000000000000000000000000000000
#0989a1:00140000
#098971:00000000000000000000000000000000000000240000000000000000000000000000000000000000000000000000000000000000000000000000000000000000
#098971:0014
#098991:0000000000000000000000000000000000240000000000000000000000000000
#098951:00000000000000000000001400000000
#098931:0000000000000000000000000000000000000000000000240000000000000000
#098971:0000000000000014
#098991:0000000000000000000000000000000000000000000000000000000000240000
#099951:14
#099931:0024000000000000000000000000000000000000000000000000000000000000
#099971:00000014000000000000000000000000
#099991:0000000000000024000000000000000000000000000000000000000000000000
#099951:0000001400000000
#099931:0000000000000000000000000024000000000000000000000000000000000000
#099971:0014
#099991:0000000000000000000000000000000000240000000000000000000000000000
#099951:00000000000000000000001400000000
#099931:0000000000000000000000000000000000000000000000240000000000000000
#099971:0000000000000014
#099991:0000000000000000000000000000000000000000000000000000000000240000
#100951:14
#100931:0024000000000000000000000000000000000000000000000000000000000000
#100971:00000014000000000000000000000000
#100991:0000000000000024000000000000000000000000000000000000000000000000
#100951:0000001400000000
#100931:0000000000000000000000000024000000000000000000000000000000000000
#100971:0014
#100991:0000000000000000000000000000000000240000000000000000000000000000
#100951:00000000000000000000001400000000
#100931:0000000000000000000000000000000000000000000000240000000000000000
#100971:0000000000000014
#100991:0000000000000000000000000000000000000000000000000000000000240000
