This file was generated by Ched 2.7.0.0.
#TITLE ""
#ARTIST ""
#DESIGNER ""
#DIFFICULTY 0
#PLAYLEVEL
#SONGID ""
#WAVE ""
#WAVEOFFSET 0
#JACKET ""
#REQUEST "ticks_per_beat 480"
#00002: 4
#BPM01: 168
#00008: 01
#TIL00: ""
#VOLUME: ""
#HISPEED 00
#MEASUREHS 00
#0011b:13
#00115:00130000
#00318:13
#00312:00130000
#00518:13000013
#00515:0000130000130000
#0051b:0013
#00512:0000000000000013
#00510:41
#00618:1313
#00615:0000130000130000
#01318:0013000000001300
#01315:0000130000130000
#0131b:2300001300000000
#01312:0000000013000013
#01418:0013000013000000
#01415:0000130000130000
#01412:0000001300000000
#0141b:23
#0641b:13
#06415:0013000000000000
#06419:00130000
#06413:0000001300000000
#06416:0024
#06615:00000013
#0661a:1414
#06612:00140000
#06616:0000001400000000
#0661b:00000013
#06718:2300001300000013
#06712:23
#06715:0023
#07712:00130025
#07715:0000001300000000
#07718:0013
#0771b:00130000
#07719:25
#07818:13130000
#07815:0013001300000000
#0781b:0013
#07816:00000014
#07812:0013
#00718:13000013
#00715:0000130000130000
#0071b:0013
#00712:0000000000000013
#0081b:13131313
#00815:0013001300130000
#00915:13000013
#00918:0000130000130000
#00912:0013
#0091b:0000000000000013
#01015:1313
#01018:0000130000130000
#01115:13000013
#01118:0000130000130000
#01112:0013
#0111b:0000000000000013
#01212:13131313
#01218:0013001300130000
#01515:0013000000001300
#01518:0000130000130000
#01512:2300001300000000
#0151b:0000000013000013
#01615:0013000013000000
#01618:0000130000130000
#0161b:0000001300000000
#01612:23000013
#01718:0013000000130000
#01715:00130013
#01712:0000001300000013
#0171b:2323
#01815:0013001300000000
#01818:23132300
#01914:1212
#01918:0012000000120000
#01916:00120012
#0191a:0000001200000012
#02018:0013001300000000
#02015:23232300
#02518:00333333000000000000130013000000
#0251b:0013
#02515:00000000003333330000001300000000
#0271b:1313
#02715:0013000000130000
#02718:00130013
#02712:0000001300000013
#0291b:0013
#02915:0000000000130000
#02918:00000013
#02912:0000000000000013
#03018:13001300130000000000005300530000
#03015:00130013000013000000000000000000
#0301b:0013
#0301a:00000000000000000053000000000053
#03019:0000000000530053
#03017:00000053
#0311b:5313
#03115:0000000000130000
#03118:00000013
#03112:0000000000000013
#03113:24
#03110:41
#0321b:1313130000005300
#03215:00130013000000000000000000000000
#03212:0000001300000000
#03217:0013
#03218:00000000000000000053000000000053
#03219:0000000000530053
#0321a:00000000000000000000005300530000
#03312:0013
#03318:0000000000130000
#03315:00000013
#0331b:0000000000000013
#03317:53
#03418:00130013000013000000000000000000
#03412:0013
#03415:13001300130000000000005300530000
#03413:00000000000000000053000000000053
#03414:0000000000530053
#03416:00000053
#03512:5313
#03518:0000000000130000
#03515:00000013
#0351b:0000000000000013
#03519:24
#0361b:0000001300000000
#03616:0013
#03612:1313130000005300
#03618:00130013000000000000000000000000
#03615:00000000000000000053000000000053
#03614:0000000000530053
#03613:00000000000000000000005300530000
#0371b:13130000
#03715:0000001300000000
#03718:0000000000000013
#03716:53
#03815:13
#03818:0013000000000000
#03812:0000001300000000
#03918:1300001300000000
#03912:00130000
#03915:0000000000000013
#04018:13
#04015:0013000000000000
#0401b:0000001300000000
#04115:13
#0411b:0000130000000013
#04112:0000001300000000
#04215:1300001300000000
#0421b:0013000000000000
#04318:13
#04312:0000130000000013
#0431b:0000001300000000
#04418:1300001300000000
#04412:0013000000000000
#04518:0013000000130000
#0451b:0000001300000013
#04512:2323
#04515:00230023
#04510:41
#04618:0013000000000000
#04619:0000001300000000
#0461a:0000000000130000
#04612:23
#04613:00230000
#04614:0023
#04615:00000023
#04715:0013000000130000
#04712:0000001300000013
#0471b:2323
#04718:00230023
#04815:0013000000000000
#04814:0000001300000000
#04813:0000000000130000
#0481b:23
#0481a:00230000
#04819:0023
#04818:00000023
#04917:0014000000000000
#04918:0000001400000000
#04919:0000000000140000
#0491a:0000000000000014
#04912:23
#04913:00230000
#04914:0023
#04915:00000023
#05019:0014000000000000
#05018:0000001400000000
#05017:0000000000140000
#05016:2300000000000014
#05015:00230000
#05014:0023
#05013:00000023
#0571a:0014000000000000
#05715:00000000000000000000001400000000
#05712:2400141414000000
#05716:00000000001400140000000000000000
#07515:2300001300000013
#07518:0023
#0751b:23
#08315:0000001300000000
#08312:25000013
#08318:0000000024000013
#0831b:00130000
#08515:00130000
#08518:0000001300000000
#0851b:0013
#08512:25001325
#08519:25000025
#08510:41
#0861b:1313
#08615:0013001300001300
#08618:00130013
#08612:1313
#08718:00130000
#08715:0000001300000000
#0871b:0013
#08712:25001325
#08719:25000025
#0911b:00130000
#09115:0000001300000000
#09112:25000013
#09118:0000000025000013
#09119:25
#05817:00000000000000000000001400000000
#0581a:0000141414000000
#05816:00000000001400140000000000000000
#0211b:13000000000000000033333300000000
#02115:00130000000013000000000000000000
#02118:00001300001300000000000000000000
#02112:00130000
#02110:41
#02212:13000000000000000033333300000000
#02218:00130000000013000000000000000000
#02215:00001300001300000000000000000000
#0221b:00130000
#02318:13000000001300000033333300000000
#02315:00130000130000000000000000000000
#0231b:0013000000000000
#02312:0000001300000000
#02415:13000000001300000033333300000000
#02418:00130000130000000000000000000000
#02412:0013000000000000
#0241b:0000001300000000
#02615:00333333000000000000130013000000
#02612:0013
#02618:00000000003333330000001300000000
#06112:00140014
#06115:2414
#0611f:21
#0621a:00140014
#06217:0014
#06210:41
#06518:00140014
#0651a:2414
#07212:13
#07218:0013000000000000
#07214:00130000
#0721a:0000001300000000
#07216:0024
#07412:14001413
#0741a:00140000
#07416:0000001400000000
#07418:00000013
#0691a:00140014
#06917:2414
#07012:00140014
#07015:0014
#07314:00140014
#07312:2414
#07912:00130025
#07915:0000001300000000
#07918:0013
#0791b:00130000
#07919:25
#0811b:00130000
#08118:0000001300000000
#08115:0013
#08112:25130000
#08119:00000025
#08215:13130000
#08218:0013001300000000
#08212:0013
#08216:00000014
#0821b:0013
#08918:00130000
#08915:0000001300000000
#08912:25001325
#0891b:0013
#08919:25000025
#09012:1313
#09018:0013001300001300
#09015:00130013
#0901b:1313
#0531f:11
#05412:0023000024000000
#0541b:00000000002300000000000000000000
#05418:0023000000000000
#05415:00000000002300000000000000000000
#05614:00000024
#05618:0000000000000024
#0561a:00000024000000000000000000000000
#06015:00230000
#06012:0023
#0601b:0023
#06018:0023002300000000
#08018:25252500
#08013:0025002500000000
#09312:26660000000000000000000000000000000000000000000000000000000000002666000000000000000000000000000000000000000000000000000000000000
#09318:00000000000000000000000000000000266600000000000000000000000000000000000000000000000000000000000026660000000000000000000000000000
#09412:26660000000000000000000000000000000000000000000000000000000000002600000000000000000000000000000000000000000000000000000000000000
#09418:00000000000000000000000000000000266600000000000000000000000000000000000000000000000000000000000000000000000000002600000000000000
#09415:00000000000000000000002600000000
#05114:24242424
#05118:0024002400240024
#05912:0000000000000023
#0591b:0000000000000023
#0631b:0023
#06312:23
#06315:0023
#06815:23
#06818:00232300
#06812:0023
#07618:2424
#07614:00240024
#08414:2424
#08418:00240024
#09213:2525
#09218:00250025
#09512:26660000000000000000000000000000000000000000000000000000000000002666000000000000000000000000000000000000000000000000000000000000
#09518:00000000000000000000000000000000266600000000000000000000000000000000000000000000000000000000000026660000000000000000000000000000
#09612:26660000000000000000000000000000000000000000000000000000000000002600000000000000000000000000000000000000000000000000000000000000
#09618:00000000000000000000000000000000266600000000000000000000000000000000000000000000000000000000000000000000000000002600000000000000
#09615:00000000000000000000002600000000
#09712:26660000000000000000000000000000000000000000000000000000000000002666000000000000000000000000000000000000000000000000000000000000
#09718:00000000000000000000000000000000266600000000000000000000000000000000000000000000000000000000000026660000000000000000000000000000
#09812:26660000000000000000000000000000000000000000000000000000000000002600000000000000000000000000000000000000000000000000000000000000
#09818:00000000000000000000000000000000266600000000000000000000000000000000000000000000000000000000000000000000000000002600000000000000
#09815:00000000000000000000002600000000
#09918:2600000000000026
#09915:00000026000000000000002600000000
#09912:0000002626000000
#10018:2600000000000026
#10015:00000026000000000000002600000000
#10012:0000002626000000
#07112:0023
#0711b:23
#07118:0023
#0551a:00240000000000000000000000000000
#05512:0000000000240000
#08813:25252500
#08818:0025002500000000
#00416:00000054
#00655:0000000000130000
#01455:0000000000130000
#06655:00000053
#0665b:00000053
#06752:13
#06755:0013
#06758:13
#07759:15
#07752:00000015
#08058:0015
#0085b:00000013
#01058:0000000000130000
#01252:00000013
#01652:00000013
#03153:00140000
#03559:00140000
#03755:0000005300000000
#03752:0000000000130000
#03852:0000005300000000
#03855:00000013
#03958:0000006300000000
#0395b:0000000000130000
#0405b:0000006300000000
#04058:00000013
#04152:0000005300000000
#04155:0000000000130000
#04255:0000005300000000
#04252:00000013
#0435b:0000006300000000
#04358:0000000000130000
#04458:0000006300000000
#0445b:00000013
#04655:00000013
#04858:00000013
#05452:0000000000000014
#05755:00000000000000000000005400000000
#05752:0054
#0635b:0013
#06352:13
#06355:0013
#07558:0013
#0755b:13
#07555:13
#07952:00000015
#07959:15
#0865b:0063
#08658:00000063
#08655:00000053
#08759:15000015
#08752:15000015
#08559:15000015
#08552:15000015
#05857:00000000000000000000006400000000
#05852:14
#0585a:0054
#0595a:14
#05158:0000000000000014
#02158:00000013
#02255:00000013
#0235b:00000013
#02452:00000013
#02558:00000013
#02655:00000013
#06852:0063
#06855:00000013
#06858:0063
#0685b:00000013
#07152:0013
#0715b:13
#07158:0013
#07458:00000063
#07452:00000063
#07658:1414
#07654:00140014
#08358:0014
#08352:15
#08454:1414
#08458:00140014
#09158:0015
#09152:15
#09159:15
#09253:1515
#09258:00150015
#0555a:00000000000000140000000000000000
#05652:14
#0565a:00000000000000000014000000000000
#0785b:0063
#07856:00000064
#02055:0013
#01858:0013
#07256:0014
#06456:0014
#08252:0053
#08256:00000054
#08152:15
#08159:00000015
#08853:0015
#09052:0053
#09055:00000053
#09058:00000063
#08952:15000015
#08959:15000015
#001380:0000000013000023
#0013a0:00000000000000000000003300000000
#002350:0013000033000023
#002330:00000000003300000000003300000000
#0033a0:0000000013000023
#003380:00000000000000000000003300000000
#004360:14343434345454545454545424000000
#004350:0000000000000000005400540054005400540054005400540000000000000000
#0213b0:00000000000000001333333300000000
#021380:00000023
#022320:00000000000000001333333300000000
#022350:00000023
#023380:00000000000000001333333300000000
#0233b0:00000023
#024350:00000000000000001333333300000000
#024320:00000023
#0253b0:13
#025380:00333333230000000000000000000000
#025351:00000000133333330000000000000000
#025321:0023
#026321:13
#026351:00333333230000000000000000000000
#026380:00000000133333330000000000000000
#0263b0:0023
#0283b0:13
#0283a0:0033000000000000
#028390:00230000
#028361:00130000
#028351:0000003300000000
#028341:0023
#028390:0013
#028380:0000000000330000
#028370:00000023
#028341:00000013
#028331:0000000000000033
#029321:23
#029390:14545454240000000000000000000000
#029380:0054005400540054000000000000000000000000000000000000000000000000
#029331:00000000145454542400000000000000
#029341:0000000000000000005400540054005400000000000000000000000000000000
#031331:14343434240000000000000000000000
#033331:14545454240000000000000000000000
#033341:0054005400540054000000000000000000000000000000000000000000000000
#033390:00000000145454542400000000000000
#033380:0000000000000000005400540054005400000000000000000000000000000000
#035390:14343434240000000000000000000000
#037350:0000001300000000
#037320:0000000000230000
#038320:0000001300000000
#038350:0000000000332300
#039380:0000001300000000
#0393b0:0000000000230000
#0403b0:0000001300000000
#040380:0000000000332300
#041320:0000001300000000
#041350:0000000000230000
#042350:0000001300000000
#042320:0000000000332300
#0433b0:0000001300000000
#043380:0000000000230000
#044380:0000001300000000
#0443b0:0000000000332300
#053320:14240000
#053360:0000000000000000000000001454545454545454240000000000000000000000
#053350:00000000000000000000000000000000000000000000000000540054005400540054005400540054000000000000000000000000000000000000000000000000
#0533a0:0000000000000000000000000000000000000000000000001434343434343434
#053380:00000000000000000000000000000000000000000000000000000000000000000000000000000000000000000000000000550055005500550055005500550055
#0543a0:24
#054320:0000000014005424
#054360:00000000000000000054003400000000
#0553a0:00140000005400240000000000000000
#055360:0054340000000000
#055320:0000000000140054
#055360:00000000000000000000005400340000
#056320:24
#0563a0:00000014000000540024000000000000
#056360:0000543400000000
#057320:0000000014000034
#057350:00000000000000000000003400000000
#058320:24
#0583a0:0000000014000034
#058370:00000000000000000000003400000000
#0593a0:24
#0613b0:1333
#061380:00330033
#0623b0:23
#062321:1333
#062351:00330033
#063321:23
#063381:00130000
#0633b1:0023
#063320:00130000
#063350:0023
#063350:00000013
#064320:23
#065350:1333
#065320:00330033
#066350:23
#066350:00000013
#067320:23
#0663b1:00000013
#067381:23
#068321:0013
#068351:00000023
#068380:0013
#0683b0:00000023
#069320:1333
#069350:00330033
#070320:23
#0703b1:1333
#070381:00330033
#0713b1:23
#071351:00130000
#071321:0023
#0713b0:00130000
#071380:0023
#071380:00000013
#0723b0:23
#073380:1333
#0733b0:00330033
#074380:23
#074380:00000013
#0753b0:23
#074321:00000013
#075351:23
#0783b1:0013
#078361:00000034
#079391:25
#082321:0013
#082361:00000034
#083321:25
#0863b1:0013
#086381:00000033
#087391:25
#086350:00000013
#087320:25
#090320:0013
#090350:00000033
#091320:25
#090381:00000013
#091391:25
#0309b0:0013
#030970:00000053
#0319b0:23
#032970:0013
#0329b0:00000053
#033970:23
#034920:0013
#034960:00000053
#035920:23
#036960:0013
#036920:00000053
#037960:23
