This file was generated by Ched 2.7.0.0.
#TITLE ""
#ARTIST ""
#DESIGNER ""
#DIFFICULTY 0
#PLAYLEVEL
#SONGID ""
#WAVE ""
#WAVEOFFSET 0
#JACKET ""
#REQUEST "ticks_per_beat 480"
#00002: 4
#BPM01: 168
#00008: 01
#TIL00: ""
#VOLUME: ""
#HISPEED 00
#MEASUREHS 00
#0011a:14
#00114:00140000
#00312:00140000
#00512:1414
#00518:00140014
#00510:41
#00612:1414
#00618:00140000
#0071a:1414
#00714:00140014
#0081a:1414
#00814:00140000
#00912:14
#00918:00140000
#00914:0014
#0091a:00000014
#01014:14
#01018:00140000
#01012:0014
#0111a:14
#01114:00140000
#01118:0014
#01112:00000014
#01218:14
#01214:00140000
#0121a:0014
#01312:14
#01318:00140000
#01314:0014
#0131a:00000014
#01412:14141400
#01418:0014001400000000
#0151a:14
#01514:00140000
#01518:0014
#01512:00000014
#0161a:14141400
#01614:0014001400000000
#01712:14
#01718:00140000
#01714:0014
#0171a:00000014
#01814:14141400
#01818:0014001400000000
#0191a:14
#01914:00140000
#01918:0014
#01912:00000014
#0211a:1414
#02114:00140000
#02110:41
#02212:1414
#02218:00140000
#0231a:1414
#02314:00140000
#02412:1414
#02418:00140000
#0251a:1414
#02514:00140014
#02618:1414
#02612:00140014
#0271a:14140000
#02714:00001414
#02818:14140000
#02812:00001414
#02914:00140000
#02918:0014
#02912:00000014
#0291a:24
#03018:14
#03014:00140000
#0301a:0024
#03118:00140000
#03114:0014
#0311a:00000014
#03112:24
#03110:41
#03214:14
#03218:00140000
#03212:0024
#03314:00140000
#03312:00000014
#0331a:24
#03318:0024
#03414:00140000
#03418:24
#0341a:0024
#03518:00140000
#0351a:00000014
#03512:24
#03514:0024
#03618:00140000
#03614:24
#03612:0024
#0451a:24140000
#04514:00002414
#04510:41
#0461a:24140000
#04614:00002414
#04718:24140000
#04712:00002414
#04818:24140000
#04812:00002414
#0491a:24140000
#04914:0014000024001400
#04918:0000000000140000
#0501a:24140000
#05014:0014000024001400
#05018:0000000000140000
#05718:00140000
#05714:0014
#0571a:00000014
#05812:14
#0581a:00140000
#05814:0014
#05818:00000014
#05912:14
#05919:0000000000000024
#05913:0000000000000024
#06114:00140000
#06118:0014
#06112:00000014
#0611a:24
#0611f:21
#06218:1414
#06212:00140000
#06214:00000014
#06210:41
#06314:00140000
#06312:00000014
#0631a:24
#06318:0024
#0641a:14141400
#06414:0014001400000000
#06518:00140000
#06514:0014
#0651a:00000014
#06512:24
#06614:1414
#0661a:00140000
#06618:00000014
#06912:00140000
#06916:0014
#0691a:24000014
#07016:14
#07012:00140000
#07018:0014
#07014:00000014
#07114:00140000
#07112:00000014
#0711a:24
#07118:0024
#0721a:14141400
#07214:0014001400000000
#07414:0014
#07418:00000014
#07416:14
#0741a:00140000
#0771a:00140000
#07714:0014
#07718:00000014
#07712:24
#07812:14
#0781a:00140000
#07912:00140000
#07918:0014
#07914:00000014
#0791a:24
#08014:0014001400000000
#0801a:24242400
#0811a:00140000
#08116:0014
#08112:24000014
#08216:14
#0821a:00140000
#0831a:14
#08312:0014
#08512:00140000
#08518:0014
#08514:00000014
#0851a:24
#08510:41
#0861a:14
#08612:00140000
#0871a:00140000
#08714:0014
#08718:00000014
#08712:24
#08818:0014001400000000
#08812:24242400
#09112:14
#0911a:0014
#0731a:00140000
#07316:0014
#07312:24000014
#08912:00140000
#08916:0014
#0891a:24000014
#09016:14
#09012:00140000
#0531f:11
#02019:24242400
#02013:24242400
#05118:24
#06712:24
#06718:0024
#06814:2424
#06818:00240000
#07512:24
#07518:0024
#07614:2424
#07618:00240024
#08418:2424
#08414:00240024
#09214:2424
#09218:00240024
#09312:2626
#09318:00260026
#09412:2626
#09418:00260000
#09518:00260026
#09512:0026
#09612:26
#09618:00260000
#09614:0026
#09718:00260026
#09712:0026
#09812:2626
#09818:00260000
#00458:14
#00652:0014
#0085a:0014
#01052:0014
#0125a:0014
#01452:0014
#0165a:0014
#01854:0014
#02059:0014
#02053:0014
#0305a:0014
#03252:0014
#0345a:0014
#03652:0014
#03858:00000014
#04054:00000014
#0425a:00000014
#04452:00000014
#04654:00000014
#04852:00000014
#05054:00000014
#05158:0000000000000014
#0615a:14
#0635a:14
#06358:0014
#0645a:0014
#06552:14
#06752:14
#06758:0014
#06854:0014
#0725a:0014
#0695a:14
#0715a:14
#07158:0014
#07552:14
#07558:0014
#07752:14
#0795a:14
#08152:14
#0835a:14
#08352:0014
#09152:14
#0915a:0014
#0855a:14
#08752:14
#07352:14
#0895a:14
#0013a0:00000000000000001400003400003400
#002380:00003400003400003400003400003400
#003380:24
#003380:00000000000000001400003400003400
#004380:24
#0373a0:14340000
#037380:00003434
#0383a0:34340000
#038380:00003424
#039320:14340000
#039340:00003434
#040320:34340000
#040340:00003424
#041380:14340000
#0413a0:00003434
#042380:34340000
#0423a0:00003424
#043340:14340000
#043320:00003434
#044340:34340000
#044320:00003424
#051380:1434343434343424
#053320:14540034
#053340:0000003400540000
#054320:00003400003400000000000000000000
#054340:00000000000000003400003400002400
#055380:00140000340000240000000000000000
#055340:00000000000000000000140000340000
#056340:24
#056380:00000014000034000024000000000000
#056320:0000000000001434
#057320:24
#059390:0000000000000014
#060390:0034343424000000
#059331:0000000000000014
#060331:0034343424000000
#078341:00001424
#082341:00001424
#086381:00001424
#090381:00001424
#094321:0000000016000036
#094341:00000000000000000000003600000000
#095321:26
#096341:0000000016000036
#096321:00000000000000000000003600000000
#097341:26
#098321:0016
#098331:00000000000000000000003600000000
#098341:0000000000000036
#099341:3600000000000036
#099331:00000036000000000000003600000000
#099321:0000003636000000
#100341:3600000000000026
#100331:00000036000000000000003600000000
#100321:0000003636000000
