This file was generated by Ched 2.7.0.0.
#TITLE ""
#ARTIST ""
#DESIGNER ""
#DIFFICULTY 0
#PLAYLEVEL
#SONGID ""
#WAVE ""
#WAVEOFFSET 0
#JACKET ""
#REQUEST "ticks_per_beat 480"
#00002: 4
#BPM01: 145
#00008: 01
#TIL00: ""
#VOLUME: ""
#HISPEED 00
#MEASUREHS 00
#0091a:14
#0101a:14
#01114:14
#01214:14
#01318:14
#01310:41
#01418:14
#01512:14
#01612:14
#02518:14
#0251a:00000014
#0291a:14
#02918:00000014
#02714:14
#02712:00000014
#03112:14
#03114:00000014
#03318:14
#0331f:11
#03418:14
#03514:14
#03614:14
#0371a:14
#03714:0014
#0381a:14
#03912:14
#03918:0014
#04118:2616
#0411f:00210000
#04110:00000041
#04212:1616
#04318:1616
#04412:1616
#04517:00003616
#04518:16
#04713:00003616
#04712:16
#04914:0014
#0491a:24
#05018:14
#05012:0014
#0511a:14
#05114:0014
#05218:14
#05212:0014
#05516:0016
#05518:26
#05712:14
#05718:0014
#0591a:14
#05914:0014
#06112:14
#06118:0014
#06110:41
#06512:0014
#06714:14
#0671a:0014
#0691a:14
#06918:0014
#07014:14
#07012:0014
#0711a:14
#07112:0014
#07218:14000014
#07214:0014
#06318:26
#07312:24
#04617:36
#04813:36
#03210:41
#02310:41
#05410:41
#02558:64
#0255a:00000024
#0295a:54
#02958:00000024
#02754:54
#02752:00000024
#03152:64
#03154:00000024
#04557:00000026
#04558:66
#04753:00000026
#04752:56
#05558:66
#05556:0026
#0013a0:14
#0023a0:24
#003320:14
#004320:24
#005380:14
#0063a0:24
#007340:14
#008320:24
#0173a0:14
#018380:0024
#019320:14
#020340:0024
#021380:14
#0223a0:0024
#023340:14
#024320:0024
#025380:14
#0253a0:00000054
#026380:0024
#027340:14
#027320:00000054
#028340:0024
#0293a0:14
#029380:00000054
#0303a0:0024
#031320:14
#031340:00000054
#032320:0024
#040320:1424
#045380:16
#045370:00003656
#046370:36
#046380:0026
#047320:16
#047330:00003656
#048330:36
#048320:0026
#0533a0:1424
#054320:1424
#055380:16
#055360:0056
#056380:26
#058340:1424
#060380:1424
#062340:1424
#063380:1600003600000000
#064380:3600003600003600
#065380:26
#066380:1424
#068340:1424
