This file was generated by Ched 2.7.0.0.
#TITLE ""
#ARTIST ""
#DESIGNER ""
#DIFFICULTY 0
#PLAYLEVEL
#SONGID ""
#WAVE ""
#WAVEOFFSET 0
#JACKET ""
#REQUEST "ticks_per_beat 480"
#00002: 4
#BPM01: 145
#00008: 01
#TIL00: ""
#VOLUME: ""
#HISPEED 00
#MEASUREHS 00
#0011b:1313000000000000
#00115:0000001313000000
#00118:0000000000001313
#00212:0013130000000000
#0051b:1313000000001313
#00515:00130000
#00518:0000001313000000
#00512:0000000000130000
#00615:13
#00618:0013130000000000
#00612:0000001300000000
#0061a:0014
#00617:0000000000140000
#00712:1313000000001313
#00718:00130000
#00715:0000001313000000
#0071b:0000000000130000
#00312:1313000000000000
#00318:0000001313000000
#00315:0000000000001313
#0041b:0013130000000000
#00812:0013000013000000
#00815:00130000
#00818:0000001300000000
#0081b:0013
#0081a:24
#00912:26130000
#00918:2600001300000013
#00915:0013
#0101a:13
#01018:0013000000000000
#0101b:00130000
#01017:0000001400000000
#01015:0000000000000014
#01112:0000130000130000
#01115:0000001300000000
#01117:0000000000130000
#01212:00131300
#01217:0000001300000000
#0121a:0000000000000014
#01317:13
#01315:0000001300000000
#0131b:0013
#01312:0000000000000014
#01310:41
#01418:0000001300000000
#01412:0000000013000014
#01416:13
#0141a:0000000000000014
#01518:1300001400000000
#01515:13
#01514:0000001400000000
#01612:13
#0161b:13000013
#01616:0000000000000013
#01718:00130000
#01715:0000001300000000
#01719:0025
#01816:14
#01812:00000013
#01817:0000000000000013
#01915:00130000
#01918:0000001300000000
#01912:0025
#02016:1400000000000013
#0201b:00000013
#02118:00130000
#02115:0000001300000000
#02119:0025
#02216:14
#02215:0000000000130000
#0231b:00000013
#02312:26000013
#02318:26
#02310:41
#02412:00000013
#0241b:0000000000000013
#02512:00130000
#0251b:0000001300000000
#02515:0025
#02612:1400000000000013
#0261b:00000013
#0271b:00130000
#02712:0000001300000000
#02716:0025
#0281a:14
#02812:00000013
#0281b:0000000000000013
#02912:00130000
#0291b:0000001300000000
#02915:0025
#03012:14
#0301b:0000000000130000
#03118:0013
#03115:0013
#03119:25
#03112:25
#03212:00000014
#0321a:00000014
#03210:41
#03318:00130000
#0331b:0000000000130000
#0331f:11
#03312:2323000000002323
#03315:0000002323000000
#03418:13
#0341b:0000001300000000
#03412:0014
#03415:0023230000140000
#03515:00130000
#03512:0000000000130000
#0351b:2323000000002323
#03518:0000002323000000
#03615:13
#03612:0000001300000000
#0361a:0014
#03617:0000000000140000
#03618:0023230000000000
#03812:0014
#03816:0000000000140000
#03815:000000000013000000000000000000000000000000000000
#03819:00230000
#0381b:0023000000000000
#04018:00001353
#04012:26
#0401b:0000000000530053
#0421a:0014000000000014
#04212:0014
#04216:00000000000000000000001400000000
#04412:0014000000000014
#0441a:0014
#04416:00000000000000000000001400000000
#04618:00000013
#04615:00000013
#04714:00130000
#04719:0000130000141400
#04713:0000000000141400
#04712:2300002400000026
#0471b:23
#0471a:0000002400000000
#04718:0000000000000026
#0501a:0014000000000014
#05012:0014
#05016:00000000000000000000001400000000
#05317:00000014
#05313:0000000000000014
#05319:00250000
#05312:00250000
#05315:26
#05417:1400001400140014
#0541a:000000000014000000000000140000000000140000000000
#05413:0000000000000014
#05410:41
#0551a:0014000000005400
#05516:00005400000000140000000054000000
#05512:00000000000000740000000000000000
#05715:0013000000130000
#05718:00131300
#0571b:0000001300000000
#05712:23000013
#0581b:13000013
#05818:0013000000130000
#05815:00131300
#05812:0000001300000000
#05912:130000000000000000000000000000000013000000000000
#05918:000000130000000000000000000000000013000000000000
#05915:00131300
#0591b:0013
#06015:0013000000002313
#06018:0000130023130000
#06012:0000001300000000
#0601b:13
#06118:0013000013000013
#06115:00130013
#06112:0000001300130000
#0611b:23
#06110:41
#0621b:13000023
#06215:0013000000230000
#06218:00132300
#06212:0000001300000023
#06515:0013000000000013
#06518:2400001300000000
#0651b:00000000000000330000000000000000
#06512:00000000000000000000000000000033
#06618:00130013
#06615:0000001300130000
#06612:0023
#06718:000000130000000000000013000000000000000000000013
#06715:23130000
#0671b:000000000000000000000000000000000013000000000000
#06918:0014000000000014
#06914:0000001400140000
#06916:00140014
#0691a:24
#06912:0024
#03915:001300000000000000001300
#03918:000000000000000000000013000000000000000000000000
#0391b:23000023
#03919:0023000000000023
#03912:0000002300000000
#03914:0023
#03718:001300000000000000001300
#03715:000000000000000000000013000000000000000000000000
#03714:0023000000000023
#03712:23000023
#03719:0023
#0371b:0000002300000000
#04312:15250000
#04313:0013000000000000
#04319:15250000
#0431a:00001300000000000000000000000024
#04318:00000023
#04315:00000000000000000000000000230000
#04115:13000023
#04112:00000000250000000000000000000024
#04118:53000000000000000000000000230000
#0411f:00210000
#04110:00000041
#04119:00650000
#04813:00002400000000001414141414141414
#04812:0000000000000000000000000000000000140000001400000014000000140000
#04814:0000000000000000000000000000000000000014000000140000001400000014
#04819:00002400000000001414141414141414
#0481a:0000000000000000000000000000000000140000001400000014000000140000
#04818:0000000000000000000000000000000000000014000000140000001400000014
#05212:0014000000000014
#0521a:0014
#05216:00000000000000000000001400000000
#06314:0000140000140000
#06318:2400002400002400
#07215:000000000000000000130000000013000000000000000000
#07218:000000000000130000000000000000240000000013000000
#07212:0024000000002400
#0721a:2424
#07214:0000000000000024
#06815:00130013
#06818:0000001300130000
#0681b:0023
#07016:0014001400140014
#0701a:2424
#07012:00240024
#07112:0014
#07119:0000002400140000
#07116:00240014
#07113:0024000000000014
#0711a:24
#04517:14
#05612:2525000000000000
#05619:2525000000000000
#06414:0024000000002400
#06418:0024
#07319:25
#07312:25
#04912:00000000250000000000000000000024
#04919:00250000
#04918:00000023
#04915:00000000000000000000000000230000
#0491a:00000000000000000000000000000024
#05115:26000023
#0511a:00000000000000000000000000000024
#05118:00000000000000000000000000230000
#05112:00000000250000000000000000000024
#05119:00250000
#0025a:00000014
#00452:00000014
#0065a:00006444
#00657:0000000000240000
#00958:1600000000000063
#00952:16000000000000000000001300000000
#00955:0063
#0085b:0023
#00852:0023
#0105b:0000230000130000
#0105a:23
#01058:0063000000000000
#01057:0000006400000000
#01055:0000000000000064
#01152:0000630000630000
#01155:0000006300000000
#01157:0000000000630000
#01252:0063
#0125a:0000000000000064
#01357:23
#0135a:0044000000000000
#0135b:0053
#01352:0000000000000054
#01452:0034000063000054
#01456:23
#0145a:0000000000000064
#01558:2300005400000000
#0155a:0044000000000000
#01555:23
#01552:0034000000000000
#01554:0000006400000000
#01652:63
#0165b:53
#01656:0000000000000063
#01856:24
#01857:0000000000000053
#01759:0065
#02056:2400000000000063
#01952:0055
#02256:24
#02255:0000000000130000
#02159:0065
#0235b:00000023
#02358:66
#02352:56000023
#0245b:0000000000000063
#02652:2400000000000053
#02555:0065
#0285a:24
#0285b:0000000000000063
#02756:0055
#03052:24
#0305b:0000000000130000
#02955:0065
#03158:0023
#03159:65
#03155:0023
#03152:55
#03259:0045
#03252:0035
#03452:00005434
#03455:0000000000240000
#0365a:00006444
#03657:0000000000240000
#03852:00005434
#03856:0000000000240000
#04052:16
#04152:00150000
#04158:53
#04155:53
#04159:00150000
#0425a:0054000000000000
#04452:0064000000000000
#04752:1300001400000016
#0475b:13
#0475a:0000001400000000
#04758:0000000000000016
#04658:00000053
#04655:00000053
#0505a:0054000000000000
#05457:6400006400640064
#0545a:000000000064000000000000240000000000240000000000
#05453:0000000000000064
#0555a:0064000000000000
#05552:00000000000000240000000000000000
#05556:00006400000000240000000000000000
#05652:0065000000000000
#05659:0055000000000000
#05655:00000013
#05658:00000013
#05752:00000013
#0585b:00000013
#06358:1400001400005400
#06454:0064000000001400
#06458:0014
#04352:55150000
#04359:65150000
#04353:0023000000000000
#0435a:0023000000000000
#04952:00150000
#04959:00150000
#05159:00150000
#05152:00150000
#04853:00000000000000006464646464646464
#04852:0000000000000000000000000000000000240000002400000024000000240000
#04854:0000000000000000000000000000000000000024000000240000002400000024
#04859:00000000000000005454545454545454
#0485a:0000000000000000000000000000000000240000002400000024000000240000
#04858:0000000000000000000000000000000000000024000000240000002400000024
#05252:0064000000000000
#05352:00150000
#05359:00150000
#06558:1400006300000000
#06555:0000000000000053
#06758:000000000000000000000053000000000000000000000053
#0675b:000000000000000000000000000000000053000000000000
#05955:0063
#0595b:0053
#05952:000000000000000000000000000000000063000000000000
#05958:000000000000000000000000000000000053000000000000
#06658:00000013
#06855:00000013
#07252:0014000000000000
#0725a:14
#04557:54
#0455a:00140000
#0023a0:00001424
#004320:00001424
#0063a0:00001424
#006370:0000000000540000
#0083b0:0013
#009380:26
#008321:0013
#009321:26
#009351:0013
#009321:00000000000000000000002300000000
#009381:0000000000000013
#0103a1:53
#010381:0033000000000000
#0103b1:0000530053230000
#010371:0000003400000000
#010351:0000000000000014
#011321:0000330000330000
#011351:0000003300000000
#012361:23
#011370:0000000000130000
#0123b0:23
#012320:0013
#012350:00000000000000000000002300000000
#0123a0:0000000000000014
#013370:53
#0133a0:0024000000000000
#0133b0:0013
#013380:00000000000000000000002300000000
#013320:0000000000000014
#014360:53
#014320:0024000000000000
#014320:0013
#014350:00000000000000000000002300000000
#0143a0:0000000000000014
#015380:53
#0153a0:0024000000000000
#014321:0000000000000014
#015351:53
#015321:0024000000000000
#015341:0000001400000000
#016321:33
#016351:0023
#015380:0000001400000000
#0163b0:33
#016380:0023
#016360:0000000000000013
#017320:0023000000000000
#017390:0015
#018360:54
#0183b0:0023
#018370:0000000000000013
#0193b0:0023000000000000
#019320:0015
#020360:54
#020320:0023
#020360:0000000000000013
#021320:0023000000000000
#021390:0015
#022360:54
#0223b0:0023
#023380:16
#0233b0:00000053
#024380:0026
#023321:16000053
#024321:0026
#0243b1:0000000000000013
#025371:0023000000000000
#025351:0015
#026321:54
#026361:0023
#026321:0000000000000013
#027361:0023000000000000
#027361:0015
#0283a1:54
#028371:0023
#0283b1:0000000000000013
#029371:0023000000000000
#029351:0015
#030321:54
#030361:0023
#031391:15
#031381:0053
#032391:0025
#031320:15
#031350:0053
#032320:0025
#034320:00001424
#034350:0000000000540000
#0363a0:00001424
#036370:0000000000540000
#038320:00001424
#038360:0000000000540000
#040350:00001333
#040320:0000000000330033
#041350:33
#041320:00250000
#0423a0:0014000000000000
#042370:0000002400000000
#043320:15250000
#043330:0053000000000000
#043391:15250000
#0433a1:0053000000000000
#044321:0014000000000000
#044351:0000002400000000
#045371:14
#0453a1:00240000
#045351:00001323
#045380:00000013
#046380:23
#046321:13230000
#0463b0:00132300
#046351:00001333
#047321:23
#046380:00000013
#0473b0:23
#048330:00001400000000005454545454545454
#048320:0000000000000000000000000000000000540000005400000054000000540000
#048340:0000000000000000000000000000000000000054000000540000005400000054
#049330:24
#048391:00001400000000005454545454545454
#0483a1:0000000000000000000000000000000000540000005400000054000000540000
#048381:0000000000000000000000000000000000000054000000540000005400000054
#049391:24
#0503a1:0014000000000000
#050371:0000002400000000
#052321:0014000000000000
#052351:0000002400000000
#054371:1400003400340034
#0543a1:000000000034000000000000540000000000540000000000
#0553a1:0034000000002400
#055361:00000000000000540000000000000000
#056321:0015000000000000
#056351:00000023
#056390:0015000000000000
#056380:00000023
#0593b0:0000001333000023
#059380:000000000000000000000000000000000033000000000000
#059351:0000000013000023
#059321:000000000000000000000000000000000033000000000000
#063381:00000014
#0643a1:24
#064341:0014000000000000
#064321:0000002400000000
#065381:0000133300000000
#0653b1:00000000000000330000230000000000
#065351:0000000000001333
#065321:00000000000000000000000000000033
#066321:0023000000000000
#067381:000000000000000000130033000000000000000000330033
#0673b1:000000000000000000000000000000330033000000000000
#0683b1:0023000000000000
#040980:00001353
#0409b0:0000000000530053
#041980:53
#041990:000000000000000000000000000000000000000000000000000000000000000000000000000000000000000000000000000000000000000000000000000000000000000000000000000000000000000000000000000000000000000000000000000000000000000000000000000000000000000000000000000000000000000000000000000000000000000000000000000000000000000000000000000000000000000000000000000000000000000000000000000000000000000000000000000000000000000000000000000000000000000000000000000000000000000000000000000000000000000000000000000000000000000000000000000000000000000000000000000000000000000000000000000000000000000000000000000000000000000000000000000000000000000000000000000000000000000000000000000000000000000000000000000000000000000000000000000000000000000000000000000000000000000000000000000000000000000000000000000000000000000000000000000000000000000000000000000000000000000000000000000000000000000000000000000000000000000000000000000000000000000000000000000000000000000000000000000000000000005555555555250000000000000000000000000000000000000000000000000000000000000000000000000000000000000000000000000000000000000000000000000000000000000000000000000000000000000000000000000000000000000000000000000000000000000000000000000000000000000000000000000000000000000000000000000000000000000000000000000000000000000000000000000000000000000000000000000000000000000000000000000000000000000000000000000000000000000000000000000000000000000000000000000000000000000000000000000000000000000000000000000000000000000000000000000000000000000000000000000000000000000000000000000000000000000000000000000000000000000000000000000000000000000000000000000000000000000000000000000000000000000000000000000000000000000000000000000000000000000000000000000000000000000000000000000000000000000000000000000000000000000000000000000000000000000000000000000000000000000000000000000000000000000000000000000000000000000000000000000000000000000000000000000000000000000000000000000000000000000000000000000000000000000000000000000000000000000000000000000000000000000000000000000000000000000000000000000000000000000000000000000000000000000000000000000000000000000000000000000000000000000000000000000000000000000000000000000000000000000000000000000000000000000000000000000000000000000000000000000000000000000000000000000000000000000000000000000000000000000000000000000000000000000000000000000000000000000000000000000000000000000000000000000000000000000000000000000000000000000000000000000000000000000000000000000000000000000000000000000000000000000000000000000000000000000000000000000000000000000000000000000000000000000000000000000000000000000000000000000000000000000000000000000000000000000000000000000000000000000000000000000000000000000000000000000000000000000000000000000000000000000000000000000000000000000000000000000000000000000000000000000000000000000000000000000000000000000000000000000000000000000000000000000000000000000000000000000000000000000000000000000000000000000000000000000000000000000000000000000000000000000000000000000000000000000000000000000000000000000000000000000000000000000000000000000000000000000000000000000000000000000000000000000000000000000000000000000000000000000000000000000000000000000000000000000000000000000000000000000000000000000000000000000000000000000000000000000000000000000000000000000000000000000000000000000000000000000000000000000000000000000000000000000000000000000000000000000000000000000000000000000000000000000000000000000000000000000000000000000000000000000000000000000000000000000000000000000000000000000000000000000000000000000000000000000000000000000000000000000000000000000000000000000000000000000000000000000000000000000000000000000000000000000000000000000000000000000000000000000000000000000000000000000000000000000000000000000000000000000000000000000000000000000000000000000000000000000000000000000000000000000000000000000000000000000000000000000000000000000000000000
#054930:0000000000000014
#055960:000000000000000000000000000000000000000000000000000000000000000000000000000000000000000000000000000000000000000000000000000000000000000000000000000000000000000000000000000000000000000000000000000000000000000000000000000000000000000000000000000000000000000000000000000000000000000000000000000000000000000000000000000000000000000000000000000000000000000000000000000000000000000000000000000000000000000000000000000000000000000000000000000000000000000000000000000000000000000000000000540000000000000000000000000000000000000000000000000000000000000000000000000000000000000000000000000000000000000000000000000000000000000000000000000000000000000000000000000000000000000000000000000000000000000000000000000000000000000000000000000000000000000000000000000000000000000000000000000000000000000000000000000000000000000000000000000000000000000000000000000000000000000000000000000000000000000000000000000000000000000000000000000000000000000000000000000000000000000000000000000000000000000000000000000000000000000000000000000000000000000000000000000000000000000000000000000000000000000000000000000000000000000000000000000000000000000000000000000000000000000000000000000000000000000000000000000000000000000000000000000000000000000000000000000000000000000000000000000000000000000000000000000000000000000000000000000000000000000000000000000000000000000000000000000000000000000000000000000000000000000000000000000000000000000000000000000000000000000000000000000000000000000000000000000000000000000000000000000000000000000000000000000000000000000000000000000000000000000000000000000000000000000000000000000000000000000000000000000000000000000000000000000000000000000000000000000000000000000000000000000000000000000000000000000000000000000000000000000000000000000000000000000000000000000000000000000000000000000000000000000000000000000000000000000000000000000000000000000000000000000000000000000000000000000000000000000000000000000000000000000000000000000000000000000000000000000000000000000000000000000000000000000000000000000000000000000000000000000000000000000000000000000000000000000000000000000000000000000000000000000000000000000000000000000000000000000000000000000000000000000000000000000000000000000000000000000000000000000000000000000000000000000000000000000000000000000000000000000000000000000000000000000000000000000000000000000000000000000000000000000000000000000000000000000000000000000000000000000000000000000000000000000000000000000000000000000000000000000000000000000000000000000000000000000000000000000000000000000000000000000000000000000000000000000000000000000000000000000000000000000000000000000000000000000000000000000000000000000000000000000000000000000000000000000000000000000000000000000000000000000000000000000000000000000000000000000000000000000000000000000000000000000000000000000000000000000000000000000000000000000000000000000000000000000000000000000000000000000054545454240000000000000000000000000000000000000000000000000000000000000000000000000000000000000000000000000000000000000000000000000000000000000000000000000000000000000000000000000000000000000000000000000000000000000000000000000000000000000000000000000000000000000000000000000000000000000000000000000000000000000000000000000000000000000000000000000000000000000000000000000000000000000000000000000000000000000000000000000000000000000000000000000000000000000000000000000000000000000000000000000000000000000000000000000000000000000000000000000000000000000000000000000000000000000000000000000000000000000000000000000000000000000000000000000000000000000000000000000000000000000000000000000000000000000000000000000000000000000000000000000000000000000000000000000000000000000000000000000000000000000000000000000000000000000000000000000000000000000000000000000000000000000000000000000000000000000000000000000000000000000000000000000000000000000000000000000000000000000000000000
#055920:00000000000000540000000000000000
