This file was generated by Ched 2.7.0.0.
#TITLE ""
#ARTIST ""
#DESIGNER ""
#DIFFICULTY 0
#PLAYLEVEL
#SONGID ""
#WAVE ""
#WAVEOFFSET 0
#JACKET ""
#REQUEST "ticks_per_beat 480"
#00002: 4
#BPM01: 113
#00008: 01
#TIL00: ""
#VOLUME: ""
#HISPEED 00
#MEASUREHS 00
#0011a:14
#00214:14
#00318:14
#00412:14
#0091a:14
#01014:14
#0111a:14
#01214:14
#01210:41
#01318:14
#01412:14
#01518:14
#0151f:11
#01612:14
#02112:0016
#02118:26
#0211f:21
#02312:16
#02318:0016
#02518:16
#02512:0016
#02712:16
#02718:0016
#0291a:14
#02910:41
#03014:14
#03118:14
#03212:14
#03218:0026
#03312:16
#03318:0016
#03418:16
#03412:0016
#03518:16
#03512:0016
#03510:41
#03612:16
#03618:0026
#03712:16
#03812:0016
#03918:16
#04218:0016
#04312:16
#04318:0026
#04412:0014
#04518:14
#04514:0014
#0461a:14
#04612:0014
#04718:14
#04714:0014
#00610:41
#02210:41
#04110:41
#005390:14
#006390:24
#007330:14
#008330:24
#0173a0:14
#0183a0:24
#019340:14
#020340:24
#022380:1626
#024320:1626
#026380:1626
#028320:1626
#037380:0016
#038380:26
#039320:0016
#040320:26
#040380:00001636
#041380:26
#041320:00001636
#042320:26
#043380:0016
#044380:26
#0483a0:14343424
