This file was generated by Ched 2.7.0.0.
#TITLE ""
#ARTIST ""
#DESIGNER ""
#DIFFICULTY 0
#PLAYLEVEL
#SONGID ""
#WAVE ""
#WAVEOFFSET 0
#JACKET ""
#REQUEST "ticks_per_beat 480"
#00002: 4
#BPM01: 113
#00008: 01
#TIL00: ""
#VOLUME: ""
#HISPEED 00
#MEASUREHS 00
#00118:1300000013130000
#00113:000000000000000000000000000000000000000000000000000000000000000000000000000000000000000000000000000000000000001300000000000000000000000000000000000000000000000000000000000000000000000000000000
#00115:130000000000000000000000000000000000000000000000130000000000000000000000000000000000000000000000000000000000000000000000000000000000001300000000000000000000000000000000000000000000000000000000
#0011a:00000013
#0011b:0013000000000000
#00112:0000001300000000
#00316:1313
#00319:000000000000001300000000000000000000000000000000000000000000001300000000000000000000000000000000000000000000001300000000000000000000000000000000000000000000000000000000000000000000000000000000
#00314:0013001300130000
#00317:000000000000000000000000000000000000001300000000000000000000000000000000000000000000000000000000000000000000000000000000000000000000001300000000000000000000000000000000000000000000000000000000
#00312:00130000
#0031b:000000000000000000000000000000000000000000000000000000000000000000000000000000000000001300000000000000000000000000000000000000000000000000000000000000000000000000000000000000000000000000000000
#00412:13131313
#00418:000000000000001300000000000000000000000000000000000000000000001300000000000000000000000000000000000000000000000000000000000000000000000000000000000000000000000000000000130000000000000000000000
#00415:0013001300000053
#0041b:000000000000000000000000000000000000001300000000000000000000000000000000000000000000000000000000130000000000000000000000000000000000000000000000000000000000000000000000000000000000000000000000
#00416:0000000000140000
#00419:000000000000000000000053
#0041a:000000000000000000000000000000000000000000000053
#00413:000000000000000000000000000000000000005300000000
#00414:000000000053
#00515:000000000000000000000000000000000000000000000000000000000000000000000000000000000000000000000000130000000000000000000000000000000000001300000000000000000000000000000000130000000000000000000000
#00512:00130000
#00518:000000000000000000000000130000000000000000000000000000000000000000000000000000000000000000000000000000000000000000000000000000000000000000000000000000000000001300000000000000000000000000000000
#0051b:53130000
#00617:0013000000000000
#0061b:1300130000130000
#00612:000000000000130000000000000000000000333333130000
#00615:000000000000000000000000000000000000000000000000000000000000000000000000000000000000000000000000000000000000000000000000000000000000000000000000000000000000000000000000000000000000003300000000
#00610:41
#01018:130000000000000000000000000000000000000000000000000000000000001300000000000000000000000000000000000000000000001300000000000000000000000000000000000000000000000000000000000000000000000000000000
#01016:000000000000001200000000000000000000001200000000000000000000000000000000000000000000000000000000000000000000000000000000000000000000000000000000000000000000000000000000000000000000000000000000
#0101b:0013005300530000
#01015:000000000000000000000000000000000000000000000000000000000000000000000000000000000000001300000000000000000000000000000000000000000000000000000000000000000000000000000000000000000000000000000000
#01012:0053
#01112:13
#01117:000000000000001200000000000000000000000000000000000000000000000000000000000000000000000000000000000000000000000000000000000000000000000000000000000000000000000000000000000000000000001200000000
#01113:0013000000000000
#01118:000000000000000000000000000000000000001200000000000000000000000000000000000000000000000000000000000000000000000000000000000000000000000000000000000000000000000000000000000000000000000000000000
#01114:00130000
#01119:000000000000000000000000000000000000000000000000000000000000001200000000000000000000000000000000000000000000000000000000000000000000000000000000000000000000000000000000000000000000000000000000
#01115:0000001300001300
#0111a:000000000000000000000000000000000000000000000000000000000000000000000000000000000000001200000000000000000000000000000000000000000000000000000000000000000000000000000000000000000000000000000000
#0111b:0000000000130013
#01116:0013
#01219:13
#01215:000000000000001200000000000000000000000000000000000000000000000000000000130000000000000000000000130000000000000000000000000000000000000000000000000000000000000000000000000000000000000000000000
#01217:0013000000000000
#01213:000000000000000000000000000000000000001200000000000000000000000000000000000000000000000000000000000000000000000000000000000000000000000000000000000000000000000000000000000000000000000000000000
#01218:000000000000000000000000000000000000000000000000000000000000001200000000000000000000001200000000000000000000000000000000000000000000000000000000000000000000001300000000000000000000000000000000
#01210:41
#01315:0013001300000000
#01318:000000000000000000000000000000000000001200000000000000000000000000000000000000000000001200000000000000000000000000000000000000000000000000000000130000000000000000000000130000000000000000000000
#01312:23131300
#0131b:000000000000001200000000000000000000000000000000000000000000001200000000000000000000000000000000000000000000001200000000000000000000000000000000000000000000000000000000000000000000000000000000
#01316:000000000000000000000000000000000000000000000000000000000000000000000000000000000000000000000000000000000000000000000000000000000000000000000000000000000000000000000000000000000000001200000000
#01313:000000000000000000000000000000000000000000000000000000000000000000000000000000000000000000000000000000000000000000000000000000000000000000000000000000000000001200000000000000000000000000000000
#0141b:13130013
#01413:000000000000001200000000000000000000000000000000000000000000000000000000000000000000000000000000130000000000000000000000000000000000000000000000000000000000000000000000000000000000000000000000
#01418:000000000000000000000000130000000000000000000000000000000000000000000000000000000000000000000000000000000000001200000000000000000000000000000000000000000000000000000000000000000000000000000000
#01416:000000000000000000000000000000000000001200000000000000000000000000000000000000000000000000000000000000000000000000000000000000000000000000000000000000000000000000000000000000000000000000000000
#01415:0000001300130000
#0141a:000000000000000000000000000000000000000000000000000000000000000000000000000000000000001200000000000000000000000000000000000000000000000000000000000000000000000000000000000000000000000000000000
#01518:130000000000000000000000000000000000000000000000130000000000000000000000000000000000000000000000130000000000000000000000000000000000000000000000000000000000001200000000000000000000000000000000
#01513:000000000000001200000000000000000000000000000000000000000000001200000000000000000000000000000000000000000000001200000000000000000000000000000000000000000000000000000000000000000000000000000000
#0151a:0014001400140000
#01516:000000000000000000000000000000000000001200000000000000000000000000000000000000000000001200000000000000000000000000000000000000000000001200000000000000000000000000000000000000000000000000000000
#01515:0000000000000013
#0151b:000000000000000000000000000000000000000000000000000000000000000000000000000000000000000000000000000000000000000000000000000000000000000000000000000000000000000000000000000000000000001200000000
#0151f:11
#01612:13130000
#01615:0013001300000000
#01618:000000000000001200000000000000000000000000000000000000000000001200000000000000000000000000000000000000000000000000000000000000000000000000000000000000000000000000000000000000000000000000000000
#0161b:000000000000000000000000000000000000001200000000000000000000000000000000000000000000001200000000000000000000000000000000000000000000000000000000000000000000000000000000000000000000000000000000
#01616:000000000000000000000000000000000000000000000000000000000000000000000000000000000000000000000000000000000000002400000000000000000000000000000000000000000000002400000000000000000000000000000000
#01712:1313
#01715:0013000000000000
#01718:00130000
#0171b:000000000000000000000000000000000000000000000000000000000000000000000000130000000000000000000000000000000000000000000000130000000000001300000000000000000000000000000000000000000000000000000000
#01717:000000000000000000000000000000000000000000000000000000000000000000000000000000000000000000000000000000000000000000000000000000000000000000000000000000000000001300000000000000000000000000000000
#01716:000000000000000000000000000000000000000000000000000000000000000000000000000000000000000000000000000000000000000000000000330000001300003300000000000000000000000000000000000000000000000000000000
#01812:1300001300000000
#01818:000000000000000000000000130000000000000000000000000000000000000000000000000000000000000000000000000000000000001300000000000000000000000000000000000000000000000000000000000000000000000000000000
#01815:00130000
#0181b:000000000000000000000000000000000000001300000000
#01915:13130000
#0191a:000000000000001200000000000000000000000000000000000000000000001200000000000000000000000000000000000000000000000000000000000000000000000000000000000000000000000000000000000000000000000000000000
#01913:0013001300000000
#01918:000000000000000000000000000000000000001200000000000000000000000000000000000000000000001200000000000000000000000000000000130000000000000000000000000000000000000000000000000000000000000000000000
#0211a:0014000000000000
#02115:000000000000000000000000000000000000001300000000000000000000000000000000000000000000000000000000000000000000000000000000130000000000000000000000000000000000000000000000130000000000000000000000
#02112:000000000000000000000000000000000000000000000000000000000000001300000000000000000000001300000000000000000000000000000000000000000000000000000000130000000000000000000000000000000000000000000000
#02118:000000000000000000000000000000000000000000000000130000000000000000000000000000000000000000000000000000000000001300000000000000000000000000000000000000000000001300000000000000000000000000000000
#0211b:000000000000000000000000000000000000000000000000000000000000000000000000000000000000001300000000000000000000000000000000000000000000001300000000000000000000000000000000000000000000001300000000
#02114:24
#0211f:21
#02212:13000000001300000000000000000000
#02218:000000000000001300000000000000000000003300000000000000000000003300000000000000000000003300000000130000000000000000000000000000000000000000000000000000000000000000000000000000000000000000000000
#02215:000000000000000000000000130000000000003300000000000000000000003300000000000000000000003300000000130000000000000000000000000000000000000000000000000000000000000000000000140000000000000000000000
#02217:000000000000000000000000000000000000000000000000000000000000000000000000000000000000000000000000000000000000000000000000000000000000000000000000000000000000001400000000000000000000001400000000
#0221b:000000000000001300000000000000000000000000000000
#02210:41
#0241b:130000000000000000000000000000000000000000000000000000000000000000000000130000000000000000000000000000000000000000000000000000000000000000000000000000000000000000000000530000000000005300000000
#02416:000000000000001300000000000000000000000000000000000000000000000000000000000000000000000000000000000000000000000000000000000000000000000000000000000000000000000000000000000000000000000000000000
#02419:0013000000000000
#02414:000000000000000000000000000000000000001300000000000000000000000000000000000000000000000000000000000000000000000000000000000000000000000000000000000000000000000000000000000000000000000000000000
#02417:00130000
#02412:000000000000000000000000000000000000000000000000000000000000001300000000000000000000000000000000000000000000000000000000000000000000000000000000000000000000000000000000000000000000000000000000
#02418:000000000000000000000000000000000000000000000000000000000000000000000000000000000000000000000000000000000000000000000000000000000000000000000000000000000000001300000000000000000000000000000000
#02518:0013000000000000
#02515:000000000000000000000000000000000000001300000000000000000000000000000000000000000000000000000000000000000000000000000000000000000000000000000000000000000000000000000000000000000000000000000000
#0251b:630000000000000000000000000000000000000000000000130000000000000000000000000000000000001300000000000000000000000000000000000000000000000000000000000000000000000000000000000000000000001300000000
#02512:000000000000000000000000000000000000000000000000000000000000001300000000000000000000000000000000000000000000000000000000000000000000000000000000000000000000000000000000000000000000000000000000
#02517:0000000000130000
#02513:000000000000000000000000000000000000000000000000000000000000000000000000000000000000000000000000000000000000001300000000000000000000000000000000000000000000000000000000000000000000000000000000
#02516:000000000000000000000000000000000000000000000000000000000000000000000000000000000000000000000000000000000000000000000000000000000000001300000000000000000000000000000000000000000000000000000000
#0251a:00000013
#02615:13130000
#02612:000000000000001300000000000000000000000000000000000000000000001300000000000000000000000000000000000000000000000000000000000000000000000000000000000000000000000000000000130000000000000000000000
#02618:000000000000000000000000130000000000000000000000000000000000000000000000000000000000001300000000000000000000000000000000000000000000000000000000000000000000000000000000000000000000000000000000
#0261b:000000000000000000000000000000000000001300000000000000000000000000000000000000000000000000000000000000000000000000000000000000000000000000000000000000000000000000000000000000000000001300000000
#02616:000000000000000000000000000000000000000000000000000000000000000000000000000000000000000000000000000000000000001300000000130000000000000000000000000000000000000000000000000000000000000000000000
#02715:14141400
#02717:000000000000001400000000000000000000000000000000000000000000001400000000000000000000000000000000000000000000001400000000000000000000000000000000000000000000000000000000000000000000000000000000
#02712:0013001300130000
#0271b:000000000000000000000000000000000000001300000000000000000000000000000000000000000000001300000000000000000000000000000000000000000000000000000000000000000000000000000000000000000000000000000000
#0281b:0013
#02815:000000000000000000000000000000000000000000000000000000000000000000000000000000000000001300000000000000000000001300000000000000000000000000000000000000000000000000000000130000000000000000000000
#02818:000000000000000000000000000000000000000000000000000000000000000000000000130000000000000000000000000000000000000000000000130000000000000000000000000000000000001300000000000000000000000000000000
#02812:24000013
#02819:00130000
#02814:00130000
#0281a:24
#02918:000000000000000000000000000000000000001300000000000000000000000000000000000000000000001300000000000000000000000000000000000000000000001300000000000000000000000000000000000000000000001300000000
#02915:000000000000000000000000000000000000000000000000000000000000001300000000000000000000000000000000130000000000000000000000000000000000000000000000000000000000000000000000000000000000000000000000
#0291b:13
#02912:000000000000001300000000000000000000000000000000000000000000000000000000000000000000000000000000000000000000000000000000000000000000000000000000130000000000000000000000000000000000000000000000
#02910:41
#0301a:00120000
#03018:0000001200000000
#03016:0012
#03014:0000000000120000
#03012:0013000000001300
#03015:13
#03416:000000000000000000000000000000000000000000000000000000000000001200000000000000000000000000000000000000000000000000000000000000000000000000000000000000000000000000000000000000000000000000000000
#03418:1300001200130014
#03414:000000000000000000000000000000000000000000000000000000000000000000000000000000000000001200000000000000000000000000000000000000000000000000000000000000000000001400000000000000000000000000000000
#0341a:00001213
#03415:130000000000000000000000000000000000000000000000000000000000000000000000000000000000000000000000000000000000001300000000000000000000000000000000000000000000000000000000000000000000000000000000
#03413:000000000000000000000000000000000000000000000000000000000000000000000000000000000000000000000000000000000000000000000000000000000000001300000000000000000000000000000000000000000000000000000000
#03412:000000000000000000000000000000000000000000000000000000000000000000000000000000000000000000000000000000000000000000000000000000000000000000000000000000000000000000000000000000000000001400000000
#0351a:14
#03515:000000000000001300000000000000000000000000000000000000000000000000000000000000000000000000000000000000000000000000000000000000000000000000000000000000000000000000000000000000000000000000000000
#03518:0013000000000000
#03512:000000000000000000000000000000000000001300000000000000000000000000000000000000000000000000000000130000000000000000000000000000000000000000000000000000000000000000000000130000000000000000000000
#03519:000000000000000000000000000000000000000000000000000000000000000000000000130000000000000000000000000000000000000000000000000000000000001300000000000000000000000000000000000000000000000000000000
#03517:000000000000000000000000000000000000000000000000000000000000000000000000000000000000000000000000000000000000001300000000000000000000000000000000000000000000000000000000000000000000000000000000
#03514:0000001300130000
#03516:00000013
#0351b:000000000000000000000000000000000000000000000000000000000000000000000000000000000000000000000000000000000000000000000000000000000000000000000000000000000000001300000000000000000000000000000000
#03510:41
#0391b:000000000000000000000000130000000000000000000000000000000000000000000000000000000000001300000000000000000000000000000000000000000000001300000000000000000000000000000000000000000000000000000000
#03915:000000000000001400000000000000000000000000000000000000000000000000000000000000000000000000000000130000000000000000000000000000000000000000000000130000000000000000000000000000000000000000000000
#03918:000000000000000000000000000000000000000000000000000000000000000000000000000000000000000000000000000000000000001300000000000000000000000000000000000000000000001300000000000000000000001300000000
#03912:0000000000130013
#03917:14
#04015:000000000000000000000000000000000000000000000000000000000000000000000000130000000000000000000000000000000000000000000000000000000000000000000000000000000000001300000000000000000000000000000000
#04018:000000000000000000000000000000000000000000000000000000000000000000000000000000000000001300000000000000000000000000000000000000000000000000000000000000000000000000000000130000000000000000000000
#0401b:000013000000000000130000
#04012:000000000000000000000000000000000000000000000000000000000000000000000000000000000000000000000000240000000000000000000000000000000000000000000000000000000000000000000000000000000000001300000000
#04118:000000000000000000000000130000000000000000000000000000000000000000000000000000000000001300000000000000000000000000000000000000000000000000000000000000000000000000000000000000000000001300000000
#0411b:000000000000000000000000000000000000001300000000000000000000000000000000130000000000000000000000000000000000000000000000000000000000001300000000000000000000000000000000000000000000000000000000
#04115:000000000000000000000000130000000000000000000000000000000000000000000000000000000000000000000000000000000000000000000000000000000000000000000000000000000000001300000000000000000000000000000000
#04112:0000001300000000
#0411a:24
#04114:0024
#04110:41
#04416:0000730000131300
#04417:000000000000000000000000000000000000000000000000000000000000000000000000000000000000000000000000130000000000000000000000000000000000000000000000000000000000001300000000000000000000000000000000
#0441b:130000000000000000000000000000000000000000000000000000000000000000000000000000000000000000000000000000000000000000000000000000000000000000000000000000000000000000000000000000000000001300000000
#04412:000000000000000000000000000000000000000000000000000000000000000000000000000000000000000000000000730000000000000000000000000000000000000000000000000000000000000000000000000000000000001300000000
#04414:0000007300000000
#04515:000000000000001300000000000000000000001300000000000000000000000000000000000000000000000000000000000000000000000000000000000000000000000000000000000000000000000000000000000000000000000000000000
#04518:000000000000000000000000130000000000000000000000000000000000000000000000530000000000000000000000000000000000000000000000130000000000000000000000000000000000001300000000000000000000000000000000
#04512:0013
#0451b:000000000000000000000000000000000000000000000000000000000000000000000000000000000000000000000000530000000000000000000000000000000000000000000000000000000000000000000000000000000000001300000000
#04519:000000000053000000000000
#0451a:000000000000000000000053000000000000000000000000
#0461a:0013
#04618:0000000000120012
#04615:0053000000001300
#04612:00531300
#04614:005300000000
#04613:000000000053000000000000000000000000000000000000
#04713:1313
#04716:0012001200000000
#04718:000000000000000000000000000000000000000000000000130000000000000000000000000000000000000000000000000000000000001300000000000000000000001300000000000000000000000000000000000000000000000000000000
#04715:000000000000000000000000000000000000000000000000000000000000000000000000000000000000000000000000000000000000000000000000130000000000000000000000130000000000000000000000000000000000001200000000
#0471a:13
#0471b:0000000013000013
#0481a:130000000000000000000000130000000000005300000000
#04812:000000000000001200000000000000000000000000000000000000000000000000000000000000000000000000000000000000000000001200000000000000000000000000000000000000000000000000000000000000000000000000000000
#04817:000000130000000000000000000000130000000000005300
#0481b:00130013
#04818:0000001300000053
#04815:000000000000000000000000000000000000000000000000000000000000000000000000000000000000001200000000000000000000000000000000000000000000000000000000000000000000000000000000000000000000000000000000
#04816:000000000000000000000000000000000000001200000000000000000000000000000000000000000000000000000000000000000000000000000000000000000000001200000000000000000000000000000000000000000000000053000000
#04813:000000000000000000000000000000000000000000000000000000000000001200000000000000000000000000000000000000000000000000000000000000000000000000000000000000000000000000000000000000000000000000000000
#04819:000000000053
#00218:13130000
#00215:1313
#00212:0013001300000000
#0021b:0013001300001300
#0071b:00130000
#00715:000000000000000000000000130000000000000000000000000000000000000000000000000000000000000000000000000000000000000000000000000000000000000000000000000000000000001300000000000000000000000000000000
#00712:00130000
#00718:000000000000000000000000000000000000000000000000000000000000000000000000000000000000000000000000130000000000000000000000000000000000001300000000000000000000000000000000130000000000000000000000
#00816:0013000000000000
#00812:130000000000000000000000000000000000000000000000130000000000000000000000000000000000000000000000240000000000002400000000000000000000000000000000000000000000000000000000000000000000000000000000
#0081b:000000000000000000000000000000000000000000000000130000000000000000000000000000000000000000000000000000000000000000000000000000000000000000000000000000000000002300000000000000000000000000000000
#00818:000000000000000000000000000000000000000000000000000000000000000000000000000000000000000000000000230000000000002300000000000000000000000000000000000000000000000000000000000000000000000000000000
#00814:000000000000000000000000000000000000000000000000000000000000000000000000000000000000000000000000000000000000000000000000000000000000000000000000240000000000002400000000000000000000000000000000
#0091b:000000000000000000000000000000000000000000000000000000000000000000000000000000000000001200000000000000000000000000000000000000000000000000000000130000000000000000000000000000000000000000000000
#00918:000000000000000000000000000000000000000000000000000000000000000000000000000000000000000000000000000000000000001200000000000000000000000000000000000000000000000000000000130000000000000000000000
#00912:1300000000130000
#00915:0013000013000000
#00916:000000000000000000000000000000000000000000000000000000000000001200000000000000000000000000000000000000000000000000000000000000000000000000000000000000000000001200000000000000000000000000000000
#00913:000000000000000000000000000000000000000000000000000000000000000000000000000000000000000000000000000000000000000000000000000000000000000000000000000000000000000000000000000000000000001200000000
#02315:14141400
#0231a:000000000000001400000000000000000000000000000000000000000000001400000000000000000000000000000000000000000000001400000000000000000000000000000000000000000000000000000000000000000000000000000000
#02312:0014001400140000
#02317:000000000000000000000000000000000000001400000000000000000000000000000000000000000000001400000000000000000000000000000000000000000000000000000000000000000000000000000000000000000000000000000000
#02314:0000000000000013
#02319:0000000000000013
#0311b:0013
#03112:0000000000130013
#03115:00000013
#03118:0000000000130013
#03215:0013001300001300
#0321b:000000000000000000000000130000000000000000000000000000000000000000000000130000000000000000000000000000000000000000000000000000000000000000000000000000000000001300000000000000000000001300000000
#03218:130000000000000000000000000000000000000000000000000000000000000000000000000000000000000000000000240000000000000000000000000000000000001300000000000000000000000000000000000000000000000000000000
#03212:000000000000000000000000000000000000000000000000130000000000000000000000000000000000000000000000000000000000000000000000140000000000000000000000000000000000000000000000000000000000001300000000
#03315:000000000000001300000000000000000000000000000000000000000000000000000000000000000000000000000000000000000000001300000000000000000000003300000000000000000000003300000000000000000000003300000000
#03312:000000000000000000000000000000000000001300000000000000000000000000000000000000000000001300000000000000000000000000000000000000000000000000000000000000001300000000000000000000000000000000000000
#03318:000000000000000000000000130000000000000000000000000000000000000000000000000000000000000000000000000000000000000000000000130000000000003300000000000000000000003300000000000000000000003300000000
#0331b:00000000130000001300000000130000
#03616:0000000000130000
#03617:00000013
#03612:000000000000000000000000000000000000000000000000000000000000000000000000530000000000005300000000630000000000000000000000000000000000000000000000130000000000000000000000000000000000000000000000
#0361b:000000000000000000000000000000000000000000000000000000000000000000000000000000000000000000000000000000000000000000000000130000000000000000000000000000000000001300000000000000000000000000000000
#03615:000000000000000000000000000000000000000000000000000000000000001300000000000000000000000000000000000000000000000000000000000000000000000000000000000000000000000000000000130000000000000000000000
#03618:000000000000000000000000000000000000000000000000000000000000000000000000000000000000000000000000000000000000000000000000000000000000000000000000000000000000000000000000000000000000001300000000
#03716:0013000000000000
#0371a:000000000000001300000000000000000000000000000000000000000000000000000000000000000000002400000000000000000000000000000000000000000000000000000000000000000000000000000000000000000000000000000000
#03717:000000000000000000000000000000000000001300000000000000000000000000000000000000000000000000000000000000000000000000000000000000000000000000000000000000000000000000000000000000000000000000000000
#03713:00130000
#03712:13000024
#03715:000000000000000000000000000000000000000000000000000000000000000000000000000000000000000000000000000000000000000000000000130000000000000000000000000000000000000000000000000000000000001300000000
#03718:000000000000000000000000000000000000000000000000000000000000000000000000000000000000000000000000000000000000000000000000000000000000001300000000000000000000000000000000130000000000000000000000
#0381b:1300001300130013
#03812:000000000000001300000000000000000000000000000000000000000000000000000000000000000000001300000000000000000000000000000000000000000000001300000000000000000000000000000000000000000000001300000000
#03817:00001414
#03815:000000000000000000000000000000000000000000000000000000000000000000000000000000000000000000000000000000000000001400000000000000000000000000000000000000000000001400000000000000000000000000000000
#03816:0024000000000000
#04312:00240014
#04316:240000000000000000000000000000000000002400000000000000000000000000000000000000000000000000000000240000000000000000000000000000000000000000000000000000000000000000000000000000000000000000000000
#04318:000000000000000000000000000000000000000000000000000000000000002400000000000000000000000000000000000000000000000000000000000000000000000000000000000000000000000000000000000000000000000000000000
#04314:0000002400000000
#0431a:000000000000000000000000000000000000000000000000000000000000000000000000000000000000002400000000000000000000000000000000000000000000000000000000000000000000000000000000000000000000000000000000
#0421b:0013000000000000
#04212:000000000000000000000000000000000000000000000000240000000000000000000000000000000000000000000000000000000000000000000000000000000000000000000000000000000000000000000000000000000000002400000000
#04218:000000000000000000000000000000000000000000000000000000000000002400000000000000000000000000000000000000000000000000000000000000000000000000000000000000000000000000000000240000000000000000000000
#04214:000000000000000000000000000000000000000000000000000000000000000000000000240000000000000000000000000000000000000000000000000000000000000000000000000000000000002400000000000000000000000000000000
#0421a:000000000000000000000000000000000000000000000000000000000000000000000000000000000000002400000000000000000000000000000000000000000000000000000000240000000000000000000000000000000000000000000000
#04216:000000000000000000000000000000000000000000000000000000000000000000000000000000000000000000000000240000000000000000000000000000000000002400000000000000000000000000000000000000000000000000000000
#02018:000000000000000000000000000000000000000000000000000000000000000000000000000000000000000000000000240000000000000000000000000000000000000000000000000000000000000000000000000000000000002400000000
#02014:00232400
#02012:23
#0201b:23
#02019:00230000
#01352:13
#01258:000000000000000000000000000000000000000000000000000000000000000000000000000000000000000000000000000000000000000000000000000000000000000000000000000000000000005300000000000000000000000000000000
#01255:0013
#01253:000000000000000000000000000000000000005200000000000000000000000000000000000000000000000000000000000000000000000000000000000000000000000000000000000000000000000000000000000000000000000000000000
#0285a:14
#02852:14
#02858:0000000000130000
#02855:0000000000000013
#00158:53
#00155:00530000
#0015b:0023000000000000
#00152:0000002300000000
#00255:6353
#00252:0023000000000000
#00258:00630000
#0025b:0000002300000000
#00357:000000000000000000000000000000000000000000000000000000000000000000000000000000000000000000000000000000000000000000000000000000000000001300000000000000000000000000000000000000000000000000000000
#00455:0000001300000000
#00555:0000000000000013
#00552:00130000
#00652:0000130000000053
#0075b:00130000
#00758:0000000000000013
#0085b:00130000
#0095b:00000013
#01056:000000000000000000000000000000000000005200000000000000000000000000000000000000000000000000000000000000000000000000000000000000000000000000000000000000000000000000000000000000000000000000000000
#0105b:0000000000430000
#01156:0053
#0115b:0000000000530000
#01155:00000053
#0145b:00530013
#01455:0000000000530000
#01452:00000013
#01556:000000000000000000000000000000000000000000000000000000000000000000000000000000000000000000000000000000000000000000000000000000000000001200000000000000000000000000000000000000000000000000000000
#01656:000000000000000000000000000000000000000000000000000000000000000000000000000000000000000000000000000000000000005400000000000000000000000000000000000000000000005400000000000000000000000000000000
#01752:0053
#01757:000000000000000000000000000000000000000000000000000000000000000000000000000000000000000000000000000000000000000000000000000000000000000000000000000000000000005300000000000000000000000000000000
#01756:000023
#01858:000000000000000000000000000000000000000000000000000000000000000000000000000000000000000000000000000000000000005300000000000000000000000000000000000000000000000000000000000000000000000000000000
#0185b:000000000000000000000000000000000000002300000000
#01958:0000000000430000
#01955:0000000000330000
#02054:0034
#02058:0044
#02154:54
#02158:00530000
#02152:000000000000000000000000000000000000000000000000000000000000000000000000000000000000005300000000000000000000000000000000000000000000000000000000000000000000000000000000000000000000000000000000
#02258:000000000000005300000000000000000000000000000000000000000000000000000000000000000000000000000000530000000000000000000000000000000000000000000000000000000000000000000000000000000000000000000000
#02255:0053000053000000
#02252:00000000002300000000000000000000
#02257:000000000000000000000000000000000000000000000000000000000000000000000000000000000000000000000000000000000000000000000000000000000000000000000000000000000000000000000000000000000000005400000000
#0225b:000000000000002300000000000000000000000000000000
#02355:54545400
#0235a:000000000000005400000000000000000000000000000000000000000000005400000000000000000000000000000000000000000000005400000000000000000000000000000000000000000000000000000000000000000000000000000000
#02352:0054005400540000
#02357:000000000000000000000000000000000000005400000000000000000000000000000000000000000000005400000000000000000000000000000000000000000000000000000000000000000000000000000000000000000000000000000000
#02354:000000000000000000000000000000000000000000000000000000000000000000000000000000000000000000000000000000000000000000000000000000000000001400000000000000000000000000000000000000000000000000000000
#02358:000000000000000000000000000000000000000000000000000000000000000000000000000000000000000000000000000000000000000000000000000000000000001400000000000000000000000000000000000000000000000000000000
#0245b:0000005300000000
#02458:000000000000000000000000000000000000000000000000000000000000000000000000000000000000000000000000000000000000000000000000000000000000000000000000000000000000005300000000000000000000000000000000
#0255b:130000000000000000000000000000000000000000000000000000000000000000000000000000000000005300000000000000000000000000000000000000000000000000000000000000000000000000000000000000000000000000000000
#02554:14
#0255a:00000013
#02552:000000000000000000000000000000000000000000000000000000000000005300000000000000000000000000000000000000000000000000000000000000000000000000000000000000000000000000000000000000000000000000000000
#0265b:0000000000130000
#02658:000000000000000000000000000000000000000000000000000000000000000000000000000000000000005300000000000000000000000000000000000000000000000000000000000000000000000000000000000000000000000000000000
#02652:000000000000000000000000000000000000000000000000000000000000005300000000000000000000000000000000000000000000000000000000000000000000000000000000000000000000000000000000000000000000000000000000
#02752:0000000000130000
#0295b:53
#02952:000000000000005300000000000000000000000000000000000000000000000000000000000000000000000000000000000000000000000000000000000000000000000000000000230000000000000000000000000000000000000000000000
#02955:0053
#03055:53
#03052:0023000000000000
#03255:0000002300006300
#0325b:000000000000000000000000230000000000000000000000000000000000000000000000000000000000000000000000000000000000000000000000000000000000000000000000000000000000000000000000000000000000006300000000
#03258:6364
#03252:00630000
#03152:0000000000000023
#03158:0000000000230000
#0315b:0063
#03155:00000063
#03552:000000000000000000000000000000000000001300000000000000000000000000000000000000000000000000000000000000000000000000000000000000000000000000000000000000000000000000000000630000000000000000000000
#0355b:000000000000000000000000000000000000001300000000000000000000000000000000000000000000000000000000000000000000000000000000000000000000000000000000000000000000000000000000000000000000000000000000
#03558:0053000000000000
#03753:00130000
#0375a:000000000000000000000000000000000000000000000000000000000000000000000000000000000000004400000000000000000000000000000000000000000000000000000000000000000000000000000000000000000000000000000000
#03752:00000034
#0395b:0013000000000000
#03958:000000000000000000000000000000000000000000000000000000000000000000000000000000000000000000000000000000000000000000000000000000000000000000000000000000000000000000000000000000000000005300000000
#03952:0000000000000053
#0405b:002300000000
#04052:0014
#04256:0014
#0425b:0023000000000000
#04356:1454
#04352:00000024
#04158:000000000000000000000000000000000000000000000000000000000000000000000000000000000000000000000000000000000000000000000000000000000000000000000000000000000000000000000000000000000000005300000000
#0415b:000000000000000000000000000000000000000000000000000000000000000000000000000000000000000000000000000000000000000000000000000000000000005300000000000000000000000000000000000000000000000000000000
#04155:000000000000000000000000530000000000000000000000000000000000000000000000000000000000000000000000000000000000000000000000000000000000000000000000000000000000005300000000000000000000000000000000
#04152:000000000000000000000000000000000000001300000000000000000000000000000000000000000000000000000000000000000000000000000000000000000000000000000000000000000000000000000000000000000000000000000000
#0415a:14
#04154:0014
#04457:0053
#0445b:000000000000000000000000000000000000000000000000000000000000000000000000000000000000000000000000000000000000000000000000130000000000000000000000000000000000000000000000000000000000005300000000
#04452:000000000000000000000000000000000000000000000000000000000000000000000000000000000000000000000000000000000000000000000000000000000000000000000000000000000000001300000000000000000000000000000000
#04456:00000053
#0455b:0043
#04652:00330000
#04755:00000053
#03655:000000000000000000000000000000000000000000000000000000000000006300000000000000000000000000000000000000000000000000000000000000000000000000000000000000000000000000000000000000000000000000000000
#03652:0013
#03658:0014
#03355:000000000000000000000000000000000000000000000000000000000000000000000000000000000000000000000000000000000000006300000000000000000000000000000000000000000000000000000000000000000000000000000000
#03358:0000001300630000
#0335b:00000000530000000000000000230000
#03352:000000000000000000000000000000000000002300000000
#03455:63
#03458:63
#03856:0044000000000000
#001380:13230000
#0013b0:0053000000000000
#001351:00132300
#001321:0000005300000000
#002351:13230000
#002321:0053000000000000
#002380:00132300
#0023b0:0000005300000000
#002351:0013
#002321:00000023
#005351:1323000000000000
#005381:000000000000000000000000000000000000000000000000000000000000000000000000000000000000000000000000000000000000000000000000130000000000002300000000000000000000000000000000000000000000000000000000
#006321:1323000000000000
#006361:000000000000000000000000000000000000000000000000000000000000000000000000000000000000000000000000000000000000000000000000000000000000001400000000000000000000000000000000000000000000000000000000
#006321:000000000000000000000000000000000000333333330000
#006351:000000000000000000000000000000000000000000000000000000000000000000000000000000000000000000000000000000000000000000000000000000000000000000000000000000000000000000000000000000000000003300000000
#007351:23
#007380:1323000000000000
#007350:000000000000000000000000000000000000000000000000000000000000000000000000000000000000000000000000000000000000000000000000130000000000002300000000000000000000000000000000000000000000000000000000
#0083b0:1323000000000000
#008380:000000000000000000000000000000000000000000000000000000000000000000000000000000000000000000000000000000000000001300000000000000000000000000000000230000000000000000000000000000000000000000000000
#0083b0:000000000000000000000000000000000000000000000000000000000000000000000000000000000000000000000000000000000000000000000000000000000000000000000000000000000000001300000000000000000000000000000000
#0093b0:23
#009380:000000000000000000000000000000000000000000000000130000000000002300000000000000000000000000000000000000000000000000000000000000000000000000000000000000000000000000000000000000000000000000000000
#010360:000000000000000000000000000000000000001200000000000000000000000000000000000000000000000000000000000000000000000000000000000000000000000000000000000000000000000000000000000000000000000000000000
#010330:000000000000000000000000000000000000000000000000000000000000002200000000000000000000000000000000000000000000000000000000000000000000000000000000000000000000000000000000000000000000000000000000
#011360:0013
#011330:000000000000000000000000000000000000000000000000000000000000000000000000000000000000000000000000000000000000003300000000230000000000000000000000000000000000000000000000000000000000000000000000
#0113b1:0000000000130000
#011381:000000000000000000000000000000000000000000000000000000000000000000000000000000000000000000000000000000000000000000000000000000000000003300000000230000000000000000000000000000000000000000000000
#011350:00000013
#011320:000000000000000000000000000000000000000000000000000000000000000000000000000000000000000000000000000000000000000000000000000000000000000000000000000000000000003300000000230000000000000000000000
#012330:000000000000000000000000000000000000001200000000000000000000000000000000000000000000000000000000000000000000000000000000000000000000000000000000000000000000000000000000000000000000000000000000
#012360:000000000000000000000000000000000000000000000000000000000000002200000000000000000000000000000000000000000000000000000000000000000000000000000000000000000000000000000000000000000000000000000000
#012350:000000000000000000000000000000000000000000000000000000000000000000000000000000000000000000000000000000000000000000000000000000000000000000000000130000000000002300000000000000000000000000000000
#012381:000000000000000000000000000000000000000000000000000000000000000000000000000000000000000000000000000000000000000000000000000000000000000000000000000000000000001300000000000000000000000000000000
#0123b1:000000000000000000000000000000000000000000000000000000000000000000000000000000000000000000000000000000000000000000000000000000000000000000000000000000000000000000000000000000000000003300000000
#0133b1:23
#013351:0000000000132300
#0143b1:00130000
#014381:0000002300000000
#014351:0000000000130000
#014321:00000023
#016321:000000000000000000000000000000000000000000000000000000000000000000000000000000000000000000000000130000000000002300000000000000000000000000000000000000000000000000000000000000000000000000000000
#016360:000000000000000000000000000000000000000000000000000000000000000000000000000000000000000000000000000000000000001400000000000000000000000000000000000000000000000000000000000000000000000000000000
#0163a0:00000024
#016321:000000000000000000000000000000000000000000000000000000000000000000000000000000000000000000000000000000000000000000000000000000000000000000000000130000000000002300000000000000000000000000000000
#016360:000000000000000000000000000000000000000000000000000000000000000000000000000000000000000000000000000000000000000000000000000000000000000000000000000000000000001400000000000000000000000000000000
#0173a0:24
#017320:000000000000000000000000000000000000000000000000000000000000000000000000000000000000000000000000130000000000000000000000000000000000000000000000000000000000002300000000000000000000000000000000
#017360:000000000000000000000000000000000000000000000000000000000000000000000000000000000000000000000000000000000000000000000000330000005300003300000000000000000000000000000000000000000000000000000000
#017371:000000000000000000000000000000000000000000000000000000000000000000000000000000000000000000000000000000000000000000000000000000000000000000000000000000000000001300000000000000000000000000000000
#0173b1:00000000000000000000000000000033
#0183b1:23
#018381:000000000000000000000000000000000000000000000000000000000000000000000000130000000000002300000000000000000000000000000000000000000000000000000000000000000000000000000000000000000000000000000000
#018350:000000000000000000000000000000000000000000000000000000000000000000000000000000000000001300000000000000000000002300000000000000000000000000000000000000000000000000000000000000000000000000000000
#018381:000000000000000000000000000000000000000000000000000000000000000000000000000000000000000000000000000000000000001300000000000000000000000000000000000000000000000000000000000000000000000000000000
#0183b1:000000000000000000000000000000000000005300000000
#019381:23
#019351:0000000013230000
#020321:1323000000000000
#0203b0:1323000000000000
#020340:0000132300000000
#020391:0000132300000000
#021341:14
#021321:0024000000000000
#021381:00130000
#0213b1:000000000000000000000000000000000000000000000000000000000000002300000000000000000000000000000000000000000000000000000000000000000000000000000000000000000000000000000000000000000000000000000000
#021321:000000000000000000000000000000000000000000000000000000000000000000000000000000000000001300000000000000000000000000000000000000000000000000000000000000000000000000000000000000000000000000000000
#021351:000000000000000000000000000000000000000000000000000000000000000000000000000000000000000000000000000000000000002300000000000000000000000000000000000000000000000000000000000000000000000000000000
#022381:000000000000001300000000000000000000003300000000000000000000003300000000000000000000003300000000330000000000000000000000000000000000000000000000000000000000000000000000000000000000000000000000
#0223b1:000000000000005300000000000000000000230000000000
#022350:000000000000000000000000130000000000003300000000000000000000003300000000000000000000003300000000330000000000000000000000000000000000000000000000000000000000000000000000000000000000000000000000
#022320:00000000005300000000000023000000
#022370:000000000000000000000000000000000000000000000000000000000000000000000000000000000000000000000000000000000000000000000000000000000000000000000000000000000000000000000000000000000000001400000000
#0233a0:540000000000003400000000000000000000000000000000540000000000003400000000000000000000000000000000540000000000003400000000000000000000000000000000000000000000000000000000000000000000000000000000
#023370:000000000000000000000000540000000000003400000000000000000000000000000000540000000000003400000000000000000000000000000000000000000000000000000000000000000000000000000000000000000000000000000000
#023380:000000000000000000000000000000000000000000000000000000000000000000000000000000000000000000000000000000000000000000000000540000000000002400000000000000000000000000000000000000000000000000000000
#023351:140054340054340000000000
#023321:005400340000005400340000005400340000000000000000
#023341:000000000000000000000000000000000000000000000000000000000000000000000000000000000000000000000000000000000000000000000000000000005400002400000000000000000000000000000000000000000000000000000000
#0243b1:0000001300000000
#024381:0023
#024340:000000000000000000000000145454545454545454545454
#024330:000000000000000000000000000000000000000000000000005400540054005400540054005400540054005400540054
#025340:24
#025320:000000000000000000000000000000000000000000000000000000000000001300000000000000000000000000000000000000000000000000000000000000000000000000000000000000000000000000000000000000000000000000000000
#025360:000000000000000000000000000000000000000000000000000000000000000000000000000000000000002300000000000000000000000000000000000000000000000000000000000000000000000000000000000000000000000000000000
#0253b1:000000000000000000000000000000000000000000000000000000000000000000000000000000000000001300000000000000000000000000000000000000000000000000000000000000000000000000000000000000000000000000000000
#025371:000000000000000000000000000000000000000000000000000000000000000000000000000000000000000000000000000000000000002300000000000000000000000000000000000000000000000000000000000000000000000000000000
#026321:000000000000000000000000000000000000000000000000000000000000001300000000000000000000000000000000000000000000000000000000000000000000000000000000000000000000000000000000000000000000000000000000
#026351:000000000000000000000000000000000000000000000000000000000000000000000000000000000000002300000000000000000000000000000000000000000000000000000000000000000000000000000000000000000000000000000000
#026380:000000000000000000000000000000000000000000000000000000000000000000000000000000000000001300000000000000000000000000000000000000000000000000000000000000000000000000000000000000000000000000000000
#0263b0:000000000000000000000000000000000000000000000000000000000000000000000000000000000000000000000000000000000000003300000000230000000000000000000000000000000000000000000000000000000000000000000000
#0293b0:13
#029380:000000000000002300000000000000000000000000000000000000000000000000000000000000000000000000000000000000000000000000000000000000000000000000000000000000000000000000000000000000000000000000000000
#029321:000000000000001300000000000000000000000000000000000000000000000000000000000000000000000000000000000000000000000000000000000000000000000000000000000000000000000000000000000000000000000000000000
#029351:000000000000000000000000000000000000002300000000000000000000000000000000000000000000000000000000000000000000000000000000000000000000000000000000000000000000000000000000000000000000000000000000
#029351:0013
#029321:000000000000000000000000000000000000000000000000000000000000000000000000000000000000000000000000000000000000000000000000000000000000002300000000000000000000000000000000000000000000000000000000
#029321:00000013
#029351:000000000000000000000000000000000000000000000000000000000000000000000000000000000000000000000000000000000000000000000000000000000000000000000000000000000000000000000000000000000000002300000000
#030351:13230000
#030321:0053000000000000
#0303b1:00000013
#030391:0000000000000023
#030320:0000000000000013
#031340:23
#031391:13
#031371:0023000000000000
#031340:0013000000000000
#031360:00230000
#0313b1:00130000
#031391:0000002300000000
#031320:0000001300000000
#031340:0023
#0313b1:00001323
#031381:0000000000530000
#031350:00000013
#031320:0000000000000053
#032350:23
#032381:13230000
#0323b1:0053000000000000
#032320:00132300
#032350:0000005300000000
#032381:0014
#0323a1:0000000000240000
#032351:00000013
#032321:000000000000000000000000000000000000000000000000000000000000000000000000000000000000000000000000000000000000000000000000000000000000000000000000000000000000002300000000000000000000000000000000
#0323b1:000000000000000000000000000000000000000000000000000000000000000000000000000000000000000000000000000000000000000000000000000000000000000000000000000000000000000000000000000000000000001300000000
#033381:000000000000002300000000000000000000000000000000000000000000000000000000000000000000000000000000000000000000000000000000000000000000000000000000000000000000000000000000000000000000000000000000
#0333b1:00130000
#033381:0000002300000000
#033351:000000000000000000000000000000000000000000000000000000000000000000000000000000000000000000000000000000000000001300000000000000000000003300000000000000000000003300000000000000000000003300000000
#033321:000000000000000000000000000000000000005300000000
#034351:33
#034321:00230000
#033380:000000000000000000000000000000000000000000000000000000000000000000000000000000000000000000000000000000000000000000000000130000000000003300000000000000000000003300000000000000000000003300000000
#0333b0:00000000000000000000000000530000
#034380:33
#0343b0:00230000
#035380:0013000000000000
#0353b0:000000000000000000000000000000000000002300000000000000000000000000000000000000000000000000000000000000000000000000000000000000000000000000000000000000000000000000000000000000000000000000000000
#035320:0000000000000013
#036350:23
#036381:145454545454545454545454240000000000000000000000
#036391:005400540054005400540054005400540054005400540054000000000000000000000000000000000000000000000000
#039321:0000000000000013
#039351:000000000000000000000000000000000000000000000000000000000000000000000000000000000000000000000000000000000000000000000000000000000000000000000000000000000000000000000000000000000000002300000000
#039380:000000000000000000000000000000000000000000000000000000000000000000000000000000000000000000000000000000000000000000000000000000000000000000000000000000000000000000000000000000000000001300000000
#0403b0:005300000000
#040380:0000002300000000
#041350:0013000000000000
#041320:000000000000000000000000000000000000002300000000000000000000000000000000000000000000000000000000000000000000000000000000000000000000000000000000000000000000000000000000000000000000000000000000
#041350:000000000000000000000000000000000000000000000000000000000000000000000000000000000000000000000000000000000000000000000000130000000000002300000000000000000000000000000000000000000000000000000000
#0413b1:000000000000000000000000000000000000000000000000000000000000000000000000000000000000000000000000000000000000000000000000000000000000001300000000000000000000000000000000000000000000000000000000
#041381:000000000000000000000000000000000000000000000000000000000000000000000000000000000000000000000000000000000000000000000000000000000000000000000000000000000000002300000000000000000000000000000000
#041350:000000000000000000000000000000000000000000000000000000000000000000000000000000000000000000000000000000000000000000000000000000000000000000000000000000000000001300000000000000000000000000000000
#041320:000000000000000000000000000000000000000000000000000000000000000000000000000000000000000000000000000000000000000000000000000000000000000000000000000000000000000000000000000000000000002300000000
#041381:000000000000000000000000000000000000000000000000000000000000000000000000000000000000000000000000000000000000000000000000000000000000000000000000000000000000000000000000000000000000001300000000
#0423b1:0053000000000000
#042371:00230000
#043361:0014
#043321:00000054
#044361:24
#0443b1:000000000000000000000000130000000000002300000000000000000000000000000000000000000000000000000000000000000000000000000000000000000000000000000000000000000000000000000000000000000000000000000000
#044360:000000000000000000000000000000000000001300000000230000000000000000000000000000000000000000000000000000000000000000000000000000000000000000000000000000000000000000000000000000000000000000000000
#044391:000000000000000000000000000000000000000000000000130000000000002300000000000000000000000000000000000000000000000000000000000000000000000000000000000000000000000000000000000000000000000000000000
#044340:000000000000000000000000000000000000000000000000000000000000001300000000230000000000000000000000000000000000000000000000000000000000000000000000000000000000000000000000000000000000000000000000
#044371:000000000000000000000000000000000000000000000000000000000000000000000000130000000000002300000000000000000000000000000000000000000000000000000000000000000000000000000000000000000000000000000000
#044320:000000000000000000000000000000000000000000000000000000000000000000000000000000000000001300000000230000000000000000000000000000000000000000000000000000000000000000000000000000000000000000000000
#044371:0013
#0443b1:0000000000230000
#044361:00000013
#044321:000000000000000000000000000000000000000000000000000000000000000000000000000000000000000000000000000000000000000000000000000000000000000000000000000000000000002300000000000000000000000000000000
#0443b1:000000000000000000000000000000000000000000000000000000000000000000000000000000000000000000000000000000000000000000000000000000000000000000000000000000000000000000000000000000000000001300000000
#045381:000000000000002300000000000000000000000000000000000000000000000000000000000000000000000000000000000000000000000000000000000000000000000000000000000000000000000000000000000000000000000000000000
#045381:0000132300000000
#045351:000000000000000000000000000000000000000000000000000000000000000000000000000000000000000000000000000000000000000000000000000000000000000000000000130000000000002300000000000000000000000000000000
#045351:000000000000000000000000000000000000000000000000000000000000000000000000000000000000000000000000000000000000000000000000000000000000000000000000000000000000000000000000000000000000001300000000
#046351:0023000000000000
#047351:00000013
#047321:0000000000000023
#004920:00000013
#004950:0000000000000023
#004981:0000000000000013
#0059b1:23
#010981:000000000000000000000000000000000000000000000000000000000000001300000000000000000000000000000000000000000000000000000000000000000000000000000000000000000000000000000000000000000000000000000000
#0109b1:0000002300000000
#010951:000000000000000000000000000000000000000000000000000000000000000000000000000000000000001300000000000000000000000000000000000000000000000000000000000000000000000000000000000000000000000000000000
#010921:0023
#010981:000000000000000000000000000000000000000000000000000000000000000000000000000000000000000000000000000000000000001300000000000000000000000000000000000000000000000000000000000000000000000000000000
#0109b1:0000000000230000
#024981:000000000000000000000000000000000000000000000000000000000000000000000000000000000000000000000000000000000000000000000000000000000000000000000000000000000000001300000000000000000000000000000000
#0249b1:0000000000000053
#0259b1:23
#036951:000000000000000000000000000000000000000000000000000000000000001300000000000000000000000000000000000000000000000000000000000000000000000000000000000000000000000000000000000000000000000000000000
#036921:0000005323000000
#045981:0000001300000000
#0459b1:0023
#046951:0013000000000000
#046921:00230000
#0489b1:00000013
#048961:000000000000000000000000000000000000000000000023
